osu file format v14

[General]
AudioFilename: audio.mp3
AudioLeadIn: 0
PreviewTime: 66954
Countdown: 0
SampleSet: Normal
StackLeniency: 0.2
Mode: 2
LetterboxInBreaks: 0
WidescreenStoryboard: 1

[Editor]
DistanceSpacing: 3.3
BeatDivisor: 4
GridSize: 16
TimelineZoom: 4.363999

[Metadata]
Title:MixxioN
TitleUnicode:MixxioN
Artist:MisoilePunch
ArtistUnicode:MisoilePunch♪
Creator:fayew
Version:MOCHI'S EXHAUST
Source:SOUND VOLTEX EXCEED GEAR
Tags:skill issue lol stardust prism -rustyy -joakh hareimu kukkai verti 4rcher- archer mochi mochi_- misomyl みそみぃる ponchi grace グレイス HEXA DIVER アザレアの使命篇 Azalea no Shimei-hen The 10th KAC オリジナル楽曲コンテスト Original Song Contest 最優秀賞 Saiyuushuu-shou Grand Prize SDVX Konami Bemani Video Game Electronic Rock Instrumental mission
BeatmapID:4432995
BeatmapSetID:1831275

[Difficulty]
HPDrainRate:4.5
CircleSize:3.8
OverallDifficulty:9
ApproachRate:9
SliderMultiplier:1.3
SliderTickRate:1

[Events]
//Background and Video events
0,0,"bg.jpg",0,0
//Break Periods
2,35956,36901
//Storyboard Layer 0 (Background)
//Storyboard Layer 1 (Fail)
//Storyboard Layer 2 (Pass)
//Storyboard Layer 3 (Foreground)
//Storyboard Layer 4 (Overlay)
//Storyboard Sound Samples

[TimingPoints]
1720,218.181818181818,4,2,0,25,1,0
1720,-100,4,2,0,25,0,0
2592,-100,4,2,3,25,0,0
3465,-100,4,2,4,25,0,0
4338,-100,4,2,4,25,0,0
8701,-100,4,2,8,65,0,0
8810,-100,4,2,8,65,0,0
18229,-100,4,2,3,65,0,0
18738,-100,4,1,3,65,0,0
19829,-100,4,2,3,65,0,0
20047,-100,4,2,8,65,0,0
20919,-100,4,2,4,65,0,0
20974,-100,4,2,8,65,0,0
22665,-100,4,2,4,65,0,0
22719,-100,4,2,8,65,0,0
24410,-100,4,2,4,65,0,0
24465,-100,4,2,8,65,0,0
26156,-100,4,2,4,65,0,0
26210,-100,4,2,8,65,0,0
34010,-100,4,2,8,65,0,0
34229,-100,4,2,4,40,0,0
38810,-100,4,2,5,50,0,0
38919,-100,4,2,5,50,0,0
39247,-100,4,2,5,50,0,0
39574,-100,4,2,6,50,0,0
39901,-100,4,2,3,60,0,0
40119,-100,4,2,4,65,0,0
40556,-100,4,2,8,65,0,0
40992,-100,4,2,8,65,0,0
47210,-100,4,2,9,65,0,0
47483,-100,4,2,7,65,0,0
47501,-100,4,2,7,65,0,0
47523,-100,4,2,7,65,0,0
47538,-100,4,2,7,65,0,0
47974,-100,4,1,3,60,0,0
54083,-100,4,2,8,70,0,0
54956,-100,4,2,8,70,0,0
61938,-100,4,1,3,70,0,0
63683,-100,4,2,8,70,0,0
64119,-100,4,2,4,40,0,0
64522,-100,4,2,4,5,0,0
64556,-100,4,2,4,40,0,0
66410,-100,4,2,5,50,0,0
67392,-100,4,2,8,80,0,1
73938,-100,4,2,3,80,0,0
74156,-100,4,2,8,80,0,1
81029,-100,4,2,8,80,0,0
81356,-100,4,2,8,80,0,1
93356,-100,4,2,4,60,0,0
94447,-100,4,2,8,60,0,0
95101,-100,4,1,3,80,0,0
97229,-100,4,1,3,5,0,0
97283,-100,4,2,10,80,0,0
97665,-100,4,2,10,5,0,0
97719,-100,4,2,7,80,0,0
98374,-100,4,2,8,50,0,0
98592,-100,4,2,8,75,0,0
99465,-100,4,2,4,75,0,0
99574,-100,4,2,8,75,0,0
101210,-100,4,2,4,75,0,0
101319,-100,4,2,8,75,0,0
102956,-100,4,2,4,75,0,0
103065,-100,4,2,8,75,0,0
105574,-100,4,2,4,75,0,0
105792,-100,4,1,3,75,0,1
109065,-100,4,2,8,75,0,0
112556,-100,4,2,8,75,0,0
113429,-100,4,2,5,75,0,0
113865,-100,4,2,7,75,0,0
114301,-100,4,1,3,75,0,1
116047,-100,4,2,9,55,0,0

[Colours]
Combo1 : 255,0,128
Combo2 : 255,255,0
Combo3 : 128,0,255
Combo4 : 0,172,255

[HitObjects]
140,166,1719,6,0,L|386:255,1,260,2|2,0:0|0:0,0:0:0:0:
175,93,2592,6,0,P|49:230|179:314,1,390,2|0,0:0|0:0,0:0:0:0:
309,193,3465,6,0,L|48:289,1,260,8|0,0:0|0:0,0:0:0:0:
273,167,4338,6,0,P|220:24|185:173,1,390
301,167,5210,6,0,P|377:275|287:312,1,260,8|0,0:0|0:0,0:0:0:0:
62,222,6082,6,0,L|57:70,1,130
253,337,6519,2,0,L|257:194,1,130
451,171,6956,5,8,0:0:0:0:
458,128,7173,1,0,0:0:0:0:
380,58,7391,1,0,0:0:0:0:
232,53,7610,1,0,0:0:0:0:
256,192,7829,12,2,8701,0:0:0:0:
208,116,8919,6,0,L|355:116,2,130,8|8|2,0:0|0:0|0:0,0:0:0:0:
416,254,9792,6,0,L|416:179,1,65,12|0,0:0|0:0,0:0:0:0:
351,339,10010,2,0,L|201:339,1,130,2|8,0:0|0:0,0:0:0:0:
392,136,10338,2,0,L|396:65,1,65,2|0,0:0|0:0,0:0:0:0:
332,71,10555,1,2,0:0:0:0:
202,166,10664,6,0,L|197:76,1,65,8|0,0:0|0:0,0:0:0:0:
368,350,10882,2,0,L|425:350,2,32.5,8|0|8,0:0|0:0|0:0,0:0:0:0:
159,275,11101,2,0,L|103:275,2,32.5,8|0|8,0:0|0:0|0:0,0:0:0:0:
341,175,11319,6,0,P|386:159|335:127,1,130,2|8,0:0|0:0,0:0:0:0:
211,316,11646,2,0,L|288:316,1,65,2|0,0:0|0:0,0:0:0:0:
342,326,11865,2,0,L|342:245,1,65,2|0,0:0|0:0,0:0:0:0:
175,173,12082,6,0,B|28:173,1,130,6|0,0:0|0:0,0:0:0:0:
229,328,12410,2,0,L|308:328,1,65,8|0,0:0|0:0,0:0:0:0:
229,328,12629,2,0,L|152:328,1,65,8|8,0:0|0:0,0:0:0:0:
294,236,12847,2,0,L|298:168,1,65,2|0,0:0|0:0,0:0:0:0:
104,67,13064,5,8,0:0:0:0:
39,67,13173,2,0,L|113:67,1,65,8|8,0:0|0:0,0:0:0:0:
170,329,13392,2,0,L|16:329,1,130,2|8,0:0|0:0,0:0:0:0:
340,241,13829,6,0,P|386:210|334:202,1,130,6|8,0:0|0:0,0:0:0:0:
210,209,14156,2,0,L|205:131,1,65,8|2,0:0|0:0,0:0:0:0:
376,98,14374,2,0,L|422:98,2,32.5,8|8|8,0:0|0:0|0:0,0:0:0:0:
78,191,14700,6,0,P|116:90|204:97,1,195,12|8,0:0|0:0,0:0:0:0:
386,334,15246,1,8,0:0:0:0:
398,336,15355,2,0,L|330:336,1,65,2|2,0:0|0:0,0:0:0:0:
164,124,15573,6,0,L|160:54,1,65,8|0,0:0|0:0,0:0:0:0:
292,61,15792,1,2,0:0:0:0:
357,62,15901,1,8,0:0:0:0:
357,62,16010,1,8,0:0:0:0:
162,335,16119,6,0,L|114:335,2,32.5,2|0|8,0:0|0:0|0:0,0:0:0:0:
372,276,16338,2,0,L|420:276,2,32.5,8|8|8,0:0|0:0|0:0,0:0:0:0:
177,136,16556,6,0,L|85:137,2,86.6666666666667,6|2|2,0:0|0:0|0:0,0:0:0:0:
334,167,16992,2,0,L|445:167,2,86.6666666666667,6|2|2,0:0|0:0|0:0,0:0:0:0:
123,348,17429,6,0,L|233:348,2,86.6666666666667,6|2|2,0:0|0:0|0:0,0:0:0:0:
419,195,17865,2,0,L|309:195,2,86.6666666666667,6|2|2,0:0|0:0|0:0,0:0:0:0:
123,128,18301,6,0,L|79:128,2,32.5,2|0|0,0:0|0:0|0:0,0:0:0:0:
256,192,18738,12,2,19829,0:0:0:0:
292,142,20046,6,0,L|210:142,1,65,12|8,0:0|0:0,0:0:0:0:
292,142,20264,2,0,L|368:142,1,65,8|8,0:0|0:0,0:0:0:0:
162,340,20482,2,0,B|155:207,1,130,8|8,0:0|0:0,0:0:0:0:
338,287,20919,6,0,L|420:287,1,65,8|8,0:0|0:0,0:0:0:0:
220,137,21247,2,0,L|153:137,1,65,8|8,0:0|0:0,0:0:0:0:
337,134,21574,2,0,L|340:67,1,65,8|8,0:0|0:0,0:0:0:0:
119,176,21792,6,0,L|114:254,1,65,10|8,0:0|0:0,0:0:0:0:
181,240,22010,2,0,L|247:240,1,65,8|8,0:0|0:0,0:0:0:0:
38,172,22228,2,0,B|30:31,1,130,8|8,0:0|0:0,0:0:0:0:
213,347,22664,6,0,L|213:276,1,65,8|8,0:0|0:0,0:0:0:0:
395,198,22991,2,0,L|398:132,1,65,8|8,0:0|0:0,0:0:0:0:
215,73,23319,2,0,L|141:73,1,65,8|8,0:0|0:0,0:0:0:0:
373,59,23538,6,0,P|420:85|367:105,1,130,12|8,0:0|0:0,0:0:0:0:
244,351,23864,2,0,L|93:351,1,130,8|8,0:0|0:0,0:0:0:0:
179,271,24191,2,0,L|250:271,1,65,8|8,0:0|0:0,0:0:0:0:
244,192,24410,5,8,0:0:0:0:
61,134,24629,2,0,B|208:134,2,130,8|8|10,0:0|0:0|0:0,0:0:0:0:
346,342,25282,6,0,L|496:343,1,130,2|8,0:0|0:0,0:0:0:0:
345,241,25610,2,0,L|191:242,1,130,8|8,0:0|0:0,0:0:0:0:
150,242,25938,2,0,L|234:241,1,65,8|8,0:0|0:0,0:0:0:0:
421,109,26155,5,8,0:0:0:0:
486,109,26264,2,0,L|418:109,1,65,8|8,0:0|0:0,0:0:0:0:
88,296,26592,5,8,0:0:0:0:
56,285,26646,1,0,0:0:0:0:
32,265,26701,1,8,0:0:0:0:
18,236,26755,1,8,0:0:0:0:
17,203,26810,1,8,0:0:0:0:
28,173,26864,1,8,0:0:0:0:
52,151,26919,1,8,0:0:0:0:
81,139,26973,1,0,0:0:0:0:
113,139,27028,1,0,0:0:0:0:
413,148,27246,6,0,B|273:148,1,130,12|2,0:0|0:0,0:0:0:0:
348,309,27573,2,0,B|487:309,1,130,2|0,0:0|0:0,0:0:0:0:
244,356,27900,6,0,L|238:246,1,97.5,2|0,0:0|0:0,0:0:0:0:
338,253,28229,1,8,0:0:0:0:
208,152,28338,2,0,L|124:152,1,65,2|2,0:0|0:0,0:0:0:0:
143,152,28556,2,0,L|227:152,1,65,8|0,0:0|0:0,0:0:0:0:
401,154,28773,6,0,L|321:154,1,65,2|0,0:0|0:0,0:0:0:0:
271,359,28991,2,0,L|271:286,1,65,8|0,0:0|0:0,0:0:0:0:
455,342,29210,2,0,L|471:229,1,97.5,2|0,0:0|0:0,0:0:0:0:
372,238,29537,1,0,0:0:0:0:
164,144,29646,6,0,B|158:12,1,130,8|8,0:0|0:0,0:0:0:0:
340,313,30082,2,0,L|220:313,2,97.5,0|0|2,0:0|0:0|0:0,0:0:0:0:
117,86,30519,6,0,B|28:86|28:86|80:86,1,130,2|8,0:0|0:0,0:0:0:0:
134,166,30846,1,2,0:0:0:0:
316,307,30955,2,0,L|246:307,1,65,0|2,0:0|0:0,0:0:0:0:
186,312,31173,2,0,L|186:236,1,65,8|0,0:0|0:0,0:0:0:0:
407,189,31391,6,0,P|449:145|405:129,1,130,8|8,0:0|0:0,0:0:0:0:
212,112,31719,2,0,L|296:112,1,65,2|2,0:0|0:0,0:0:0:0:
342,112,31938,1,2,0:0:0:0:
407,112,32046,1,8,0:0:0:0:
342,112,32155,1,2,0:0:0:0:
134,310,32264,6,0,L|59:310,1,65,10|10,0:0|0:0,0:0:0:0:
252,216,32592,2,0,L|252:146,1,65,10|10,0:0|0:0,0:0:0:0:
434,330,32919,6,0,L|289:330,1,130,10|0,0:0|0:0,0:0:0:0:
304,330,33246,1,10,0:0:0:0:
486,174,33355,2,0,L|491:89,1,65,10|2,0:0|0:0,0:0:0:0:
282,195,33573,2,0,L|200:196,1,65,8|2,0:0|0:0,0:0:0:0:
282,195,33792,2,0,L|364:196,1,65,2|10,0:0|0:0,0:0:0:0:
100,321,34010,5,6,0:0:0:0:
256,192,34229,12,0,35756,0:0:0:0:
256,192,37501,12,0,38592,0:0:0:0:
192,150,38810,6,0,L|183:311,1,130
367,146,39246,5,2,0:0:0:0:
172,144,39573,1,2,0:0:0:0:
367,193,39901,2,0,L|371:333,1,130,2|8,0:0|0:0,0:0:0:0:
188,314,40338,5,0,0:0:0:0:
318,320,40555,1,8,0:0:0:0:
188,314,40773,1,0,0:0:0:0:
487,161,40991,6,0,L|490:81,1,65,14|8,0:0|0:0,0:0:0:0:
359,240,41210,2,0,L|285:239,1,65,8|8,0:0|0:0,0:0:0:0:
359,240,41428,1,8,0:0:0:0:
424,240,41537,1,8,0:0:0:0:
99,79,41755,6,0,B|248:79,1,130,8|8,0:0|0:0,0:0:0:0:
229,79,42083,2,0,L|158:79,1,65,8|8,0:0|0:0,0:0:0:0:
372,178,42301,2,0,L|443:178,1,65,8|8,0:0|0:0,0:0:0:0:
437,178,42519,2,0,L|370:178,1,65,8|8,0:0|0:0,0:0:0:0:
149,333,42738,5,8,0:0:0:0:
278,331,42955,2,0,L|366:331,1,65,8|8,0:0|0:0,0:0:0:0:
278,331,43173,2,0,L|206:331,1,65,8|8,0:0|0:0,0:0:0:0:
278,254,43391,2,0,L|351:254,1,65,8|8,0:0|0:0,0:0:0:0:
147,173,43610,6,0,L|147:91,1,65,8|8,0:0|0:0,0:0:0:0:
212,117,43829,2,0,L|295:117,1,65,8|8,0:0|0:0,0:0:0:0:
97,333,44046,2,0,L|92:243,1,65,8|8,0:0|0:0,0:0:0:0:
314,330,44264,2,0,L|319:246,1,65,8|8,0:0|0:0,0:0:0:0:
84,185,44482,6,0,L|2:185,2,65,6|0|0,0:0|0:0|0:0,0:0:0:0:
280,162,44810,2,0,L|285:68,1,65,6|0,0:0|0:0,0:0:0:0:
217,100,45029,1,0,0:0:0:0:
425,341,45138,6,0,L|492:341,2,65,6|0|0,0:0|0:0|0:0,0:0:0:0:
191,338,45465,2,0,L|107:337,2,65,8|2|2,0:0|0:0|0:0,0:0:0:0:
412,212,45792,2,0,L|420:53,1,130,8|8,0:0|0:0,0:0:0:0:
92,138,46229,6,0,L|21:138,2,65,2|2|0,0:0|0:0|0:0,0:0:0:0:
287,326,46556,2,0,L|214:326,2,65,2|2|0,0:0|0:0|0:0,0:0:0:0:
480,115,46882,5,2,0:0:0:0:
484,115,46991,1,2,0:0:0:0:
145,87,47210,1,2,0:0:0:0:
351,304,47973,6,0,L|283:304,1,65,6|2,0:0|0:0,0:0:0:0:
221,303,48191,2,0,L|221:228,1,65,2|2,0:0|0:0,0:0:0:0:
287,240,48410,2,0,L|359:240,1,65,2|2,0:0|0:0,0:0:0:0:
116,331,48629,2,0,L|69:331,2,32.5,2|2|2,0:0|0:0|0:0,0:0:0:0:
337,223,48847,5,2,0:0:0:0:
368,221,48901,1,2,0:0:0:0:
383,194,48956,1,2,0:0:0:0:
367,167,49010,1,2,0:0:0:0:
336,166,49065,1,2,0:0:0:0:
115,134,49174,1,2,0:0:0:0:
84,132,49228,1,2,0:0:0:0:
69,105,49283,1,2,0:0:0:0:
85,78,49337,1,2,0:0:0:0:
116,77,49392,1,2,0:0:0:0:
337,98,49501,2,0,L|375:98,2,32.5,2|0|2,0:0|0:0|0:0,0:0:0:0:
116,268,49719,6,0,L|116:350,1,65,6|2,0:0|0:0,0:0:0:0:
181,328,49937,2,0,L|249:328,1,65,2|2,0:0|0:0,0:0:0:0:
181,328,50155,2,0,L|181:251,1,65,2|2,0:0|0:0,0:0:0:0:
417,189,50374,2,0,L|474:189,2,32.5,2|2|2,0:0|0:0|0:0,0:0:0:0:
222,155,50592,5,2,0:0:0:0:
222,155,50647,1,2,0:0:0:0:
261,155,50701,1,2,0:0:0:0:
300,156,50755,1,2,0:0:0:0:
300,156,50810,1,2,0:0:0:0:
105,257,50919,1,2,0:0:0:0:
74,259,50973,1,2,0:0:0:0:
59,286,51028,1,2,0:0:0:0:
75,313,51082,1,2,0:0:0:0:
106,314,51137,1,2,0:0:0:0:
342,314,51247,2,0,L|395:314,2,32.5,2|0|2,0:0|0:0|0:0,0:0:0:0:
104,116,51465,6,0,L|104:34,1,65,6|2,0:0|0:0,0:0:0:0:
169,56,51683,2,0,L|237:56,1,65,2|2,0:0|0:0,0:0:0:0:
169,56,51901,2,0,L|92:56,1,65,2|2,0:0|0:0,0:0:0:0:
338,120,52119,2,0,L|383:120,2,32.5,2|2|2,0:0|0:0|0:0,0:0:0:0:
128,160,52338,5,2,0:0:0:0:
97,162,52392,1,2,0:0:0:0:
82,189,52447,1,2,0:0:0:0:
98,216,52501,1,2,0:0:0:0:
129,217,52556,1,2,0:0:0:0:
337,263,52665,1,2,0:0:0:0:
368,265,52719,1,2,0:0:0:0:
383,292,52774,1,2,0:0:0:0:
367,319,52828,1,2,0:0:0:0:
336,320,52883,1,2,0:0:0:0:
117,292,52991,2,0,L|79:292,2,32.5,2|0|2,0:0|0:0|0:0,0:0:0:0:
340,206,53210,6,0,L|341:129,1,65,6|0,0:0|0:0,0:0:0:0:
276,149,53428,2,0,L|204:149,1,65,2|2,0:0|0:0,0:0:0:0:
276,149,53646,2,0,L|359:149,1,65,2|2,0:0|0:0,0:0:0:0:
146,308,53864,2,0,L|96:308,2,32.5,2|0|2,0:0|0:0|0:0,0:0:0:0:
395,296,54083,5,6,0:0:0:0:
256,192,54301,12,2,54738,1:2:0:0:
226,179,54955,6,0,L|154:179,1,65,6|2,0:0|0:0,0:0:0:0:
226,179,55173,2,0,L|305:179,1,65,2|2,0:0|0:0,0:0:0:0:
226,179,55392,2,0,L|226:96,1,65,2|2,0:0|0:0,0:0:0:0:
421,270,55610,2,0,L|477:270,2,32.5,2|2|2,0:0|0:0|0:0,0:0:0:0:
187,237,55828,6,0,L|119:237,1,65,2|2,0:0|0:0,0:0:0:0:
187,237,56046,2,0,L|266:237,1,65,2|2,0:0|0:0,0:0:0:0:
317,241,56264,2,0,L|317:160,1,65,2|2,0:0|0:0,0:0:0:0:
107,100,56483,2,0,L|54:100,2,32.5,2|2|2,0:0|0:0|0:0,0:0:0:0:
328,180,56701,5,2,0:0:0:0:
359,184,56755,1,0,0:0:0:0:
386,167,56810,1,2,0:0:0:0:
397,137,56864,1,0,0:0:0:0:
386,107,56919,1,2,0:0:0:0:
328,94,57028,1,2,0:0:0:0:
118,323,57138,5,2,0:0:0:0:
87,327,57192,1,0,0:0:0:0:
60,310,57247,1,2,0:0:0:0:
49,280,57301,1,2,0:0:0:0:
60,250,57356,1,2,0:0:0:0:
87,233,57410,1,2,0:0:0:0:
118,237,57465,1,2,0:0:0:0:
326,228,57574,5,2,0:0:0:0:
368,228,57646,1,2,0:0:0:0:
398,199,57719,1,2,0:0:0:0:
397,157,57792,1,2,0:0:0:0:
367,128,57864,1,2,0:0:0:0:
325,129,57937,1,2,0:0:0:0:
282,238,58010,1,2,0:0:0:0:
240,238,58082,1,2,0:0:0:0:
210,267,58155,1,2,0:0:0:0:
211,309,58228,1,2,0:0:0:0:
241,338,58300,1,2,0:0:0:0:
459,212,58446,6,0,L|465:373,1,130,6|2,0:0|0:0,0:0:0:0:
269,347,58773,2,0,L|187:347,1,65,2|2,0:0|0:0,0:0:0:0:
269,347,58991,2,0,L|335:347,1,65,2|2,0:0|0:0,0:0:0:0:
334,347,59210,1,2,0:0:0:0:
152,142,59319,5,2,0:0:0:0:
282,149,59537,2,0,L|282:62,1,65,2|2,0:0|0:0,0:0:0:0:
217,93,59755,2,0,L|138:93,1,65,2|2,0:0|0:0,0:0:0:0:
217,93,59973,2,0,L|302:92,1,65,10|0,0:0|0:0,0:0:0:0:
74,340,60191,5,6,0:0:0:0:
74,340,60410,1,8,0:0:0:0:
204,257,60628,1,2,0:0:0:0:
74,267,60846,1,10,0:0:0:0:
413,225,61065,5,2,0:0:0:0:
435,201,61119,1,0,0:0:0:0:
443,170,61174,1,0,0:0:0:0:
435,139,61228,1,0,0:0:0:0:
413,116,61283,1,2,0:0:0:0:
382,107,61337,1,0,0:0:0:0:
351,114,61392,1,2,0:0:0:0:
117,203,61501,5,2,0:0:0:0:
94,226,61555,1,0,0:0:0:0:
86,257,61610,1,2,0:0:0:0:
94,288,61664,1,0,0:0:0:0:
116,311,61719,1,2,0:0:0:0:
147,320,61773,1,0,0:0:0:0:
178,313,61828,1,0,0:0:0:0:
414,231,61938,5,2,0:0:0:0:
444,219,61992,1,2,0:0:0:0:
465,195,62047,1,2,0:0:0:0:
473,163,62101,1,2,0:0:0:0:
465,133,62156,1,2,0:0:0:0:
444,109,62210,1,2,0:0:0:0:
414,97,62265,1,2,0:0:0:0:
232,156,62374,5,2,0:0:0:0:
193,156,62428,1,2,0:0:0:0:
192,156,62483,1,2,0:0:0:0:
232,156,62537,1,2,0:0:0:0:
268,154,62592,1,2,0:0:0:0:
307,154,62646,1,2,0:0:0:0:
308,154,62701,1,2,0:0:0:0:
100,181,62810,5,2,0:0:0:0:
70,168,62864,1,2,0:0:0:0:
50,143,62919,1,2,0:0:0:0:
44,111,62973,1,2,0:0:0:0:
52,81,63028,1,2,0:0:0:0:
74,58,63082,1,2,0:0:0:0:
105,47,63137,1,2,0:0:0:0:
328,312,63247,5,2,0:0:0:0:
358,300,63301,1,2,0:0:0:0:
379,276,63356,1,2,0:0:0:0:
386,244,63410,1,2,0:0:0:0:
378,214,63465,1,2,0:0:0:0:
357,189,63519,1,2,0:0:0:0:
327,178,63574,1,2,0:0:0:0:
93,199,63683,5,6,0:0:0:0:
256,192,63901,12,0,64529,0:0:0:0:
256,192,64556,12,0,64965,0:0:0:0:
256,192,64992,12,0,65401,0:0:0:0:
256,192,65429,12,0,65838,0:0:0:0:
256,192,65865,12,0,66274,0:0:0:0:
256,192,66301,12,0,66738,0:0:0:0:
144,194,67065,6,0,L|136:45,1,130
360,315,67393,6,0,L|430:315,2,65,12|0|2,0:0|0:0|0:0,0:0:0:0:
295,312,67720,2,0,L|293:245,1,65,2|0,0:0|0:0,0:0:0:0:
488,257,67938,6,0,L|495:115,1,130,2|2,0:0|0:0,0:0:0:0:
299,185,68265,2,0,L|228:185,2,65,8|0|2,0:0|0:0|0:0,0:0:0:0:
363,169,68592,2,0,L|364:100,1,65,2|0,0:0|0:0,0:0:0:0:
169,344,68810,6,0,L|13:344,1,130,2|2,0:0|0:0,0:0:0:0:
249,257,69138,2,0,L|321:257,2,65,8|0|2,0:0|0:0|0:0,0:0:0:0:
184,255,69465,2,0,L|182:176,1,65,2|8,0:0|0:0,0:0:0:0:
429,185,69683,6,0,B|434:331,1,130,2|2,0:0|0:0,0:0:0:0:
238,183,70010,2,0,L|159:183,1,65,8|0,0:0|0:0,0:0:0:0:
304,98,70229,2,0,L|371:98,1,65,8|8,0:0|0:0,0:0:0:0:
304,98,70447,1,8,0:0:0:0:
83,163,70556,6,0,B|80:22,1,130,6|2,0:0|0:0,0:0:0:0:
294,324,70883,2,0,L|384:324,1,65,8|0,0:0|0:0,0:0:0:0:
229,286,71101,2,0,L|158:286,1,65,2|0,0:0|0:0,0:0:0:0:
164,286,71319,1,8,0:0:0:0:
390,100,71429,6,0,B|394:245,1,130,2|2,0:0|0:0,0:0:0:0:
173,356,71756,2,0,L|106:356,1,65,8|8,0:0|0:0,0:0:0:0:
290,329,71974,2,0,L|339:329,2,32.5,8|8|8,0:0|0:0|0:0,0:0:0:0:
121,187,72192,2,0,L|118:121,1,65,2|0,0:0|0:0,0:0:0:0:
313,133,72410,5,2,0:0:0:0:
313,133,72629,2,0,L|243:133,1,65,8|2,0:0|0:0,0:0:0:0:
79,69,72847,2,0,L|26:68,1,32.5,8|0,0:0|0:0,0:0:0:0:
46,68,72956,1,8,0:0:0:0:
111,148,73065,1,8,0:0:0:0:
314,143,73174,5,8,0:0:0:0:
119,326,73501,2,0,L|115:258,1,65,8|0,0:0|0:0,0:0:0:0:
297,324,73719,2,0,L|346:324,2,32.5,8|0|8,0:0|0:0|0:0,0:0:0:0:
166,200,73938,2,0,L|163:131,1,65,2|0,0:0|0:0,0:0:0:0:
410,203,74156,6,0,B|417:340,1,130,6|8,0:0|0:0,0:0:0:0:
352,330,74483,2,0,L|282:330,1,65,2|0,0:0|0:0,0:0:0:0:
352,330,74701,2,0,L|355:261,1,65,2|8,0:0|0:0,0:0:0:0:
160,184,74919,6,0,B|24:184,1,130,2|2,0:0|0:0,0:0:0:0:
30,184,75247,2,0,L|105:184,1,65,8|0,0:0|0:0,0:0:0:0:
264,344,75465,2,0,L|318:343,2,32.5,2|0|0,0:0|0:0|0:0,0:0:0:0:
134,233,75683,2,0,L|130:165,1,65,8|8,0:0|0:0,0:0:0:0:
364,131,75901,6,0,L|507:131,1,130,2|2,0:0|0:0,0:0:0:0:
363,294,76229,1,2,0:0:0:0:
363,294,76447,1,2,0:0:0:0:
64,282,76665,6,0,L|56:140,1,130,6|0,0:0|0:0,0:0:0:0:
265,115,76992,2,0,L|345:115,1,65,8|8,0:0|0:0,0:0:0:0:
265,115,77210,2,0,L|184:115,1,65,8|8,0:0|0:0,0:0:0:0:
266,324,77429,2,0,L|337:324,1,65,8|8,0:0|0:0,0:0:0:0:
149,299,77647,6,0,L|1:299,1,130,2|8,0:0|0:0,0:0:0:0:
149,162,77974,1,8,0:0:0:0:
149,162,78192,1,8,0:0:0:0:
436,217,78410,6,0,L|505:217,1,65,6|0,0:0|0:0,0:0:0:0:
436,217,78629,1,8,0:0:0:0:
267,162,78738,2,0,L|189:161,1,65,8|8,0:0|0:0,0:0:0:0:
267,162,78956,2,0,L|335:163,1,65,8|8,0:0|0:0,0:0:0:0:
137,312,79174,2,0,L|133:239,1,65,8|8,0:0|0:0,0:0:0:0:
393,114,79392,5,8,0:0:0:0:
397,114,79501,1,2,0:0:0:0:
215,126,79719,1,8,0:0:0:0:
215,126,79829,1,2,0:0:0:0:
33,298,80047,5,8,0:0:0:0:
29,298,80156,1,2,0:0:0:0:
94,294,80265,1,0,0:0:0:0:
315,199,80374,2,0,L|387:199,2,65,8|8|8,0:0|0:0|0:0,0:0:0:0:
107,282,80701,5,8,0:0:0:0:
75,276,80755,1,8,0:0:0:0:
47,259,80810,1,8,0:0:0:0:
29,232,80864,1,8,0:0:0:0:
23,200,80919,1,8,0:0:0:0:
30,169,80973,1,0,0:0:0:0:
48,142,81028,1,8,0:0:0:0:
76,125,81082,1,0,0:0:0:0:
108,120,81137,1,0,0:0:0:0:
421,123,81356,6,0,L|493:123,1,65,12|0,0:0|0:0,0:0:0:0:
421,123,81574,2,0,L|348:123,1,65,2|2,0:0|0:0,0:0:0:0:
421,123,81792,2,0,L|421:52,1,65,8|0,0:0|0:0,0:0:0:0:
226,318,82010,5,2,0:0:0:0:
161,333,82119,2,0,L|297:333,1,130
226,208,82447,2,0,L|156:208,2,65,2|0|8,0:0|0:0|0:0,0:0:0:0:
460,31,82774,6,0,L|464:171,1,130,2|2,0:0|0:0,0:0:0:0:
256,354,83101,2,0,L|191:352,1,65,8|0,0:0|0:0,0:0:0:0:
256,354,83319,1,2,0:0:0:0:
322,348,83429,2,0,L|324:281,1,65,2|8,0:0|0:0,0:0:0:0:
129,342,83647,6,0,B|119:211,1,130,2|2,0:0|0:0,0:0:0:0:
185,213,83974,2,0,L|256:212,1,65,8|8,0:0|0:0,0:0:0:0:
68,131,84192,1,8,0:0:0:0:
36,128,84246,1,0,0:0:0:0:
21,100,84301,1,8,0:0:0:0:
36,73,84355,1,0,0:0:0:0:
67,69,84410,1,8,0:0:0:0:
301,323,84519,6,0,B|442:323,1,130,6|2,0:0|0:0,0:0:0:0:
247,216,84847,2,0,L|155:216,1,65,8|2,0:0|0:0,0:0:0:0:
247,216,85065,1,0,0:0:0:0:
311,216,85174,1,2,0:0:0:0:
311,216,85283,1,8,0:0:0:0:
129,228,85392,6,0,L|124:375,1,130,2|2,0:0|0:0,0:0:0:0:
189,202,85719,2,0,L|258:202,1,65,8|8,0:0|0:0,0:0:0:0:
57,89,85938,2,0,L|8:89,1,32.5,8|0,0:0|0:0,0:0:0:0:
24,89,86047,1,8,0:0:0:0:
232,352,86156,2,0,L|299:352,1,65,8|8,0:0|0:0,0:0:0:0:
90,193,86374,6,0,P|34:152|60:110,1,130,8|8,0:0|0:0,0:0:0:0:
123,112,86701,1,2,0:0:0:0:
370,270,86810,1,8,0:0:0:0:
400,260,86864,1,2,0:0:0:0:
419,234,86919,1,2,0:0:0:0:
418,203,86973,1,2,0:0:0:0:
399,177,87028,1,2,0:0:0:0:
361,165,87082,1,2,0:0:0:0:
317,181,87137,1,2,0:0:0:0:
146,317,87247,6,0,L|145:242,1,65,2|2,0:0|0:0,0:0:0:0:
353,294,87465,2,0,L|431:294,1,65,2|0,0:0|0:0,0:0:0:0:
353,294,87683,2,0,L|267:294,1,65,2|0,0:0|0:0,0:0:0:0:
418,120,87901,2,0,L|421:200,1,65,8|0,0:0|0:0,0:0:0:0:
186,137,88119,6,0,L|143:137,2,32.5,2|0|2,0:0|0:0|0:0,0:0:0:0:
317,362,88338,2,0,L|320:290,1,65,12|2,0:0|0:0,0:0:0:0:
125,211,88556,1,2,0:0:0:0:
60,210,88665,2,0,L|131:210,1,65,2|8,0:0|0:0,0:0:0:0:
346,123,88883,6,0,L|201:123,1,130,2|2,0:0|0:0,0:0:0:0:
216,123,89210,2,0,L|281:124,1,65,8|2,0:0|0:0,0:0:0:0:
85,301,89429,1,8,0:0:0:0:
20,305,89538,1,2,0:0:0:0:
85,301,89647,1,8,0:0:0:0:
293,253,89756,1,8,0:0:0:0:
142,175,90010,6,0,L|142:85,1,86.6666666666667,6|6,0:0|0:0,0:0:0:0:
316,145,90301,2,0,L|216:145,1,86.6666666666667,6|6,0:0|0:0,0:0:0:0:
316,145,90592,1,6,0:0:0:0:
38,328,90738,5,6,0:0:0:0:
38,328,90956,2,0,L|128:328,1,65,8|8,0:0|0:0,0:0:0:0:
311,125,91174,2,0,L|225:125,1,65,8|8,0:0|0:0,0:0:0:0:
64,199,91392,2,0,L|153:198,1,65,8|2,0:0|0:0,0:0:0:0:
376,348,91610,6,0,L|379:219,1,130,8|2,0:0|0:0,0:0:0:0:
182,172,91938,2,0,L|51:171,1,130,8|2,0:0|0:0,0:0:0:0:
260,339,92265,2,0,L|266:270,1,65,8|2,0:0|0:0,0:0:0:0:
201,289,92483,1,2,0:0:0:0:
422,130,92592,6,0,L|495:130,2,65,8|8|8,0:0|0:0|0:0,0:0:0:0:
175,331,92919,2,0,L|128:331,2,32.5,8|8|8,0:0|0:0|0:0,0:0:0:0:
398,300,93138,1,8,0:0:0:0:
402,300,93247,1,8,0:0:0:0:
129,150,93356,5,0,0:0:0:0:
256,192,93574,12,8,94447,0:0:0:0:
157,226,94665,6,0,L|259:226,2,97.5,8|0|8,0:0|0:0|0:0,0:0:0:0:
404,306,95101,6,0,L|458:307,2,32.5,6|2|2,0:0|0:0|0:0,0:0:0:0:
209,278,95319,2,0,L|155:279,2,32.5,2|2|2,0:0|0:0|0:0,0:0:0:0:
406,185,95538,6,0,L|460:186,2,32.5,2|2|2,0:0|0:0|0:0,0:0:0:0:
185,132,95756,1,2,0:0:0:0:
315,100,95974,6,0,L|369:99,2,32.5,6|2|2,0:0|0:0|0:0,0:0:0:0:
107,159,96192,2,0,L|66:159,2,32.5,2|2|2,0:0|0:0|0:0,0:0:0:0:
315,340,96410,6,0,L|369:339,2,32.5,2|2|2,0:0|0:0|0:0,0:0:0:0:
119,326,96629,1,2,0:0:0:0:
288,78,96847,6,0,B|456:77|388:213|278:229,1,260,6|2,0:0|0:0,0:0:0:0:
75,277,97719,6,0,B|26:213|26:213|156:210,1,195,2|0,0:0|0:0,0:0:0:0:
394,181,98374,1,2,0:0:0:0:
82,170,98592,6,0,L|80:26,1,130,6|8,0:0|0:0,0:0:0:0:
393,315,99029,2,0,L|243:315,1,130,2|8,0:0|0:0,0:0:0:0:
198,315,99356,6,0,L|263:315,1,65,0|8,0:0|0:0,0:0:0:0:
328,314,99574,1,2,0:0:0:0:
328,314,99683,1,8,0:0:0:0:
133,221,99901,2,0,L|67:221,1,65,2|2,0:0|0:0,0:0:0:0:
68,221,100119,2,0,L|137:221,1,65,8|0,0:0|0:0,0:0:0:0:
329,169,100338,6,0,L|175:168,1,130,2|8,0:0|0:0,0:0:0:0:
368,324,100774,2,0,L|439:324,1,65,2|2,0:0|0:0,0:0:0:0:
368,324,100992,1,8,0:0:0:0:
173,120,101101,5,8,0:0:0:0:
166,117,101210,2,0,B|251:117,1,65,8|2,0:0|0:0,0:0:0:0:
296,120,101429,1,8,0:0:0:0:
114,331,101647,2,0,L|107:259,1,65,2|2,0:0|0:0,0:0:0:0:
173,265,101865,1,8,0:0:0:0:
472,209,102083,6,0,L|472:135,1,65,6|0,0:0|0:0,0:0:0:0:
406,146,102302,2,0,L|340:146,1,65,8|0,0:0|0:0,0:0:0:0:
406,345,102520,2,0,P|448:300|398:288,1,130,2|8,0:0|0:0,0:0:0:0:
210,80,102847,5,2,0:0:0:0:
145,80,102956,2,0,L|216:80,1,65,8|2,0:0|0:0,0:0:0:0:
275,206,103174,2,0,L|275:277,1,65,8|2,0:0|0:0,0:0:0:0:
93,336,103392,1,2,0:0:0:0:
28,337,103502,1,2,0:0:0:0:
93,336,103611,1,8,0:0:0:0:
158,336,103719,1,8,0:0:0:0:
381,142,103829,6,0,L|436:142,2,32.5,2|0|2,0:0|0:0|0:0,0:0:0:0:
251,317,104047,2,0,L|248:252,1,65,8|2,0:0|0:0,0:0:0:0:
378,299,104265,2,0,L|431:299,2,32.5,8|8|8,0:0|0:0|0:0,0:0:0:0:
248,201,104483,1,2,0:0:0:0:
241,201,104592,1,2,0:0:0:0:
451,114,104702,5,8,0:0:0:0:
458,114,104810,1,8,0:0:0:0:
328,322,104919,2,0,L|278:322,2,32.5,8|0|8,0:0|0:0|0:0,0:0:0:0:
459,227,105138,6,0,L|503:227,2,32.5,8|8|8,0:0|0:0|0:0,0:0:0:0:
273,183,105356,2,0,L|229:183,2,32.5,8|8|8,0:0|0:0|0:0,0:0:0:0:
402,99,105574,2,0,L|405:26,1,65,2|0,0:0|0:0,0:0:0:0:
176,83,105793,6,0,L|92:83,1,65,6|0,0:0|0:0,0:0:0:0:
111,83,106011,1,6,0:0:0:0:
176,83,106120,1,0,0:0:0:0:
352,351,106229,6,0,L|361:251,1,65,2|0,0:0|0:0,0:0:0:0:
292,290,106447,1,2,0:0:0:0:
227,290,106556,1,0,0:0:0:0:
403,181,106665,6,0,L|487:181,1,65,2|0,0:0|0:0,0:0:0:0:
468,181,106883,1,6,0:0:0:0:
403,181,106993,1,0,0:0:0:0:
208,253,107102,2,0,L|203:340,1,65,2|0,0:0|0:0,0:0:0:0:
397,315,107319,6,0,L|400:250,1,65,2|0,0:0|0:0,0:0:0:0:
229,189,107538,2,0,L|164:189,2,43.3333333333333,2|0|0,0:0|0:0|0:0,0:0:0:0:
399,159,107756,2,0,L|464:159,2,43.3333333333333,6|0|0,0:0|0:0|0:0,0:0:0:0:
260,81,107974,2,0,L|195:81,2,43.3333333333333,2|0|0,0:0|0:0|0:0,0:0:0:0:
443,288,108192,6,0,L|456:344,2,32.5,2|2|2,0:0|0:0|0:0,0:0:0:0:
326,286,108410,2,0,L|319:343,2,32.5,2|2|2,0:0|0:0|0:0,0:0:0:0:
208,220,108629,2,0,L|215:277,2,43.3333333333333,2|2|2,0:0|0:0|0:0,0:0:0:0:
156,199,108847,2,0,L|143:255,2,32.5,2|0|0,0:0|0:0|2:0,0:0:0:0:
389,179,109065,5,6,0:0:0:0:
411,179,109119,1,0,0:0:0:0:
421,160,109174,1,0,0:0:0:0:
409,142,109228,1,0,0:0:0:0:
388,145,109283,1,2,0:0:0:0:
102,115,109501,5,10,0:0:0:0:
80,115,109555,1,0,0:0:0:0:
70,96,109610,1,0,0:0:0:0:
82,78,109664,1,0,0:0:0:0:
103,81,109719,1,2,0:0:0:0:
397,220,109938,5,2,0:0:0:0:
431,221,109992,1,0,0:0:0:0:
449,189,110047,1,0,0:0:0:0:
429,159,110101,1,0,0:0:0:0:
394,164,110156,1,2,0:0:0:0:
102,78,110374,5,10,0:0:0:0:
67,76,110428,1,0,0:0:0:0:
49,108,110483,1,8,0:0:0:0:
69,138,110537,1,0,0:0:0:0:
104,133,110592,1,2,0:0:0:0:
396,94,110810,6,0,L|450:93,2,32.5,2|2|2,0:0|0:0|0:0,0:0:0:0:
173,122,111029,2,0,L|119:121,2,32.5,2|2|2,0:0|0:0|0:0,0:0:0:0:
394,215,111247,6,0,L|448:214,2,32.5,2|2|2,0:0|0:0|0:0,0:0:0:0:
173,268,111465,1,2,0:0:0:0:
303,343,111683,6,0,L|357:344,2,32.5,2|2|2,0:0|0:0|0:0,0:0:0:0:
82,304,111901,2,0,L|28:305,2,32.5,2|2|2,0:0|0:0|0:0,0:0:0:0:
305,221,112120,6,0,L|359:222,2,32.5,2|2|2,0:0|0:0|0:0,0:0:0:0:
84,160,112338,1,2,0:0:0:0:
260,77,112556,5,6,0:0:0:0:
256,192,112774,12,0,114083,0:0:0:0:
160,315,114301,5,2,0:0:0:0:
128,316,114355,1,2,0:0:0:0:
160,315,114410,1,2,0:0:0:0:
400,265,114519,5,2,0:0:0:0:
432,265,114574,1,2,0:0:0:0:
400,265,114629,1,2,0:0:0:0:
186,189,114738,5,2,0:0:0:0:
154,189,114793,1,2,0:0:0:0:
186,189,114848,1,2,0:0:0:0:
366,84,114956,5,2,0:0:0:0:
398,83,115010,1,2,0:0:0:0:
366,84,115065,1,2,0:0:0:0:
197,291,115174,5,2,0:0:0:0:
164,293,115229,1,2,0:0:0:0:
164,293,115283,1,2,0:0:0:0:
197,291,115338,1,2,0:0:0:0:
242,288,115392,1,2,0:0:0:0:
288,289,115447,1,2,0:0:0:0:
288,289,115501,1,2,0:0:0:0:
106,133,115610,6,0,L|98:44,1,65,2|2,0:0|0:0,0:0:0:0:
336,101,115829,2,0,L|420:101,1,65,2|2,0:0|0:0,0:0:0:0:
