osu file format v14

[General]
AudioFilename: audio.mp3
AudioLeadIn: 0
PreviewTime: 66954
Countdown: 0
SampleSet: Soft
StackLeniency: 0.2
Mode: 2
LetterboxInBreaks: 0
WidescreenStoryboard: 1

[Editor]
Bookmarks: 1717,20045,34008,54954,63681,81027,95099,109063,116045
DistanceSpacing: 1.2
BeatDivisor: 4
GridSize: 32
TimelineZoom: 2.964003

[Metadata]
Title:MixxioN
TitleUnicode:MixxioN
Artist:MisoilePunch
ArtistUnicode:MisoilePunch♪
Creator:fayew
Version:JOAKH VS. FAYEW'S EPILOGUE
Source:SOUND VOLTEX EXCEED GEAR
Tags:skill issue lol stardust prism -rustyy -joakh hareimu kukkai verti 4rcher- archer mochi mochi_- misomyl みそみぃる ponchi grace グレイス HEXA DIVER アザレアの使命篇 Azalea no Shimei-hen The 10th KAC オリジナル楽曲コンテスト Original Song Contest 最優秀賞 Saiyuushuu-shou Grand Prize SDVX Konami Bemani Video Game Electronic Rock Instrumental mission
BeatmapID:4398494
BeatmapSetID:1831275

[Difficulty]
HPDrainRate:3
CircleSize:4.6
OverallDifficulty:10
ApproachRate:10
SliderMultiplier:1.92
SliderTickRate:2

[Events]
//Background and Video events
0,0,"bg.jpg",0,0
//Break Periods
//Storyboard Layer 0 (Background)
//Storyboard Layer 1 (Fail)
//Storyboard Layer 2 (Pass)
//Storyboard Layer 3 (Foreground)
//Storyboard Layer 4 (Overlay)
//Storyboard Sound Samples

[TimingPoints]
1720,218.181818181818,4,2,0,25,1,0
2156,-50,4,2,0,25,0,0
2592,-222.22222222222,4,2,3,25,0,0
3465,-153.846153846153,4,2,4,25,0,0
6083,-133.333333333333,4,2,4,25,0,0
8701,-100,4,2,8,65,0,0
8919,-50,4,2,8,65,0,0
9138,-100,4,2,8,65,0,0
18229,-100,4,2,3,65,0,0
18301,-100,4,2,3,65,0,0
18738,-100,4,1,3,65,0,0
19829,-100,4,2,3,65,0,0
20047,-100,4,2,8,65,0,0
20919,-100,4,2,4,65,0,0
20974,-100,4,2,8,65,0,0
21028,-100,4,2,8,65,0,0
22665,-100,4,2,4,65,0,0
22719,-100,4,2,8,65,0,0
24410,-100,4,2,4,65,0,0
24465,-100,4,2,8,65,0,0
24519,-100,4,2,8,65,0,0
26156,-100,4,2,4,65,0,0
26210,-100,4,2,8,65,0,0
34010,-142.857142857143,4,2,8,65,0,0
34228,-142.857142857143,4,2,4,40,0,0
34883,-142.857142857143,4,2,4,40,0,0
38810,-142.857142857143,4,2,5,50,0,0
39247,-100,4,2,5,50,0,0
39574,-100,4,2,6,50,0,0
39901,-142.857142857143,4,2,3,60,0,0
40119,-142.857142857143,4,2,4,65,0,0
40556,-100,4,2,8,65,0,0
45138,-50,4,2,8,65,0,0
45356,-100,4,2,8,65,0,0
47210,-100,4,2,9,65,0,0
47483,-100,4,2,7,65,0,0
47974,-100,4,1,3,60,0,0
54083,-100,4,2,8,70,0,0
61938,-100,4,1,3,70,0,0
63683,-142.857142857143,4,2,8,70,0,0
64119,-142.857142857143,4,2,4,40,0,0
64522,-142.857142857143,4,2,4,5,0,0
64556,-222.222222222221,4,2,4,40,0,0
66410,-222.222222222221,4,2,5,50,0,0
66628,-222.222222222221,4,2,5,50,0,0
67392,-100,4,2,8,80,0,1
73938,-50,4,2,3,80,0,0
74156,-100,4,2,8,80,0,1
76229,-40,4,2,8,80,0,1
76665,-50,4,2,8,80,0,1
76992,-100,4,2,8,80,0,1
81029,-100,4,2,8,80,0,0
81083,-100,4,2,8,80,0,0
81356,-100,4,2,8,80,0,1
93356,-100,4,2,4,60,0,0
94228,-100,4,2,4,60,0,0
94447,-100,4,2,8,60,0,0
94665,-111.111111111111,4,2,8,60,0,0
95101,-100,4,1,3,80,0,0
96847,-50,4,1,3,80,0,0
97228,-50,4,1,3,5,0,0
97283,-100,4,2,10,80,0,0
97664,-100,4,2,10,5,0,0
97719,-100,4,2,7,80,0,0
98373,-100,4,2,8,50,0,0
98592,-100,4,2,8,75,0,0
99465,-100,4,2,4,75,0,0
99574,-100,4,2,8,75,0,0
101210,-100,4,2,4,75,0,0
101319,-100,4,2,8,75,0,0
102956,-100,4,2,4,75,0,0
103065,-100,4,2,8,75,0,0
105574,-100,4,2,4,75,0,0
105792,-100,4,1,3,75,0,1
108956,-100,4,1,3,75,0,0
109065,-100,4,2,8,75,0,0
112556,-125,4,2,8,75,0,0
113428,-125,4,2,5,75,0,0
113865,-125,4,2,7,75,0,0
114301,-100,4,1,3,75,0,1
114410,-100,4,1,3,75,0,1
116047,-100,4,2,9,55,0,0

[Colours]
Combo1 : 255,0,128
Combo2 : 255,255,0
Combo3 : 128,0,255
Combo4 : 0,172,255

[HitObjects]
16,352,1720,6,0,L|16:32,1,288,2|0,0:0|0:0,0:0:0:0:
256,384,2157,2,0,B|256:0|256:0|256:272,1,576,2|0,0:0|0:0,0:0:0:0:
496,352,2592,6,0,P|448:208|304:144,1,302.399990771485,2|0,0:0|0:0,0:0:0:0:
208,144,3465,2,0,L|400:144,1,187.199991430664,8|0,0:0|0:0,0:0:0:0:
288,96,3901,2,0,P|224:160|304:192,1,187.199991430664
112,304,4338,6,0,P|112:208|384:64,1,436.799980004884
288,128,5210,2,0,L|80:128,1,187.199991430664,8|0,0:0|0:0,0:0:0:0:
192,128,5647,2,0,P|256:160|176:208,1,187.199991430664
432,253,6083,6,0,L|262:267,1,144.000005493164
432,253,6519,2,0,L|451:99,1,144.000005493164
128,224,6956,6,0,L|298:234,1,144.000005493164,8|0,0:0|0:0,0:0:0:0:
128,224,7393,1,0,0:0:0:0:
80,176,7501,1,0,0:0:0:0:
128,128,7611,1,0,0:0:0:0:
176,176,7665,1,0,0:0:0:0:
128,224,7719,1,0,0:0:0:0:
304,240,7829,5,0,0:0:0:0:
256,192,7938,12,0,8483,0:0:0:0:
160,288,8701,6,0,L|224:288,1,48,2|0,0:0|0:0,0:0:0:0:
352,288,8810,1,2,0:0:0:0:
160,256,8919,2,0,B|352:256|352:256|288:144,1,288,8|0,0:0|0:0,0:0:0:0:
160,176,9138,2,0,L|80:176,1,48,8|8,0:0|0:0,0:0:0:0:
256,128,9247,2,0,L|304:128,1,48,8|0,0:0|0:0,0:0:0:0:
160,240,9356,2,0,L|32:240,1,96,2|8,0:0|0:0,0:0:0:0:
64,192,9683,2,0,L|112:192,1,48,2|0,0:0|0:0,0:0:0:0:
304,192,9792,6,0,L|208:192,1,96,12|0,0:0|0:0,0:0:0:0:
400,256,10010,1,2,0:0:0:0:
209,254,10119,1,2,0:0:0:0:
400,192,10229,1,8,0:0:0:0:
160,160,10338,6,0,L|352:160,1,192,2|2,0:0|0:0,0:0:0:0:
160,272,10665,2,0,L|112:272,1,48,8|0,0:0|0:0,0:0:0:0:
352,240,10774,2,0,L|288:240,1,48
80,160,10883,2,0,L|64:96,1,48,8|0,0:0|0:0,0:0:0:0:
280,160,10992,2,0,L|264:112,1,48,8|0,0:0|0:0,0:0:0:0:
80,96,11101,2,0,L|192:96,1,96,8|8,0:0|0:0,0:0:0:0:
400,64,11319,5,2,0:0:0:0:
400,160,11429,1,2,0:0:0:0:
176,160,11538,1,8,0:0:0:0:
400,256,11647,2,0,L|272:256,1,96,2|0,0:0|0:0,0:0:0:0:
80,192,11865,2,0,L|208:192,1,96,2|0,0:0|0:0,0:0:0:0:
384,192,12083,6,0,L|192:192,1,192,6|0,0:0|0:0,0:0:0:0:
240,160,12356,1,0,0:0:0:0:
400,112,12410,2,0,L|336:112,1,48,8|0,0:0|0:0,0:0:0:0:
192,240,12519,2,0,L|128:240,1,48
328,304,12629,2,0,L|248:304,1,48,8|8,0:0|0:0,0:0:0:0:
128,256,12738,1,8,0:0:0:0:
240,256,12792,1,0,0:0:0:0:
352,256,12847,2,0,L|192:256,1,144,2|0,0:0|0:0,0:0:0:0:
32,192,13065,6,0,L|32:64,1,96,8|8,0:0|0:0,0:0:0:0:
80,96,13229,1,0,0:0:0:0:
224,96,13283,2,0,L|272:96,1,48,8|0,0:0|0:0,0:0:0:0:
144,224,13392,2,0,L|48:224,1,96,2|0,0:0|0:0,0:0:0:0:
96,192,13556,1,0,0:0:0:0:
256,192,13610,2,0,L|144:192,1,96,8|0,0:0|0:0,0:0:0:0:
352,32,13829,6,0,P|400:48|352:144,1,192,6|8,0:0|0:0,0:0:0:0:
160,176,14156,1,8,0:0:0:0:
352,176,14265,1,2,0:0:0:0:
128,208,14374,2,0,L|64:208,1,48,8|8,0:0|0:0,0:0:0:0:
232,208,14483,2,0,L|280:208,1,48,8|0,0:0|0:0,0:0:0:0:
432,208,14592,2,0,L|384:208,1,48,2|0,0:0|0:0,0:0:0:0:
160,304,14701,6,0,L|352:304,1,192,12|8,0:0|0:0,0:0:0:0:
304,272,14974,1,8,0:0:0:0:
160,240,15029,2,0,L|48:240,1,96,8|2,0:0|0:0,0:0:0:0:
256,192,15247,1,8,0:0:0:0:
64,176,15356,1,2,0:0:0:0:
256,144,15465,1,2,0:0:0:0:
160,112,15574,6,0,L|160:0,1,96,8|0,0:0|0:0,0:0:0:0:
208,16,15738,1,0,0:0:0:0:
320,32,15792,2,0,L|256:32,1,48,2|2,0:0|0:0,0:0:0:0:
128,160,15901,2,0,L|32:160,1,96,8|8,0:0|0:0,0:0:0:0:
256,256,16119,6,0,L|320:256,1,48,2|0,0:0|0:0,0:0:0:0:
256,224,16229,2,0,L|192:224,1,48,8|8,0:0|0:0,0:0:0:0:
384,160,16338,2,0,L|432:160,1,48,8|8,0:0|0:0,0:0:0:0:
208,112,16447,2,0,L|160:112,1,48,8|8,0:0|0:0,0:0:0:0:
384,96,16556,6,0,L|464:96,1,64,6|0,0:0|0:0,0:0:0:0:
192,176,16701,2,0,L|192:256,1,64,2|0,0:0|0:0,0:0:0:0:
320,304,16847,2,0,L|240:304,1,64,2|0,0:0|0:0,0:0:0:0:
112,192,16992,2,0,L|32:192,1,64,6|0,0:0|0:0,0:0:0:0:
336,304,17137,2,0,L|336:240,1,64,2|0,0:0|0:0,0:0:0:0:
208,352,17283,2,0,L|128:352,1,64,2|0,0:0|0:0,0:0:0:0:
432,336,17429,6,0,L|368:336,1,64,6|0,0:0|0:0,0:0:0:0:
224,288,17574,2,0,L|336:288,1,64,2|0,0:0|0:0,0:0:0:0:
144,336,17719,2,0,L|80:336,1,64,2|0,0:0|0:0,0:0:0:0:
416,240,17865,2,0,L|480:240,1,64,6|0,0:0|0:0,0:0:0:0:
96,240,18010,2,0,L|16:240,1,64,2|0,0:0|0:0,0:0:0:0:
416,240,18156,2,0,L|496:240,1,64,2|0,0:0|0:0,0:0:0:0:
256,192,18301,5,2,0:0:0:0:
256,192,18738,6,0,L|192:192,1,48,2|2,0:0|0:0,0:0:0:0:
96,192,18847,1,2,0:0:0:0:
208,192,18901,1,2,0:0:0:0:
320,248,18956,1,2,0:0:0:0:
208,192,19010,1,2,0:0:0:0:
96,112,19065,2,0,L|48:112,1,48,2|2,0:0|0:0,0:0:0:0:
160,80,19174,5,2,0:0:0:0:
272,80,19229,1,2,0:0:0:0:
160,80,19283,1,2,0:0:0:0:
48,80,19338,1,2,0:0:0:0:
160,144,19392,2,0,L|208:144,1,48,2|2,0:0|0:0,0:0:0:0:
320,128,19501,1,2,0:0:0:0:
432,112,19556,1,2,0:0:0:0:
320,96,19610,6,0,L|272:96,1,48,2|2,0:0|0:0,0:0:0:0:
128,144,19719,2,0,L|48:144,1,48,2|2,0:0|0:0,0:0:0:0:
336,80,19829,2,0,P|377:145|320:160,1,144,2|0,0:0|0:0,0:0:0:0:
120,152,20047,5,12,0:0:0:0:
331,325,20156,2,0,L|215:326,1,96,8|8,0:0|0:0,0:0:0:0:
470,260,20374,1,8,0:0:0:0:
234,227,20483,2,0,L|346:228,1,96,8|8,0:0|0:0,0:0:0:0:
101,88,20701,1,8,0:0:0:0:
331,87,20810,1,8,0:0:0:0:
96,139,20919,5,8,0:0:0:0:
89,31,21028,1,8,0:0:0:0:
352,237,21138,2,0,L|450:237,1,96,8|8,0:0|0:0,0:0:0:0:
88,272,21356,2,0,L|24:272,1,48,8|0,0:0|0:0,0:0:0:0:
168,224,21465,2,0,L|215:224,1,48,8|0,0:0|0:0,0:0:0:0:
344,176,21574,2,0,L|280:176,1,48,8|8,0:0|0:0,0:0:0:0:
424,128,21683,2,0,L|488:128,1,48,8|8,0:0|0:0,0:0:0:0:
241,229,21792,5,10,0:0:0:0:
44,228,21901,2,0,L|144:228,1,96,8|8,0:0|0:0,0:0:0:0:
395,236,22119,1,8,0:0:0:0:
166,138,22229,2,0,L|262:137,1,96,8|8,0:0|0:0,0:0:0:0:
26,144,22447,1,8,0:0:0:0:
250,137,22556,1,8,0:0:0:0:
22,68,22665,6,0,L|120:65,1,96,8|8,0:0|0:0,0:0:0:0:
346,69,22883,1,8,0:0:0:0:
117,65,22992,1,8,0:0:0:0:
368,176,23101,2,0,L|374:223,1,48,8|8,0:0|0:0,0:0:0:0:
240,272,23210,2,0,L|234:319,1,48,8|8,0:0|0:0,0:0:0:0:
368,272,23319,2,0,L|304:272,1,48,8|8,0:0|0:0,0:0:0:0:
208,352,23429,2,0,L|265:356,1,48,8|8,0:0|0:0,0:0:0:0:
137,235,23538,6,0,L|28:233,1,96,12|8,0:0|0:0,0:0:0:0:
254,134,23756,1,8,0:0:0:0:
45,132,23865,1,8,0:0:0:0:
270,88,23974,1,8,0:0:0:0:
61,86,24083,1,8,0:0:0:0:
289,47,24192,1,8,0:0:0:0:
80,45,24301,1,8,0:0:0:0:
315,346,24410,5,8,0:0:0:0:
328,235,24519,1,8,0:0:0:0:
122,261,24629,2,0,L|21:259,1,96,8|8,0:0|0:0,0:0:0:0:
227,169,24847,1,8,0:0:0:0:
16,160,24956,2,0,L|71:158,1,48,8|8,0:0|0:0,0:0:0:0:
240,128,25065,2,0,L|174:125,1,48,10|8,0:0|0:0,0:0:0:0:
48,80,25174,2,0,L|96:80,1,48,8|8,0:0|0:0,0:0:0:0:
310,49,25283,6,0,L|211:52,1,96,2|8,0:0|0:0,0:0:0:0:
425,141,25501,1,8,0:0:0:0:
206,232,25610,2,0,L|315:224,1,96,8|8,0:0|0:0,0:0:0:0:
74,149,25829,1,8,0:0:0:0:
286,175,25938,2,0,L|164:168,1,96,8|8,0:0|0:0,0:0:0:0:
242,125,26101,1,0,0:0:0:0:
403,122,26156,6,0,L|501:119,1,96,8|8,0:0|0:0,0:0:0:0:
276,311,26374,2,0,L|153:309,1,96,8|2,0:0|0:0,0:0:0:0:
464,320,26592,2,0,L|456:264,1,48,8|0,0:0|0:0,0:0:0:0:
320,256,26701,2,0,L|312:208,1,48,8|8,0:0|0:0,0:0:0:0:
176,144,26810,2,0,L|240:144,1,48,8|8,0:0|0:0,0:0:0:0:
448,144,26919,2,0,L|400:144,1,48,8|0,0:0|0:0,0:0:0:0:
235,194,27029,6,0,L|128:192,1,96
186,158,27192,1,0,0:0:0:0:
319,75,27247,1,12,0:0:0:0:
142,58,27356,2,0,L|42:56,1,96,0|2,0:0|0:0,0:0:0:0:
293,60,27574,1,2,0:0:0:0:
43,124,27683,1,8,0:0:0:0:
293,60,27792,1,0,0:0:0:0:
75,291,27901,6,0,L|53:186,1,96,2|2,0:0|0:0,0:0:0:0:
108,192,28065,1,0,0:0:0:0:
274,218,28119,1,8,0:0:0:0:
54,134,28229,2,0,L|159:132,1,96,8|2,0:0|0:0,0:0:0:0:
358,102,28447,1,2,0:0:0:0:
155,125,28556,1,8,0:0:0:0:
453,168,28665,1,0,0:0:0:0:
170,340,28774,6,0,L|74:334,1,96,2|0,0:0|0:0,0:0:0:0:
295,231,28992,1,8,0:0:0:0:
77,235,29101,1,0,0:0:0:0:
311,323,29210,2,0,L|208:322,1,96,2|0,0:0|0:0,0:0:0:0:
382,319,29374,2,0,L|417:279,2,48,0|8|0,0:0|0:0|0:0,0:0:0:0:
215,322,29538,2,0,L|279:323,1,48
143,147,29647,6,0,L|32:136,1,96,8|0,0:0|0:0,0:0:0:0:
107,86,29810,1,0,0:0:0:0:
304,96,29865,2,0,L|352:96,1,48,8|0,0:0|0:0,0:0:0:0:
224,128,29974,1,8,0:0:0:0:
96,160,30029,1,0,0:0:0:0:
272,208,30083,2,0,L|384:208,1,96,0|2,0:0|0:0,0:0:0:0:
176,64,30301,2,0,L|224:64,1,48,8|0,0:0|0:0,0:0:0:0:
416,64,30410,1,2,0:0:0:0:
214,295,30519,6,0,L|116:294,1,96,2|0,0:0|0:0,0:0:0:0:
370,275,30738,2,0,L|369:167,1,96,8|2,0:0|0:0,0:0:0:0:
137,175,30956,1,0,0:0:0:0:
232,174,31065,2,0,L|160:176,1,48,2|0,0:0|0:0,0:0:0:0:
16,112,31174,2,0,L|132:110,1,96,8|0,0:0|0:0,0:0:0:0:
320,336,31392,6,0,L|415:334,1,96,8|2,0:0|0:0,0:0:0:0:
274,296,31556,1,0,0:0:0:0:
136,288,31610,1,8,0:0:0:0:
335,220,31719,2,0,L|448:222,1,96,2|8,0:0|0:0,0:0:0:0:
152,84,31938,1,2,0:0:0:0:
286,75,31992,1,0,0:0:0:0:
427,69,32047,1,8,0:0:0:0:
148,171,32156,1,2,0:0:0:0:
480,176,32265,5,10,0:0:0:0:
208,320,32374,1,10,0:0:0:0:
304,320,32483,1,0,0:0:0:0:
32,176,32592,1,10,0:0:0:0:
304,320,32701,1,10,0:0:0:0:
208,320,32810,1,0,0:0:0:0:
480,192,32919,1,10,0:0:0:0:
208,320,33029,1,10,0:0:0:0:
304,320,33138,5,0,0:0:0:0:
72,105,33247,1,10,0:0:0:0:
273,69,33356,1,10,0:0:0:0:
26,46,33465,1,2,0:0:0:0:
311,113,33574,1,8,0:0:0:0:
71,163,33683,1,2,0:0:0:0:
272,152,33792,1,2,0:0:0:0:
224,144,33847,1,2,0:0:0:0:
28,192,33901,1,10,0:0:0:0:
80,192,33956,1,2,0:0:0:0:
256,336,34010,6,0,P|288:288|256:224,1,134.399995898438,6|0,0:0|0:0,0:0:0:0:
188,206,34338,1,0,0:0:0:0:
116,186,34447,2,0,P|58:132|127:57,1,201.599993847656
188,56,34883,6,0,P|252:120|188:184,1,201.599993847656,8|0,0:0|0:0,0:0:0:0:
116,186,35319,2,0,P|52:250|116:314,1,201.599993847656
284,307,35756,5,0,0:0:0:0:
343,278,35865,1,0,0:0:0:0:
380,223,35974,1,0,0:0:0:0:
382,156,36083,1,0,0:0:0:0:
272,224,36192,2,0,P|272:256|400:336,1,201.599993847656
304,32,36629,6,0,P|240:80|320:160,1,201.599993847656,8|0,0:0|0:0,0:0:0:0:
390,170,37065,2,0,P|390:107|269:55,1,201.599993847656
96,224,37501,5,0,0:0:0:0:
90,158,37610,1,0,0:0:0:0:
129,105,37719,1,0,0:0:0:0:
194,92,37829,2,0,P|256:128|192:208,1,201.599993847656
120,209,38265,1,0,0:0:0:0:
320,320,38374,6,0,L|160:320,2,134.399995898438,8|0|0,0:0|0:0|0:0,0:0:0:0:
256,256,38919,1,0,0:0:0:0:
431,211,39029,1,0,0:0:0:0:
451,211,39056,1,0,0:0:0:0:
469,205,39083,1,0,0:0:0:0:
479,185,39110,1,0,0:0:0:0:
469,205,39138,1,0,0:0:0:0:
451,211,39165,1,0,0:0:0:0:
431,211,39192,1,0,0:0:0:0:
240,160,39247,6,0,L|208:160,2,24,2|0|0,0:0|0:0|0:0,0:0:0:0:
380,160,39356,1,0,0:0:0:0:
402,153,39383,1,0,0:0:0:0:
419,136,39410,1,0,0:0:0:0:
425,113,39437,1,0,0:0:0:0:
419,90,39465,1,0,0:0:0:0:
402,73,39492,1,0,0:0:0:0:
379,66,39519,1,0,0:0:0:0:
216,241,39574,6,0,L|184:241,2,24,2|0|0,0:0|0:0|0:0,0:0:0:0:
349,248,39683,1,0,0:0:0:0:
371,241,39710,1,0,0:0:0:0:
388,224,39737,1,0,0:0:0:0:
394,201,39764,1,0,0:0:0:0:
388,178,39792,1,0,0:0:0:0:
371,161,39819,1,0,0:0:0:0:
348,154,39846,1,0,0:0:0:0:
144,288,39901,6,0,L|64:288,1,67.1999979492188,2|0,0:0|0:0,0:0:0:0:
256,256,40119,2,0,L|320:256,2,44.7999986328125,8|0|0,0:0|0:0|0:0,0:0:0:0:
188,256,40338,2,0,L|268:256,1,67.1999979492188
448,192,40556,2,0,L|320:192,2,96,8|8|0,0:0|0:0|0:0,0:0:0:0:
64,304,40992,6,0,L|176:304,1,96,14|8,0:0|0:0,0:0:0:0:
352,304,41210,1,8,0:0:0:0:
160,240,41319,1,8,0:0:0:0:
352,224,41429,2,0,L|240:224,2,96,8|8|8,0:0|0:0|0:0,0:0:0:0:
160,176,41756,1,8,0:0:0:0:
352,144,41865,6,0,L|448:144,1,96,8|8,0:0|0:0,0:0:0:0:
256,96,42083,2,0,L|368:96,1,96,8|8,0:0|0:0,0:0:0:0:
160,160,42301,2,0,L|104:160,1,48,8|8,0:0|0:0,0:0:0:0:
256,248,42410,2,0,L|256:168,1,48,8|8,0:0|0:0,0:0:0:0:
112,160,42519,2,0,L|0:160,1,96,8|8,0:0|0:0,0:0:0:0:
64,128,42683,1,8,0:0:0:0:
352,80,42738,6,0,L|240:80,1,96,8|8,0:0|0:0,0:0:0:0:
64,176,42956,1,8,0:0:0:0:
256,176,43065,2,0,L|144:176,1,96,8|8,0:0|0:0,0:0:0:0:
352,176,43283,1,8,0:0:0:0:
144,240,43392,1,8,0:0:0:0:
368,240,43501,1,8,0:0:0:0:
160,304,43610,6,0,L|272:304,1,96,8|8,0:0|0:0,0:0:0:0:
64,240,43829,2,0,L|176:240,1,96,8|8,0:0|0:0,0:0:0:0:
416,256,44047,2,0,L|336:256,1,48,8|0,0:0|0:0,0:0:0:0:
224,192,44156,2,0,L|272:192,1,48,8|8,0:0|0:0,0:0:0:0:
496,112,44265,2,0,L|416:112,1,48,8|8,0:0|0:0,0:0:0:0:
160,32,44374,2,0,L|208:32,1,48,8|8,0:0|0:0,0:0:0:0:
368,112,44483,5,6,0:0:0:0:
176,224,44592,2,0,L|288:224,1,96
80,112,44810,1,6,0:0:0:0:
272,192,44919,2,0,L|176:192,1,96
384,96,45138,2,0,L|384:288,1,192,6|0,0:0|0:0,0:0:0:0:
96,192,45356,6,0,L|176:192,1,48
256,160,45465,1,8,0:0:0:0:
144,160,45519,1,0,0:0:0:0:
256,192,45574,2,0,L|320:192,1,48,2|0,0:0|0:0,0:0:0:0:
416,192,45683,1,2,0:0:0:0:
304,168,45738,1,0,0:0:0:0:
192,152,45792,6,0,L|112:152,1,48,8|8,0:0|0:0,0:0:0:0:
256,112,45901,2,0,L|320:112,1,48,8|8,0:0|0:0,0:0:0:0:
176,80,46010,1,8,0:0:0:0:
304,80,46065,1,8,0:0:0:0:
432,64,46119,1,8,0:0:0:0:
304,48,46174,1,8,0:0:0:0:
176,64,46229,6,0,L|128:64,1,48,2|0,0:0|0:0,0:0:0:0:
256,96,46338,2,0,L|304:96,1,48,2|0,0:0|0:0,0:0:0:0:
432,112,46447,1,0,0:0:0:0:
144,192,46556,6,0,L|96:192,1,48,2|0,0:0|0:0,0:0:0:0:
224,256,46665,2,0,L|272:256,1,48,2|0,0:0|0:0,0:0:0:0:
400,272,46774,1,0,0:0:0:0:
192,352,46883,6,0,L|144:352,1,48,2|0,0:0|0:0,0:0:0:0:
288,224,46992,2,0,L|224:224,1,48,2|0,0:0|0:0,0:0:0:0:
16,192,47210,5,2,0:0:0:0:
496,240,47483,2,0,L|496:32,1,192,2|0,0:0|0:0,0:0:0:0:
144,288,47974,5,6,0:0:0:0:
336,240,48083,2,0,L|224:240,1,96,2|2,0:0|0:0,0:0:0:0:
432,192,48301,1,2,0:0:0:0:
240,192,48410,1,2,0:0:0:0:
432,304,48519,1,2,0:0:0:0:
160,304,48629,2,0,L|128:304,2,24,2|2|2,0:0|0:0|0:0,0:0:0:0:
288,288,48710,2,0,L|256:288,1,24,2|2,0:0|0:0,0:0:0:0:
96,192,48847,6,0,L|64:192,2,24,2|2|2,0:0|0:0|0:0,0:0:0:0:
240,144,48956,2,0,L|208:144,1,24,2|2,0:0|0:0,0:0:0:0:
128,144,49010,1,2,0:0:0:0:
16,144,49065,1,2,0:0:0:0:
224,320,49174,2,0,L|256:320,2,24,2|2|2,0:0|0:0|0:0,0:0:0:0:
80,272,49283,2,0,L|112:272,1,24,2|2,0:0|0:0,0:0:0:0:
192,272,49337,1,2,0:0:0:0:
304,272,49392,1,2,0:0:0:0:
112,208,49501,6,0,L|64:208,1,32,2|2,0:0|0:0,0:0:0:0:
192,192,49574,2,0,L|224:192,1,32,2|2,0:0|0:0,0:0:0:0:
112,160,49647,2,0,L|80:160,1,32,2|2,0:0|0:0,0:0:0:0:
192,128,49719,5,6,0:0:0:0:
384,64,49829,2,0,L|272:64,1,96,2|2,0:0|0:0,0:0:0:0:
480,144,50047,1,2,0:0:0:0:
288,224,50156,2,0,L|416:224,1,96,2|2,0:0|0:0,0:0:0:0:
192,288,50374,2,0,L|160:288,2,24,2|2|2,0:0|0:0|0:0,0:0:0:0:
288,352,50456,2,0,L|256:352,1,24,0|2,0:0|0:0,0:0:0:0:
96,352,50592,5,2,0:0:0:0:
72,352,50619,1,2,0:0:0:0:
48,352,50646,1,2,0:0:0:0:
160,304,50701,2,0,L|192:304,1,24,2|2,0:0|0:0,0:0:0:0:
272,304,50756,1,2,0:0:0:0:
384,304,50810,1,2,0:0:0:0:
176,336,50919,5,2,0:0:0:0:
200,336,50946,1,2,0:0:0:0:
224,336,50973,1,2,0:0:0:0:
352,288,51029,2,0,L|320:288,1,24,2|2,0:0|0:0,0:0:0:0:
240,288,51084,1,2,0:0:0:0:
128,288,51138,1,2,0:0:0:0:
320,304,51247,6,0,L|352:304,1,32,2|2,0:0|0:0,0:0:0:0:
256,256,51319,2,0,L|208:256,1,32,2|2,0:0|0:0,0:0:0:0:
320,224,51392,2,0,L|352:224,1,32,2|2,0:0|0:0,0:0:0:0:
224,192,51465,6,0,L|112:192,1,96,6|2,0:0|0:0,0:0:0:0:
320,128,51683,1,2,0:0:0:0:
112,112,51792,1,2,0:0:0:0:
352,80,51901,2,0,L|256:80,1,96,2|2,0:0|0:0,0:0:0:0:
480,112,52119,2,0,L|512:112,2,24,2|2|2,0:0|0:0|0:0,0:0:0:0:
336,144,52201,2,0,L|304:144,1,24,2|2,0:0|0:0,0:0:0:0:
80,192,52338,5,2,0:0:0:0:
48,192,52365,2,0,L|80:192,1,24,2|2,0:0|0:0,0:0:0:0:
192,192,52446,1,2,0:0:0:0:
288,192,52474,2,0,L|320:192,1,24,2|2,0:0|0:0,0:0:0:0:
432,192,52556,1,2,0:0:0:0:
200,176,52665,5,2,0:0:0:0:
168,176,52692,2,0,L|200:176,1,24,2|2,0:0|0:0,0:0:0:0:
312,176,52773,1,2,0:0:0:0:
408,176,52801,2,0,L|440:176,1,24,2|2,0:0|0:0,0:0:0:0:
296,176,52883,1,2,0:0:0:0:
112,320,52992,5,2,0:0:0:0:
80,320,53029,1,2,0:0:0:0:
256,288,53065,1,2,0:0:0:0:
288,288,53102,1,2,0:0:0:0:
112,320,53138,1,2,0:0:0:0:
80,320,53175,1,2,0:0:0:0:
256,320,53210,6,0,P|320:272|240:208,1,192,6|2,0:0|0:0,0:0:0:0:
128,192,53483,1,2,0:0:0:0:
260,203,53538,1,2,0:0:0:0:
64,176,53647,1,2,0:0:0:0:
288,112,53756,1,2,0:0:0:0:
176,112,53792,1,2,0:0:0:0:
64,112,53829,1,2,0:0:0:0:
304,160,53865,2,0,L|400:160,1,96,2|2,0:0|0:0,0:0:0:0:
188,137,54083,5,6,0:0:0:0:
124,127,54156,1,0,0:0:0:0:
188,137,54229,1,0,0:0:0:0:
113,45,54301,1,0,0:0:0:0:
54,84,54374,1,0,0:0:0:0:
113,45,54447,1,0,0:0:0:0:
310,47,54519,5,0,0:0:0:0:
356,50,54573,1,0,0:0:0:0:
379,90,54628,1,0,0:0:0:0:
358,131,54682,1,0,0:0:0:0:
128,160,54738,2,0,L|80:160,1,48,2|0,1:2|0:0,0:0:0:0:
384,160,54847,2,0,L|464:160,1,48
170,88,54956,6,0,L|74:94,1,96,6|2,0:0|0:0,0:0:0:0:
307,340,55174,2,0,L|211:346,1,96,2|2,0:0|0:0,0:0:0:0:
428,262,55392,1,2,0:0:0:0:
209,272,55501,1,2,0:0:0:0:
430,211,55610,6,0,L|436:168,1,24,2|0,0:0|0:0,0:0:0:0:
322,172,55665,2,0,L|282:170,1,24,2|0,0:0|0:0,0:0:0:0:
189,166,55719,2,0,L|188:137,1,24,2|0,0:0|0:0,0:0:0:0:
299,110,55774,2,0,L|331:111,1,24
449,118,55829,6,0,L|464:232,1,96,2|2,0:0|0:0,0:0:0:0:
261,241,56047,1,2,0:0:0:0:
461,213,56156,1,2,0:0:0:0:
252,270,56265,1,2,0:0:0:0:
452,242,56374,1,2,0:0:0:0:
233,344,56483,5,2,0:0:0:0:
220,321,56510,1,2,0:0:0:0:
233,344,56538,1,2,0:0:0:0:
339,347,56565,1,2,0:0:0:0:
445,346,56592,1,2,0:0:0:0:
438,320,56619,1,0,0:0:0:0:
411,312,56647,1,0,0:0:0:0:
305,295,56674,1,0,0:0:0:0:
164,293,56701,6,0,L|62:294,1,96,2|2,0:0|0:0,0:0:0:0:
288,208,56919,1,2,0:0:0:0:
309,191,56956,1,2,0:0:0:0:
301,165,56992,1,2,0:0:0:0:
128,144,57029,1,2,0:0:0:0:
107,127,57065,1,2,0:0:0:0:
115,101,57101,1,2,0:0:0:0:
263,88,57138,6,0,L|318:89,1,48,2|0,0:0|0:0,0:0:0:0:
136,23,57247,2,0,L|120:44,2,24,2|2|2,0:0|0:0|0:0,0:0:0:0:
246,21,57329,1,2,0:0:0:0:
355,30,57356,1,2,0:0:0:0:
349,55,57383,1,0,0:0:0:0:
323,59,57410,1,2,0:0:0:0:
200,62,57438,1,0,0:0:0:0:
80,62,57465,2,0,L|27:64,1,48,2|2,0:0|0:0,0:0:0:0:
416,176,57574,5,2,0:0:0:0:
256,176,57647,1,2,0:0:0:0:
96,176,57719,1,2,0:0:0:0:
416,176,57792,1,2,0:0:0:0:
464,128,57865,1,2,0:0:0:0:
416,176,57938,1,2,0:0:0:0:
128,176,58010,1,2,0:0:0:0:
256,176,58083,1,2,0:0:0:0:
384,176,58156,1,2,0:0:0:0:
128,80,58229,1,2,0:0:0:0:
80,128,58301,1,2,0:0:0:0:
128,176,58374,1,2,0:0:0:0:
402,173,58447,6,0,L|283:175,1,96,6|2,0:0|0:0,0:0:0:0:
41,167,58665,1,2,0:0:0:0:
272,320,58774,1,2,0:0:0:0:
176,320,58883,1,2,0:0:0:0:
448,240,58992,1,2,0:0:0:0:
241,167,59101,2,0,L|365:168,1,96,2|2,0:0|0:0,0:0:0:0:
288,112,59265,1,0,0:0:0:0:
111,108,59319,6,0,L|9:107,1,96,2|2,0:0|0:0,0:0:0:0:
268,296,59538,2,0,L|363:293,1,96,2|2,0:0|0:0,0:0:0:0:
28,266,59756,2,0,L|38:160,1,96,2|2,0:0|0:0,0:0:0:0:
484,118,59974,2,0,L|470:224,1,96,10|0,0:0|0:0,0:0:0:0:
262,233,60192,6,0,L|166:228,1,96,6|0,0:0|0:0,0:0:0:0:
385,90,60410,2,0,L|280:84,1,96,8|2,0:0|0:0,0:0:0:0:
73,81,60629,2,0,L|62:182,1,96,2|0,0:0|0:0,0:0:0:0:
265,187,60847,2,0,L|383:190,1,96,10|0,0:0|0:0,0:0:0:0:
111,217,61065,5,2,0:0:0:0:
105,237,61092,1,0,0:0:0:0:
108,259,61119,1,0,0:0:0:0:
120,277,61146,1,0,0:0:0:0:
137,290,61174,1,0,0:0:0:0:
158,295,61201,1,0,0:0:0:0:
272,291,61229,2,0,L|309:286,1,24
426,348,61283,5,2,0:0:0:0:
434,319,61310,1,0,0:0:0:0:
429,288,61337,1,0,0:0:0:0:
413,261,61364,1,0,0:0:0:0:
388,243,61392,1,2,0:0:0:0:
358,236,61419,1,0,0:0:0:0:
235,226,61447,2,0,L|204:227,1,24
80,192,61501,6,0,L|80:144,1,48,2|0,0:0|0:0,0:0:0:0:
256,104,61610,2,0,L|192:104,1,48,2|0,0:0|0:0,0:0:0:0:
352,96,61719,2,0,P|399:138|355:185,1,144,2|0,0:0|0:0,0:0:0:0:
80,208,61938,5,2,0:0:0:0:
224,208,61992,1,2,0:0:0:0:
368,208,62047,2,0,L|416:208,1,48,2|2,0:0|0:0,0:0:0:0:
272,176,62156,2,0,L|192:176,1,48,2|2,0:0|0:0,0:0:0:0:
416,160,62265,1,2,0:0:0:0:
272,144,62319,1,2,0:0:0:0:
128,128,62374,6,0,L|48:128,1,48,2|2,0:0|0:0,0:0:0:0:
224,80,62483,1,2,0:0:0:0:
368,64,62538,1,2,0:0:0:0:
224,144,62592,2,0,L|160:144,1,48,2|2,0:0|0:0,0:0:0:0:
32,128,62701,1,2,0:0:0:0:
176,96,62756,1,2,0:0:0:0:
368,32,62810,5,2,0:0:0:0:
480,32,62865,1,2,0:0:0:0:
96,80,62919,2,0,L|32:80,1,48,2|2,0:0|0:0,0:0:0:0:
320,80,63029,2,0,L|400:80,1,48,2|2,0:0|0:0,0:0:0:0:
192,80,63138,2,0,L|112:80,1,48,2|2,0:0|0:0,0:0:0:0:
496,192,63247,6,0,L|480:128,1,48,2|2,0:0|0:0,0:0:0:0:
336,192,63356,2,0,L|320:128,1,48,2|2,0:0|0:0,0:0:0:0:
176,192,63465,2,0,L|160:128,1,48,2|2,0:0|0:0,0:0:0:0:
16,192,63574,2,0,L|64:192,1,48,2|2,0:0|0:0,0:0:0:0:
307,344,63683,6,0,P|443:145|252:16,1,520.799984106446,6|0,0:0|0:0,0:0:0:0:
256,16,64556,6,0,B|256:176,1,151.199995385742
216,21,64992,6,0,B|257:175,1,151.199995385742
179,36,65429,6,0,B|259:174,1,151.199995385742
123,91,65865,6,0,B|261:170,1,151.199995385742
102,166,66301,6,0,B|262:165,1,151.199995385742
32,192,66738,5,0,0:0:0:0:
480,192,67065,2,0,L|480:288,1,86.3999973632813
256,336,67392,6,0,L|352:336,1,96,12|0,0:0|0:0,0:0:0:0:
160,288,67610,1,2,0:0:0:0:
384,288,67719,2,0,L|256:288,1,96,2|0,0:0|0:0,0:0:0:0:
96,240,67938,6,0,L|304:240,1,192,2|2,0:0|0:0,0:0:0:0:
96,176,68265,2,0,L|192:176,1,96,8|0,0:0|0:0,0:0:0:0:
400,128,68483,2,0,L|288:128,1,96,2|2,0:0|0:0,0:0:0:0:
112,208,68701,1,0,0:0:0:0:
304,304,68810,6,0,L|112:304,1,192,2|2,0:0|0:0,0:0:0:0:
304,240,69138,2,0,L|208:240,1,96,8|0,0:0|0:0,0:0:0:0:
400,176,69356,1,2,0:0:0:0:
208,176,69465,1,2,0:0:0:0:
304,176,69574,1,8,0:0:0:0:
112,256,69683,6,0,L|304:256,1,192,2|2,0:0|0:0,0:0:0:0:
112,192,70010,2,0,L|224:192,1,96,8|0,0:0|0:0,0:0:0:0:
384,160,70229,1,8,0:0:0:0:
272,144,70283,1,8,0:0:0:0:
384,128,70338,2,0,L|464:128,1,48,8|0,0:0|0:0,0:0:0:0:
320,128,70447,2,0,L|256:128,1,48,8|0,0:0|0:0,0:0:0:0:
112,48,70556,6,0,L|304:48,1,192,6|2,0:0|0:0,0:0:0:0:
112,272,70883,2,0,L|112:160,1,96,8|0,0:0|0:0,0:0:0:0:
336,208,71101,2,0,L|208:208,1,96,2|0,0:0|0:0,0:0:0:0:
432,176,71319,1,8,0:0:0:0:
240,272,71429,6,0,L|464:272,1,192,2|2,0:0|0:0,0:0:0:0:
240,336,71756,1,8,0:0:0:0:
432,336,71865,1,8,0:0:0:0:
240,304,71974,2,0,L|176:304,1,48,8|8,0:0|0:0,0:0:0:0:
304,288,72083,1,8,0:0:0:0:
416,272,72138,1,0,0:0:0:0:
304,256,72192,2,0,L|192:256,1,96,2|0,0:0|0:0,0:0:0:0:
432,320,72410,6,0,L|240:320,1,192,2|8,0:0|0:0,0:0:0:0:
464,240,72738,1,2,0:0:0:0:
208,208,72847,2,0,L|144:208,1,48,8|0,0:0|0:0,0:0:0:0:
304,160,72956,2,0,L|384:160,1,48,8|0,0:0|0:0,0:0:0:0:
240,128,73065,1,8,0:0:0:0:
128,112,73119,1,0,0:0:0:0:
240,80,73174,2,0,L|304:80,1,48,8|0,0:0|0:0,0:0:0:0:
128,192,73283,6,0,L|32:192,1,96,2|2,0:0|0:0,0:0:0:0:
240,288,73501,2,0,L|144:288,1,96,8|0,0:0|0:0,0:0:0:0:
368,208,73719,2,0,L|272:208,1,96,8|8,0:0|0:0,0:0:0:0:
96,160,73938,2,0,B|288:160|288:160|240:64,1,288,2|0,0:0|0:0,0:0:0:0:
64,96,74156,6,0,L|176:96,2,96,6|0|8,0:0|0:0|0:0,0:0:0:0:
256,192,74483,1,2,0:0:0:0:
64,208,74592,2,0,L|160:208,1,96,0|2,0:0|0:0,0:0:0:0:
352,176,74810,1,8,0:0:0:0:
176,144,74919,6,0,L|384:144,1,192,2|2,0:0|0:0,0:0:0:0:
176,240,75247,2,0,L|272:240,1,96,8|0,0:0|0:0,0:0:0:0:
80,336,75465,1,2,0:0:0:0:
80,224,75574,1,0,0:0:0:0:
272,320,75683,2,0,L|224:320,1,48,8|0,0:0|0:0,0:0:0:0:
112,288,75792,1,8,0:0:0:0:
224,256,75847,1,8,0:0:0:0:
352,160,75901,6,0,L|432:160,1,48,2|0,0:0|0:0,0:0:0:0:
272,144,76010,1,0,0:0:0:0:
144,128,76065,1,0,0:0:0:0:
192,128,76119,1,2,0:0:0:0:
448,192,76229,2,0,B|208:192|208:192|448:192,1,480,2|2,0:0|0:0,0:0:0:0:
64,336,76665,6,0,B|256:336|256:336|170:146,1,384,6|0,0:0|0:0,0:0:0:0:
416,272,76992,2,0,L|400:208,1,48,8|0,0:0|0:0,0:0:0:0:
224,256,77101,2,0,L|208:192,1,48,8|0,0:0|0:0,0:0:0:0:
400,192,77210,6,0,L|448:192,1,48,8|0,0:0|0:0,0:0:0:0:
304,112,77319,2,0,L|224:112,1,48,8|0,0:0|0:0,0:0:0:0:
144,80,77429,1,8,0:0:0:0:
272,80,77483,1,8,0:0:0:0:
400,80,77538,1,8,0:0:0:0:
272,80,77592,1,8,0:0:0:0:
144,80,77647,5,2,0:0:0:0:
336,80,77756,1,8,0:0:0:0:
224,120,77810,1,8,0:0:0:0:
336,176,77865,2,0,L|400:176,1,48,8|0,0:0|0:0,0:0:0:0:
144,272,77974,2,0,P|96:240|160:192,1,144,8|0,0:0|0:0,0:0:0:0:
352,272,78192,2,0,P|398:226|349:185,1,144,8|0,0:0|0:0,0:0:0:0:
160,208,78410,6,0,L|64:208,1,96,6|0,0:0|0:0,0:0:0:0:
112,224,78574,1,0,0:0:0:0:
224,224,78629,1,8,0:0:0:0:
336,224,78683,1,8,0:0:0:0:
224,192,78738,2,0,L|160:192,1,48,8|0,0:0|0:0,0:0:0:0:
288,144,78847,2,0,L|352:144,1,48,8|0,0:0|0:0,0:0:0:0:
194,165,78956,5,8,0:0:0:0:
317,148,79010,1,0,0:0:0:0:
440,130,79065,1,8,0:0:0:0:
317,112,79119,1,0,0:0:0:0:
194,95,79174,1,8,0:0:0:0:
317,95,79229,1,0,0:0:0:0:
194,77,79283,1,8,0:0:0:0:
71,59,79338,1,0,0:0:0:0:
208,192,79392,5,8,0:0:0:0:
304,192,79501,1,2,0:0:0:0:
64,192,79610,1,2,0:0:0:0:
304,192,79719,1,10,0:0:0:0:
208,192,79828,1,2,0:0:0:0:
448,192,79937,1,2,0:0:0:0:
208,256,80047,2,0,L|160:256,1,48,8|0,0:0|0:0,0:0:0:0:
304,256,80156,2,0,L|352:256,1,48,2|0,0:0|0:0,0:0:0:0:
352,208,80265,2,0,L|272:208,1,48
80,160,80374,6,0,L|16:160,1,48,8|0,0:0|0:0,0:0:0:0:
432,160,80483,2,0,L|496:160,1,48,8|0,0:0|0:0,0:0:0:0:
96,128,80592,2,0,L|32:128,1,48,8|0,0:0|0:0,0:0:0:0:
416,128,80701,2,0,L|464:128,1,48,8|8,0:0|0:0,0:0:0:0:
320,112,80810,1,8,0:0:0:0:
176,96,80865,1,8,0:0:0:0:
320,80,80919,1,8,0:0:0:0:
464,48,80975,2,0,L|416:48,1,48,0|8,0:0|0:0,0:0:0:0:
256,48,81083,6,0,P|218:102|261:102,1,144,0|2,0:0|0:0,0:0:0:0:
480,48,81301,1,2,0:0:0:0:
228,226,81356,6,0,L|185:319,1,96,12|0,0:0|0:0,0:0:0:0:
390,207,81519,1,0,0:0:0:0:
187,313,81574,2,0,L|122:238,1,96,2|2,0:0|0:0,0:0:0:0:
329,143,81738,1,0,0:0:0:0:
124,240,81792,2,0,L|12:208,1,96,8|0,0:0|0:0,0:0:0:0:
81,194,81956,1,0,0:0:0:0:
361,319,82010,5,2,0:0:0:0:
121,271,82119,2,0,L|121:159,1,96,0|8,0:0|0:0,0:0:0:0:
355,272,82338,2,0,L|251:270,1,96,0|2,0:0|0:0,0:0:0:0:
62,201,82556,2,0,L|175:200,1,96,0|8,0:0|0:0,0:0:0:0:
444,344,82774,6,0,L|239:345,1,192,2|2,0:0|0:0,0:0:0:0:
448,175,83101,2,0,L|350:176,1,96,8|0,0:0|0:0,0:0:0:0:
142,185,83319,1,2,0:0:0:0:
352,175,83429,1,2,0:0:0:0:
142,185,83538,1,8,0:0:0:0:
361,243,83647,6,0,P|426:297|362:353,1,192,2|2,0:0|0:0,0:0:0:0:
141,96,83974,2,0,L|236:97,1,96,8|8,0:0|0:0,0:0:0:0:
414,117,84192,2,0,L|409:175,1,48,8|0,0:0|0:0,0:0:0:0:
232,192,84301,2,0,L|280:192,1,48,8|0,0:0|0:0,0:0:0:0:
114,253,84410,2,0,L|103:324,1,48,8|0,0:0|0:0,0:0:0:0:
277,335,84519,6,0,P|337:279|266:239,1,192,6|2,0:0|0:0,0:0:0:0:
448,182,84847,1,8,0:0:0:0:
454,296,84956,1,2,0:0:0:0:
256,112,85065,2,0,L|204:111,1,48
256,48,85174,2,0,L|304:48,1,48,2|0,0:0|0:0,0:0:0:0:
111,209,85283,2,0,L|39:207,1,48,8|0,0:0|0:0,0:0:0:0:
288,221,85392,6,0,P|349:276|280:323,1,192,2|2,0:0|0:0,0:0:0:0:
79,320,85719,1,8,0:0:0:0:
280,323,85829,1,8,0:0:0:0:
77,261,85938,2,0,L|126:259,1,48,8|0,0:0|0:0,0:0:0:0:
288,240,86047,1,8,0:0:0:0:
75,128,86156,2,0,L|123:128,1,48,8|8,0:0|0:0,0:0:0:0:
352,112,86265,2,0,L|272:112,1,48,8|8,0:0|0:0,0:0:0:0:
129,58,86374,6,0,L|18:55,1,96,8|0,0:0|0:0,0:0:0:0:
271,192,86592,1,8,0:0:0:0:
80,240,86701,2,0,L|80:336,1,96,2|8,0:0|0:0,0:0:0:0:
128,352,86865,1,2,0:0:0:0:
256,320,86919,1,2,0:0:0:0:
384,288,86974,1,2,0:0:0:0:
256,256,87029,2,0,L|192:256,1,48,2|2,0:0|0:0,0:0:0:0:
320,208,87138,1,2,0:0:0:0:
208,208,87192,1,2,0:0:0:0:
96,208,87247,6,0,L|88:144,1,48,2|0,0:0|0:0,0:0:0:0:
288,144,87356,2,0,L|352:144,1,48,2|0,0:0|0:0,0:0:0:0:
218,77,87465,1,2,0:0:0:0:
164,77,87519,1,0,0:0:0:0:
110,77,87574,1,0,0:0:0:0:
164,77,87629,1,0,0:0:0:0:
336,175,87683,2,0,L|324:97,1,48,2|0,0:0|0:0,0:0:0:0:
292,105,87792,2,0,L|233:103,1,48
390,273,87901,2,0,L|507:271,1,96,8|0,0:0|0:0,0:0:0:0:
285,257,88119,6,0,L|233:254,1,48,2|0,0:0|0:0,0:0:0:0:
368,200,88229,2,0,L|309:196,1,48,2|0,0:0|0:0,0:0:0:0:
48,128,88338,2,0,L|153:126,1,96,12|2,0:0|0:0,0:0:0:0:
354,74,88556,1,2,0:0:0:0:
139,62,88665,1,2,0:0:0:0:
354,74,88774,1,8,0:0:0:0:
146,332,88883,6,0,L|337:331,1,192,2|2,0:0|0:0,0:0:0:0:
136,225,89210,1,8,0:0:0:0:
338,232,89319,1,2,0:0:0:0:
127,199,89429,1,8,0:0:0:0:
329,206,89538,1,2,0:0:0:0:
111,159,89647,2,0,L|162:157,1,48,8|8,0:0|0:0,0:0:0:0:
334,143,89756,2,0,L|397:139,1,48,8|0,0:0|0:0,0:0:0:0:
32,352,90010,6,0,L|128:352,1,64,6|0,0:0|0:0,0:0:0:0:
256,304,90156,2,0,L|176:304,1,64,6|0,0:0|0:0,0:0:0:0:
400,240,90301,2,0,L|336:240,1,64,6|0,0:0|0:0,0:0:0:0:
16,192,90447,2,0,L|112:192,1,64,6|0,0:0|0:0,0:0:0:0:
496,160,90592,2,0,L|403:160,1,64,6|0,0:0|0:0,0:0:0:0:
245,277,90738,6,0,P|179:229|246:183,1,192,6|8,0:0|0:0,0:0:0:0:
299,190,91010,1,8,0:0:0:0:
446,148,91065,2,0,L|398:145,1,48,8|8,0:0|0:0,0:0:0:0:
223,131,91174,2,0,L|227:178,1,48,8|0,0:0|0:0,0:0:0:0:
287,192,91283,2,0,L|292:241,1,48,8|0,0:0|0:0,0:0:0:0:
142,266,91392,2,0,L|11:270,1,96,8|2,0:0|0:0,0:0:0:0:
306,338,91610,6,0,L|381:338,1,48,8|0,0:0|0:0,0:0:0:0:
189,191,91719,2,0,L|135:188,1,48,2|2,0:0|0:0,0:0:0:0:
306,102,91829,2,0,L|412:100,1,96,2|8,0:0|0:0,0:0:0:0:
192,336,92047,1,2,0:0:0:0:
80,336,92101,1,2,0:0:0:0:
192,336,92156,1,2,0:0:0:0:
452,280,92265,2,0,L|331:278,1,96,8|2,0:0|0:0,0:0:0:0:
201,259,92429,1,2,0:0:0:0:
356,278,92483,6,0,L|452:274,1,96,2|8,0:0|0:0,0:0:0:0:
132,149,92701,2,0,L|84:149,1,48,8|0,0:0|0:0,0:0:0:0:
212,117,92810,1,8,0:0:0:0:
344,88,92865,1,0,0:0:0:0:
212,101,92919,2,0,L|260:101,1,48,8|8,0:0|0:0,0:0:0:0:
384,48,93029,1,8,0:0:0:0:
256,32,93083,1,0,0:0:0:0:
128,32,93138,1,8,0:0:0:0:
256,32,93192,1,0,0:0:0:0:
384,64,93247,2,0,L|432:64,1,48,8|0,0:0|0:0,0:0:0:0:
141,312,93356,6,0,P|40:236|133:150,1,288
267,272,93901,1,0,0:0:0:0:
354,177,94010,2,0,L|117:171,1,192,0|8,0:0|0:0,0:0:0:0:
268,168,94338,1,0,0:0:0:0:
39,222,94447,6,0,L|37:127,1,96,8|0,0:0|0:0,0:0:0:0:
224,208,94665,2,0,L|304:208,1,43.1999986816407,8|8,0:0|0:0,0:0:0:0:
312,208,94774,1,8,0:0:0:0:
96,320,94828,1,0,0:0:0:0:
56,296,94883,1,8,0:0:0:0:
96,280,94937,1,0,0:0:0:0:
224,280,94992,2,0,L|272:280,1,43.1999986816407,8|0,0:0|0:0,0:0:0:0:
416,240,95101,5,6,0:0:0:0:
304,240,95156,1,2,0:0:0:0:
192,224,95210,2,0,L|240:224,1,48,2|2,0:0|0:0,0:0:0:0:
352,208,95319,1,2,0:0:0:0:
240,192,95374,1,2,0:0:0:0:
352,176,95429,1,2,0:0:0:0:
464,160,95484,1,2,0:0:0:0:
352,128,95538,6,0,L|304:128,1,48,2|2,0:0|0:0,0:0:0:0:
192,112,95647,2,0,L|112:112,1,48,2|2,0:0|0:0,0:0:0:0:
304,48,95756,1,2,0:0:0:0:
336,48,95810,1,0,0:0:0:0:
336,64,95865,1,0,0:0:0:0:
304,64,95919,1,0,0:0:0:0:
192,192,95974,6,0,L|128:192,1,48,6|2,0:0|0:0,0:0:0:0:
272,160,96083,1,2,0:0:0:0:
144,160,96138,1,2,0:0:0:0:
16,128,96192,2,0,L|80:128,1,48,2|2,0:0|0:0,0:0:0:0:
208,112,96301,2,0,L|272:112,1,48,2|2,0:0|0:0,0:0:0:0:
144,96,96410,5,2,0:0:0:0:
288,80,96465,1,2,0:0:0:0:
416,64,96519,2,0,L|368:64,1,48,2|2,0:0|0:0,0:0:0:0:
224,64,96629,2,0,L|176:64,1,48,2|0,0:0|0:0,0:0:0:0:
32,64,96738,2,0,L|80:64,1,48
400,336,96847,6,0,B|208:336|208:336|128:160|128:160|128:352|128:352|176:240,1,672,6|0,0:0|0:0,0:0:0:0:
304,256,97283,2,0,P|400:192|288:48,1,336,2|0,0:0|0:0,0:0:0:0:
32,48,97719,6,0,P|160:80|224:240,2,288,2|0|2,0:0|0:0|0:0,0:0:0:0:
432,352,98592,6,0,L|240:352,1,192,6|8,0:0|0:0,0:0:0:0:
336,288,98919,1,0,0:0:0:0:
144,256,99029,2,0,L|240:256,1,96,2|2,0:0|0:0,0:0:0:0:
48,336,99247,2,0,L|160:336,1,96,8|0,0:0|0:0,0:0:0:0:
384,336,99465,5,8,0:0:0:0:
336,336,99519,1,0,0:0:0:0:
128,256,99574,2,0,L|240:256,1,96,2|8,0:0|0:0,0:0:0:0:
416,224,99792,1,0,0:0:0:0:
224,192,99901,2,0,L|336:192,1,96,2|2,0:0|0:0,0:0:0:0:
75,183,100119,2,0,L|59:231,1,48,8|0,0:0|0:0,0:0:0:0:
190,106,100229,2,0,L|206:186,1,48
336,144,100338,6,0,L|448:144,1,96,2|0,0:0|0:0,0:0:0:0:
224,224,100556,2,0,L|112:224,1,96,8|0,0:0|0:0,0:0:0:0:
320,320,100774,2,0,L|320:224,1,96,2|2,0:0|0:0,0:0:0:0:
128,160,100992,2,0,L|192:160,1,48,8|8,0:0|0:0,0:0:0:0:
288,160,101101,1,8,0:0:0:0:
96,288,101210,5,8,0:0:0:0:
144,288,101265,1,0,0:0:0:0:
272,256,101319,2,0,L|160:256,1,96,2|8,0:0|0:0,0:0:0:0:
368,224,101538,1,0,0:0:0:0:
176,336,101647,2,0,L|272:336,1,96,2|2,0:0|0:0,0:0:0:0:
80,256,101865,2,0,L|64:184,1,48,8|8,0:0|0:0,0:0:0:0:
192,168,101974,2,0,L|200:96,1,48,8|8,0:0|0:0,0:0:0:0:
352,56,102083,6,0,L|352:168,1,96,6|0,0:0|0:0,0:0:0:0:
160,192,102301,1,8,0:0:0:0:
160,192,102410,1,0,0:0:0:0:
352,192,102519,1,2,0:0:0:0:
112,192,102628,1,2,0:0:0:0:
376,328,102738,2,0,L|368:264,1,48,8|0,0:0|0:0,0:0:0:0:
248,256,102847,2,0,L|240:176,1,48,2|0,0:0|0:0,0:0:0:0:
112,192,102956,5,8,0:0:0:0:
160,192,103010,1,0,0:0:0:0:
304,192,103065,2,0,L|208:192,1,96,2|8,0:0|0:0,0:0:0:0:
400,288,103283,1,2,0:0:0:0:
208,192,103392,2,0,L|304:192,1,96,2|2,0:0|0:0,0:0:0:0:
112,288,103610,2,0,L|160:288,1,48,8|0,0:0|0:0,0:0:0:0:
272,256,103719,1,8,0:0:0:0:
384,256,103774,1,0,0:0:0:0:
192,336,103829,6,0,L|80:336,1,96,2|2,0:0|0:0,0:0:0:0:
360,304,104047,2,0,L|296:304,1,48,8|0,0:0|0:0,0:0:0:0:
200,304,104156,1,2,0:0:0:0:
376,272,104265,2,0,L|312:272,1,48,8|8,0:0|0:0,0:0:0:0:
216,272,104374,1,8,0:0:0:0:
104,272,104429,1,0,0:0:0:0:
216,248,104483,2,0,L|296:248,1,48,2|0,0:0|0:0,0:0:0:0:
400,184,104592,2,0,L|320:184,1,48,2|0,0:0|0:0,0:0:0:0:
112,160,104701,6,0,L|32:160,1,48,8|0,0:0|0:0,0:0:0:0:
208,96,104810,2,0,L|288:96,1,48,8|0,0:0|0:0,0:0:0:0:
400,160,104919,2,0,L|480:160,1,48,8|0,0:0|0:0,0:0:0:0:
304,96,105028,2,0,L|224:96,1,48,8|0,0:0|0:0,0:0:0:0:
128,208,105138,6,0,L|48:208,1,48,8|8,0:0|0:0,0:0:0:0:
384,208,105247,2,0,L|464:208,1,48,8|8,0:0|0:0,0:0:0:0:
144,176,105356,2,0,L|96:176,1,48,8|8,0:0|0:0,0:0:0:0:
368,176,105465,2,0,L|416:176,1,48,8|8,0:0|0:0,0:0:0:0:
224,128,105574,6,0,L|224:64,1,64,2|0,0:0|0:0,0:0:0:0:
288,48,105719,1,0,0:0:0:0:
160,304,105792,1,6,0:0:0:0:
288,256,105865,2,0,L|352:256,1,64
160,208,106010,6,0,L|160:144,1,64,6|0,0:0|0:0,0:0:0:0:
224,128,106156,1,0,0:0:0:0:
416,80,106229,1,2,0:0:0:0:
288,48,106301,1,0,0:0:0:0:
416,16,106374,1,0,0:0:0:0:
240,272,106447,6,0,L|240:176,1,64,2|0,0:0|0:0,0:0:0:0:
304,192,106592,1,0,0:0:0:0:
144,240,106665,2,0,L|240:240,1,64,2|0,0:0|0:0,0:0:0:0:
352,240,106810,1,0,0:0:0:0:
192,336,106883,5,6,0:0:0:0:
192,272,106956,2,0,L|304:272,1,64
400,208,107101,1,2,0:0:0:0:
256,176,107174,1,2,0:0:0:0:
400,144,107247,1,2,0:0:0:0:
256,208,107319,6,0,L|176:208,1,64,2|0,0:0|0:0,0:0:0:0:
336,160,107465,1,0,0:0:0:0:
192,256,107538,2,0,L|272:256,1,64,2|0,0:0|0:0,0:0:0:0:
112,208,107684,1,0,0:0:0:0:
340,240,107756,5,6,0:0:0:0:
276,240,107829,1,0,0:0:0:0:
124,192,107901,1,0,0:0:0:0:
368,240,107974,1,2,0:0:0:0:
240,192,108047,1,0,0:0:0:0:
368,144,108119,1,0,0:0:0:0:
224,144,108192,6,0,L|176:144,1,48,2|2,0:0|0:0,0:0:0:0:
48,144,108301,1,2,0:0:0:0:
176,160,108356,1,2,0:0:0:0:
304,192,108410,6,0,L|368:192,1,48,2|2,0:0|0:0,0:0:0:0:
224,240,108519,2,0,L|160:240,1,48,2|2,0:0|0:0,0:0:0:0:
352,192,108629,5,2,0:0:0:0:
224,192,108701,1,2,0:0:0:0:
96,192,108774,1,2,0:0:0:0:
352,176,108847,2,0,L|365:113,1,48,2|0,0:0|0:0,0:0:0:0:
304,112,108956,2,0,L|291:49,1,48,0|0,2:0|2:0,0:0:0:0:
160,336,109065,5,6,0:0:0:0:
112,320,109119,1,0,0:0:0:0:
112,272,109174,1,0,0:0:0:0:
160,240,109229,1,0,0:0:0:0:
304,272,109283,2,0,L|359:272,3,48,2|0|0|0,0:0|0:0|0:0|0:0,0:0:0:0:
148,237,109501,6,0,L|79:238,1,48,10|0,0:0|0:0,0:0:0:0:
52,237,109610,2,0,L|122:237,1,48
240,144,109719,2,0,L|298:143,3,48,2|0|0|0,0:0|0:0|0:0|0:0,0:0:0:0:
405,103,109938,6,0,L|477:107,1,48,2|0,0:0|0:0,0:0:0:0:
282,52,110047,2,0,L|227:47,1,48
85,52,110156,2,0,L|163:39,1,48,2|0,0:0|0:0,0:0:0:0:
288,132,110265,2,0,L|349:128,1,48
154,349,110374,6,0,L|99:353,1,48,10|0,0:0|0:0,0:0:0:0:
224,304,110483,2,0,L|286:297,1,48,8|0,0:0|0:0,0:0:0:0:
400,368,110592,2,0,L|335:370,1,48,2|0,0:0|0:0,0:0:0:0:
64,272,110701,2,0,L|5:269,1,48,2|0,0:0|0:0,0:0:0:0:
220,352,110810,5,2,0:0:0:0:
376,359,110865,1,2,0:0:0:0:
221,325,110919,1,2,0:0:0:0:
63,314,110974,1,2,0:0:0:0:
222,286,111029,1,2,0:0:0:0:
379,293,111083,1,2,0:0:0:0:
223,259,111138,1,2,0:0:0:0:
65,248,111192,1,2,0:0:0:0:
223,259,111247,5,2,0:0:0:0:
380,267,111301,1,2,0:0:0:0:
224,233,111356,1,2,0:0:0:0:
66,222,111410,1,2,0:0:0:0:
224,233,111465,1,2,0:0:0:0:
280,200,111519,1,0,0:0:0:0:
224,192,111574,1,0,0:0:0:0:
168,184,111629,1,0,0:0:0:0:
342,176,111683,5,2,0:0:0:0:
472,183,111738,1,2,0:0:0:0:
343,152,111792,1,2,0:0:0:0:
212,142,111847,1,2,0:0:0:0:
344,116,111901,1,2,0:0:0:0:
474,123,111956,1,2,0:0:0:0:
345,92,112010,1,2,0:0:0:0:
214,82,112065,1,2,0:0:0:0:
345,92,112119,5,2,0:0:0:0:
475,99,112174,1,2,0:0:0:0:
330,91,112229,1,2,0:0:0:0:
187,79,112283,1,2,0:0:0:0:
40,70,112338,1,2,0:0:0:0:
185,84,112392,1,0,0:0:0:0:
328,96,112447,1,0,0:0:0:0:
378,97,112501,1,0,0:0:0:0:
225,357,112556,6,0,P|29:175|252:28,1,614.4,6|2,0:0|0:0,0:0:0:0:
309,45,113501,1,0,0:0:0:0:
251,27,113574,1,0,0:0:0:0:
96,160,113647,1,0,0:0:0:0:
40,160,113719,1,0,0:0:0:0:
96,144,113792,1,0,0:0:0:0:
352,208,113865,5,2,0:0:0:0:
288,192,113938,1,0,0:0:0:0:
352,208,114010,1,0,0:0:0:0:
112,304,114083,1,0,0:0:0:0:
40,240,114156,1,0,0:0:0:0:
112,176,114229,1,0,0:0:0:0:
464,288,114301,5,2,0:0:0:0:
336,288,114356,1,2,0:0:0:0:
208,288,114410,1,2,0:0:0:0:
256,288,114465,1,2,0:0:0:0:
128,352,114519,2,0,L|80:352,1,48,2|2,0:0|0:0,0:0:0:0:
208,320,114629,1,2,0:0:0:0:
336,288,114683,1,2,0:0:0:0:
208,272,114738,2,0,L|144:272,1,48,2|2,0:0|0:0,0:0:0:0:
32,256,114847,2,0,L|112:256,1,48,2|2,0:0|0:0,0:0:0:0:
208,224,114956,6,0,L|272:224,1,48,2|2,0:0|0:0,0:0:0:0:
384,176,115065,2,0,L|304:176,1,48,2|2,0:0|0:0,0:0:0:0:
224,128,115174,2,0,L|288:128,1,48,2|2,0:0|0:0,0:0:0:0:
160,64,115283,2,0,L|112:64,1,48,2|2,0:0|0:0,0:0:0:0:
256,64,115392,5,2,0:0:0:0:
400,80,115447,1,2,0:0:0:0:
256,120,115501,2,0,L|176:120,1,48,2|2,0:0|0:0,0:0:0:0:
384,192,115610,5,2,0:0:0:0:
128,192,115719,1,2,0:0:0:0:
384,192,115829,1,2,0:0:0:0:
128,192,115938,1,2,0:0:0:0:
