osu file format v14

[General]
AudioFilename: audio.mp3
AudioLeadIn: 0
PreviewTime: 66954
Countdown: 0
SampleSet: Soft
StackLeniency: 0.2
Mode: 2
LetterboxInBreaks: 0
WidescreenStoryboard: 1

[Editor]
DistanceSpacing: 1
BeatDivisor: 4
GridSize: 16
TimelineZoom: 4

[Metadata]
Title:MixxioN
TitleUnicode:MixxioN
Artist:MisoilePunch
ArtistUnicode:MisoilePunch♪
Creator:fayew
Version:GRAVITY
Source:SOUND VOLTEX EXCEED GEAR
Tags:skill issue lol stardust prism -rustyy -joakh hareimu kukkai verti 4rcher- archer mochi mochi_- misomyl みそみぃる ponchi grace グレイス HEXA DIVER アザレアの使命篇 Azalea no Shimei-hen The 10th KAC オリジナル楽曲コンテスト Original Song Contest 最優秀賞 Saiyuushuu-shou Grand Prize SDVX Konami Bemani Video Game Electronic Rock Instrumental mission
BeatmapID:4417095
BeatmapSetID:1831275

[Difficulty]
HPDrainRate:6
CircleSize:4.1
OverallDifficulty:9.7
ApproachRate:9.7
SliderMultiplier:1.7
SliderTickRate:2

[Events]
//Background and Video events
0,0,"bg.jpg",0,0
//Break Periods
//Storyboard Layer 0 (Background)
//Storyboard Layer 1 (Fail)
//Storyboard Layer 2 (Pass)
//Storyboard Layer 3 (Foreground)
//Storyboard Layer 4 (Overlay)
//Storyboard Sound Samples

[TimingPoints]
1720,218.181818181818,4,2,0,25,1,0
2591,-100,4,2,3,25,0,0
3464,-100,4,2,4,25,0,0
4338,-200,4,2,4,25,0,0
5210,-200,4,2,4,25,0,0
8701,-100,4,2,8,65,0,0
12083,-50,4,2,8,65,0,0
12410,-100,4,2,8,65,0,0
13829,-50,4,2,8,65,0,0
14156,-100,4,2,8,65,0,0
18229,-100,4,2,3,65,0,0
18301,-100,4,2,3,65,0,0
18738,-83.3333333333333,4,1,3,65,0,0
19829,-100,4,2,3,65,0,0
20047,-100,4,2,8,65,0,0
20919,-100,4,2,4,65,0,0
20974,-100,4,2,8,65,0,0
22665,-100,4,2,4,65,0,0
22719,-100,4,2,8,65,0,0
24410,-100,4,2,4,65,0,0
24465,-100,4,2,8,65,0,0
26156,-100,4,2,4,65,0,0
26210,-100,4,2,8,65,0,0
26265,-100,4,2,8,65,0,0
34010,-125,4,2,8,65,0,0
34228,-125,4,2,4,40,0,0
34883,-125,4,2,4,40,0,0
38810,-125,4,2,5,50,0,0
39247,-125,4,2,5,50,0,0
39574,-125,4,2,6,50,0,0
39901,-125,4,2,3,60,0,0
40119,-125,4,2,4,65,0,0
40556,-125,4,2,8,65,0,0
40992,-100,4,2,8,65,0,0
45683,-86.9565217391304,4,2,8,65,0,0
46229,-100,4,2,8,65,0,0
47210,-100,4,2,9,65,0,0
47483,-100,4,2,7,65,0,0
47538,-100,4,2,7,65,0,0
47974,-90.9090909090909,4,1,3,60,0,0
54083,-90.9090909090909,4,2,8,70,0,0
54519,-100,4,2,8,70,0,0
61938,-83.3333333333333,4,1,3,70,0,0
63683,-200,4,2,8,70,0,0
64119,-200,4,2,4,40,0,0
64522,-200,4,2,4,5,0,0
64556,-200,4,2,4,40,0,0
65428,-200,4,2,4,40,0,0
66410,-200,4,2,5,50,0,0
67065,-100,4,2,5,50,0,0
67392,-86.9565217391304,4,2,8,80,0,1
73938,-40,4,2,3,80,0,0
74156,-86.9565217391304,4,2,8,80,0,1
81029,-100,4,2,8,80,0,0
81356,-86.9565217391304,4,2,8,80,0,1
93356,-250,4,2,4,60,0,0
94229,-250,4,2,4,60,0,0
94447,-250,4,2,8,60,0,0
94665,-100,4,2,8,60,0,0
95101,-100,4,1,3,80,0,0
95974,-90.9090909090909,4,1,3,80,0,0
96847,-133.333333333333,4,1,3,80,0,0
97174,-133.333333333333,4,2,10,80,0,0
97228,-133.333333333333,4,1,3,5,0,0
97283,-133.333333333333,4,2,10,80,0,0
97664,-133.333333333333,4,2,10,5,0,0
97719,-100,4,2,7,80,0,0
98373,-100,4,2,8,50,0,0
98592,-100,4,2,8,75,0,0
99465,-100,4,2,4,75,0,0
99574,-100,4,2,8,75,0,0
101210,-100,4,2,4,75,0,0
101319,-100,4,2,8,75,0,0
102956,-100,4,2,4,75,0,0
103065,-100,4,2,8,75,0,0
105574,-100,4,2,4,75,0,0
105792,-100,4,1,3,75,0,1
109065,-100,4,2,8,75,0,0
110810,-86.9565217391304,4,2,8,75,0,0
112556,-200,4,2,8,75,0,0
113428,-200,4,2,5,75,0,0
113864,-200,4,2,7,75,0,0
114301,-100,4,1,3,75,0,1
116047,-100,4,2,9,55,0,0

[Colours]
Combo1 : 255,0,128
Combo2 : 255,255,0
Combo3 : 128,0,255
Combo4 : 0,172,255

[HitObjects]
137,310,1719,6,0,L|380:67,2,340,2|2|2,0:0|0:0|0:0,0:0:0:0:
432,192,3465,1,8,0:0:0:0:
256,192,3901,1,0,0:0:0:0:
424,192,4338,6,0,L|80:192,1,340,0|8,0:0|0:0,0:0:0:0:
256,192,5647,1,0,0:0:0:0:
80,320,6083,5,0,0:0:0:0:
82,238,6301,1,0,0:0:0:0:
126,167,6519,1,0,0:0:0:0:
205,143,6737,1,0,0:0:0:0:
416,320,6956,5,8,0:0:0:0:
429,238,7174,1,0,0:0:0:0:
385,167,7392,1,0,0:0:0:0:
316,125,7501,1,0,0:0:0:0:
316,125,7610,1,0,0:0:0:0:
388,168,7719,1,0,0:0:0:0:
256,192,7829,12,0,8483,0:0:0:0:
144,272,8701,6,0,L|48:272,1,85,2|2,0:0|0:0,0:0:0:0:
288,256,8919,2,0,L|96:256,1,170,8|8,0:0|0:0,0:0:0:0:
160,224,9192,1,8,0:0:0:0:
288,176,9247,2,0,L|336:176,1,42.5,8|0,0:0|0:0,0:0:0:0:
288,128,9356,2,0,L|240:128,1,42.5,2|0,0:0|0:0,0:0:0:0:
384,80,9465,2,0,L|448:80,1,42.5,8|0,0:0|0:0,0:0:0:0:
432,224,9683,2,0,L|368:224,1,42.5,2|0,0:0|0:0,0:0:0:0:
160,304,9792,6,0,L|272:304,1,85,12|0,0:0|0:0,0:0:0:0:
64,240,10010,2,0,L|176:240,2,85,2|2|8,0:0|0:0|0:0,0:0:0:0:
288,304,10338,2,0,L|96:304,1,170,2|2,0:0|0:0,0:0:0:0:
304,224,10665,6,0,L|368:224,1,42.5,8|0,0:0|0:0,0:0:0:0:
192,208,10774,2,0,L|192:144,1,42.5
352,112,10883,2,0,L|400:112,2,42.5,8|0|8,0:0|0:0|0:0,0:0:0:0:
176,96,11101,2,0,L|288:96,1,85,8|8,0:0|0:0,0:0:0:0:
64,256,11319,6,0,L|176:256,2,85,2|2|8,0:0|0:0|0:0,0:0:0:0:
336,352,11647,2,0,L|144:352,1,170,2|2,0:0|0:0,0:0:0:0:
496,272,12083,2,0,L|128:272,1,340,6|0,0:0|0:0,0:0:0:0:
240,192,12410,2,0,L|288:192,1,42.5,8|0,0:0|0:0,0:0:0:0:
240,144,12519,2,0,L|176:144,1,42.5
416,96,12629,2,0,L|320:96,2,85,8|8|2,0:0|0:0|0:0,0:0:0:0:
96,96,13065,6,0,L|208:96,2,85,8|8|8,0:0|0:0|0:0,0:0:0:0:
336,192,13392,5,2,0:0:0:0:
256,192,13501,1,0,0:0:0:0:
176,192,13610,1,8,0:0:0:0:
416,96,13719,1,0,0:0:0:0:
96,272,13829,6,0,L|464:272,1,340,6|8,0:0|0:0,0:0:0:0:
256,208,14156,2,0,L|208:208,1,42.5,8|0,0:0|0:0,0:0:0:0:
368,176,14265,1,2,0:0:0:0:
176,160,14374,6,0,L|112:160,1,42.5,8|8,0:0|0:0,0:0:0:0:
272,128,14483,2,0,L|320:128,1,42.5,8|0,0:0|0:0,0:0:0:0:
448,96,14592,1,2,0:0:0:0:
176,336,14701,6,0,P|160:272|240:208,1,170,12|8,0:0|0:0,0:0:0:0:
272,208,14974,1,8,0:0:0:0:
144,160,15029,2,0,L|80:160,1,42.5,8|0,0:0|0:0,0:0:0:0:
224,96,15138,1,2,0:0:0:0:
400,192,15247,5,8,0:0:0:0:
208,192,15356,1,2,0:0:0:0:
304,192,15465,1,2,0:0:0:0:
112,192,15574,1,8,0:0:0:0:
288,336,15683,5,0,0:0:0:0:
320,304,15737,1,0,0:0:0:0:
288,272,15792,1,2,0:0:0:0:
112,240,15901,2,0,L|112:192,1,42.5,8|0,0:0|0:0,0:0:0:0:
240,192,16010,2,0,L|288:192,1,42.5,8|0,0:0|0:0,0:0:0:0:
128,176,16119,2,0,L|160:144,1,42.5,2|0,0:0|0:0,0:0:0:0:
288,144,16229,2,0,L|336:144,1,42.5,8|8,0:0|0:0,0:0:0:0:
176,128,16338,2,0,L|240:128,1,42.5,8|8,0:0|0:0,0:0:0:0:
352,96,16447,2,0,L|400:96,1,42.5,8|8,0:0|0:0,0:0:0:0:
144,256,16556,6,0,L|304:256,2,113.333333333333,6|2|2,0:0|0:0|0:0,0:0:0:0:
368,256,16992,2,0,L|208:256,2,113.333333333333,6|2|2,0:0|0:0|0:0,0:0:0:0:
112,320,17429,5,6,0:0:0:0:
320,256,17574,1,2,0:0:0:0:
192,256,17719,1,2,0:0:0:0:
400,320,17865,1,6,0:0:0:0:
192,256,18010,1,2,0:0:0:0:
320,256,18155,1,2,0:0:0:0:
112,320,18301,5,2,0:0:0:0:
112,320,18738,6,0,L|64:256,3,50.9999984436036,2|2|2|2,0:0|0:0|0:0|0:0,0:0:0:0:
248,240,18956,2,0,L|264:176,3,50.9999984436036,2|2|2|2,0:0|0:0|0:0|0:0,0:0:0:0:
400,320,19174,2,0,L|448:256,3,50.9999984436036,2|2|2|2,0:0|0:0|0:0|0:0,0:0:0:0:
256,336,19392,6,0,L|192:336,1,50.9999984436036,2|2,0:0|0:0,0:0:0:0:
256,288,19501,2,0,L|320:288,1,50.9999984436036,2|2,0:0|0:0,0:0:0:0:
160,256,19610,2,0,L|80:256,1,50.9999984436036,2|2,0:0|0:0,0:0:0:0:
112,192,19719,2,0,L|176:192,1,50.9999984436036,2|2,0:0|0:0,0:0:0:0:
376,128,19829,2,0,L|392:288,1,127.5,2|0,0:0|0:0,0:0:0:0:
192,288,20047,6,0,L|80:288,1,85,12|8,0:0|0:0,0:0:0:0:
288,256,20265,1,8,0:0:0:0:
96,256,20374,2,0,L|80:160,1,85,8|8,0:0|0:0,0:0:0:0:
272,160,20592,1,8,0:0:0:0:
96,144,20701,2,0,L|144:144,1,42.5,8|0,0:0|0:0,0:0:0:0:
288,128,20810,2,0,L|336:128,1,42.5,8|0,0:0|0:0,0:0:0:0:
192,224,20919,6,0,L|96:224,1,85,8|8,0:0|0:0,0:0:0:0:
288,304,21138,2,0,L|176:304,1,85,8|8,0:0|0:0,0:0:0:0:
384,240,21356,6,0,L|464:240,1,42.5,8|0,0:0|0:0,0:0:0:0:
384,192,21465,2,0,L|336:192,1,42.5,8|0,0:0|0:0,0:0:0:0:
496,192,21574,2,0,L|496:112,1,42.5,8|8,0:0|0:0,0:0:0:0:
336,144,21683,2,0,L|272:144,1,42.5,8|8,0:0|0:0,0:0:0:0:
144,240,21792,6,0,L|256:240,1,85,10|8,0:0|0:0,0:0:0:0:
400,240,22010,1,8,0:0:0:0:
224,208,22119,2,0,L|224:96,1,85,8|8,0:0|0:0,0:0:0:0:
48,96,22338,1,8,0:0:0:0:
224,96,22447,2,0,L|128:96,1,85,8|8,0:0|0:0,0:0:0:0:
320,192,22665,6,0,L|432:192,1,85,8|8,0:0|0:0,0:0:0:0:
224,288,22883,2,0,L|336:288,1,85,8|8,0:0|0:0,0:0:0:0:
128,320,23101,6,0,L|128:256,1,42.5,8|8,0:0|0:0,0:0:0:0:
176,256,23210,2,0,L|224:256,1,42.5,8|8,0:0|0:0,0:0:0:0:
368,240,23319,2,0,L|320:240,1,42.5,8|8,0:0|0:0,0:0:0:0:
208,208,23429,2,0,L|144:208,1,42.5,8|8,0:0|0:0,0:0:0:0:
320,176,23538,6,0,L|208:176,1,85,12|8,0:0|0:0,0:0:0:0:
416,128,23756,1,8,0:0:0:0:
224,224,23865,2,0,L|336:224,1,85,8|8,0:0|0:0,0:0:0:0:
128,176,24083,1,8,0:0:0:0:
304,272,24192,2,0,L|208:272,1,85,8|8,0:0|0:0,0:0:0:0:
432,352,24410,6,0,L|432:256,1,85,8|8,0:0|0:0,0:0:0:0:
256,208,24629,2,0,L|368:208,1,85,8|8,0:0|0:0,0:0:0:0:
160,176,24847,6,0,L|112:176,1,42.5,8|0,0:0|0:0,0:0:0:0:
256,128,24956,2,0,L|320:128,1,42.5,8|8,0:0|0:0,0:0:0:0:
256,80,25065,2,0,L|208:80,1,42.5,10|8,0:0|0:0,0:0:0:0:
352,128,25174,2,0,L|416:128,1,42.5,8|8,0:0|0:0,0:0:0:0:
256,288,25283,5,2,0:0:0:0:
432,272,25392,2,0,L|432:176,1,85,8|8,0:0|0:0,0:0:0:0:
208,288,25610,1,8,0:0:0:0:
384,272,25719,2,0,L|272:272,1,85,8|8,0:0|0:0,0:0:0:0:
80,272,25938,2,0,L|176:272,1,85,8|8,0:0|0:0,0:0:0:0:
352,336,26156,6,0,L|288:336,1,42.5,8|0,0:0|0:0,0:0:0:0:
176,304,26265,2,0,L|288:304,2,85,8|8|2,0:0|0:0|0:0,0:0:0:0:
352,240,26592,6,0,L|368:128,1,85,8|8,0:0|0:0,0:0:0:0:
160,240,26810,2,0,L|144:128,1,85,8|8,0:0|0:0,0:0:0:0:
368,112,27029,5,0,0:0:0:0:
448,176,27138,2,0,L|400:176,1,42.5
208,256,27247,1,12,0:0:0:0:
304,224,27356,2,0,L|304:128,1,85,0|2,0:0|0:0,0:0:0:0:
96,128,27574,1,2,0:0:0:0:
304,112,27683,2,0,L|208:112,1,85,8|0,0:0|0:0,0:0:0:0:
416,272,27901,6,0,L|272:272,2,127.5,2|0|8,0:0|0:0|0:0,0:0:0:0:
160,336,28338,2,0,L|160:240,1,85,2|2,0:0|0:0,0:0:0:0:
336,224,28556,1,8,0:0:0:0:
160,192,28665,1,0,0:0:0:0:
336,272,28774,6,0,L|224:272,1,85,2|0,0:0|0:0,0:0:0:0:
432,208,28992,1,8,0:0:0:0:
256,320,29101,1,0,0:0:0:0:
80,64,29210,2,0,L|208:64,2,127.5,2|0|0,0:0|0:0|0:0,0:0:0:0:
256,192,29647,6,0,L|160:192,1,85,8|0,0:0|0:0,0:0:0:0:
352,256,29865,2,0,L|352:208,1,42.5,8|0,0:0|0:0,0:0:0:0:
208,144,29974,2,0,L|144:144,1,42.5,8|0,0:0|0:0,0:0:0:0:
352,144,30083,6,0,L|448:144,1,85,0|2,0:0|0:0,0:0:0:0:
304,96,30247,2,0,L|240:96,2,42.5,0|8|0,0:0|0:0|0:0,0:0:0:0:
432,96,30410,1,2,0:0:0:0:
240,288,30519,6,0,P|240:224|336:176,1,170,2|8,0:0|0:0,0:0:0:0:
416,176,30847,1,2,0:0:0:0:
224,336,30956,1,0,0:0:0:0:
400,336,31065,1,2,0:0:0:0:
224,336,31174,2,0,L|224:240,1,85,8|0,0:0|0:0,0:0:0:0:
400,240,31392,6,0,L|464:240,1,42.5,8|0,0:0|0:0,0:0:0:0:
288,192,31501,2,0,L|240:192,1,42.5,2|0,0:0|0:0,0:0:0:0:
384,160,31610,1,8,0:0:0:0:
192,304,31719,2,0,L|304:304,1,85,2|8,0:0|0:0,0:0:0:0:
96,256,31938,1,2,0:0:0:0:
304,240,32047,2,0,L|192:240,1,85,8|2,0:0|0:0,0:0:0:0:
400,192,32265,6,0,L|464:192,1,42.5,10|0,0:0|0:0,0:0:0:0:
288,192,32374,2,0,L|240:192,1,42.5,10|0,0:0|0:0,0:0:0:0:
400,192,32592,6,0,L|464:192,1,42.5,10|0,0:0|0:0,0:0:0:0:
320,192,32701,2,0,L|272:192,1,42.5,10|0,0:0|0:0,0:0:0:0:
400,192,32919,6,0,L|464:192,1,42.5,10|0,0:0|0:0,0:0:0:0:
256,192,33028,2,0,L|208:192,1,42.5,10|0,0:0|0:0,0:0:0:0:
368,320,33138,6,0,L|368:208,1,85,0|10,0:0|0:0,0:0:0:0:
176,240,33356,1,10,0:0:0:0:
272,240,33465,1,2,0:0:0:0:
96,320,33574,1,8,0:0:0:0:
272,320,33684,1,2,0:0:0:0:
96,288,33792,2,0,L|32:288,1,42.5,2|2,0:0|0:0,0:0:0:0:
176,256,33901,2,0,L|240:256,1,42.5,10|2,0:0|0:0,0:0:0:0:
368,256,34010,6,0,P|368:208|288:160,1,136,6|0,0:0|0:0,0:0:0:0:
222,175,34338,1,0,0:0:0:0:
302,159,34447,1,0,0:0:0:0:
144,320,34883,6,0,P|64:288|160:192,1,272,8|0,0:0|0:0,0:0:0:0:
336,288,35756,5,0,0:0:0:0:
353,223,35865,1,0,0:0:0:0:
331,160,35974,1,0,0:0:0:0:
276,121,36083,1,0,0:0:0:0:
209,120,36192,1,0,0:0:0:0:
368,112,36629,2,0,P|368:240|240:288,1,272,8|0,0:0|0:0,0:0:0:0:
448,352,37501,6,0,L|464:256,1,68
368,256,37719,2,0,L|352:176,1,68
256,176,37938,2,0,L|400:176,1,136
160,320,38374,6,0,P|144:256|208:208,1,136,8|0,0:0|0:0,0:0:0:0:
320,208,38810,2,0,L|176:208,1,136
384,272,39247,6,0,L|400:112,1,136,2|0,0:0|0:0,0:0:0:0:
128,272,39574,2,0,L|112:112,1,136,2|0,0:0|0:0,0:0:0:0:
256,192,39901,2,0,L|256:112,1,68,2|0,0:0|0:0,0:0:0:0:
64,256,40119,6,0,L|43:202,2,45.3333333333333,8|0|0,0:0|0:0|0:0,0:0:0:0:
128,176,40338,2,0,L|144:96,1,68
336,96,40556,2,0,P|416:144|320:208,1,238,8|0,0:0|0:0,0:0:0:0:
176,224,40992,6,0,L|80:224,1,85,14|8,0:0|0:0,0:0:0:0:
288,272,41210,1,8,0:0:0:0:
96,272,41319,1,8,0:0:0:0:
288,240,41429,1,8,0:0:0:0:
192,224,41538,2,0,L|192:112,1,85,8|8,0:0|0:0,0:0:0:0:
384,128,41756,1,8,0:0:0:0:
288,144,41865,6,0,L|288:240,1,85,8|8,0:0|0:0,0:0:0:0:
112,288,42083,1,8,0:0:0:0:
208,288,42192,1,8,0:0:0:0:
384,288,42301,2,0,L|448:288,1,42.5,8|8,0:0|0:0,0:0:0:0:
288,336,42410,2,0,L|224:336,1,42.5,8|8,0:0|0:0,0:0:0:0:
384,288,42519,2,0,L|400:224,1,42.5,8|0,0:0|0:0,0:0:0:0:
256,304,42629,2,0,L|192:304,1,42.5,8|8,0:0|0:0,0:0:0:0:
368,192,42738,6,0,L|272:192,1,85,8|8,0:0|0:0,0:0:0:0:
112,256,42956,2,0,L|224:256,1,85,8|8,0:0|0:0,0:0:0:0:
16,192,43174,2,0,L|128:192,1,85,8|8,0:0|0:0,0:0:0:0:
272,176,43392,2,0,L|176:176,1,85,8|8,0:0|0:0,0:0:0:0:
416,256,43610,6,0,L|320:256,1,85,8|8,0:0|0:0,0:0:0:0:
160,256,43829,2,0,L|64:256,1,85,8|8,0:0|0:0,0:0:0:0:
256,320,44047,2,0,L|320:320,1,42.5,8|0,0:0|0:0,0:0:0:0:
176,304,44156,2,0,L|128:304,1,42.5,8|8,0:0|0:0,0:0:0:0:
304,256,44265,2,0,L|320:192,1,42.5,8|8,0:0|0:0,0:0:0:0:
176,192,44374,2,0,L|112:192,1,42.5,8|8,0:0|0:0,0:0:0:0:
320,160,44483,6,0,L|224:160,2,85,6|0|0,0:0|0:0|0:0,0:0:0:0:
96,240,44810,2,0,L|192:240,2,85,6|0|0,0:0|0:0|0:0,0:0:0:0:
384,224,45138,2,0,L|272:224,1,85,6|0,0:0|0:0,0:0:0:0:
112,336,45356,5,0,0:0:0:0:
71,328,45410,1,0,0:0:0:0:
44,296,45465,1,8,0:0:0:0:
46,254,45519,1,0,0:0:0:0:
74,224,45574,1,2,0:0:0:0:
115,219,45628,1,0,0:0:0:0:
163,219,45683,2,0,L|115:219,1,48.8750009322167,2|0,0:0|0:0,0:0:0:0:
256,288,45792,2,0,L|320:288,1,48.8750009322167,8|8,0:0|0:0,0:0:0:0:
256,240,45901,2,0,L|176:240,1,48.8750009322167,8|8,0:0|0:0,0:0:0:0:
320,208,46010,2,0,L|400:208,1,48.8750009322167,8|8,0:0|0:0,0:0:0:0:
192,176,46119,2,0,L|112:176,1,48.8750009322167,8|8,0:0|0:0,0:0:0:0:
320,128,46229,6,0,L|320:64,1,42.5,2|0,0:0|0:0,0:0:0:0:
192,128,46338,2,0,L|192:64,1,42.5,2|0,0:0|0:0,0:0:0:0:
288,48,46556,6,0,L|336:0,1,42.5,2|0,0:0|0:0,0:0:0:0:
160,48,46665,2,0,L|112:0,1,42.5,2|0,0:0|0:0,0:0:0:0:
240,16,46883,6,0,L|304:16,1,42.5,2|0,0:0|0:0,0:0:0:0:
112,16,46992,2,0,L|48:16,1,42.5,2|0,0:0|0:0,0:0:0:0:
352,304,47210,5,2,0:0:0:0:
256,192,47470,12,2,47483,0:0:0:0:
256,192,47688,12,0,47701,0:0:0:0:
208,192,47974,6,0,L|96:192,1,93.5000028533936,6|2,0:0|0:0,0:0:0:0:
288,288,48192,2,0,L|400:288,1,93.5000028533936,2|2,0:0|0:0,0:0:0:0:
208,192,48410,2,0,L|96:192,1,93.5000028533936,2|2,0:0|0:0,0:0:0:0:
304,192,48629,2,0,L|304:160,1,23.3750007133484,2|2,0:0|0:0,0:0:0:0:
280,160,48683,1,2,0:0:0:0:
160,160,48738,2,0,L|96:160,1,46.7500014266968,2|0,0:0|0:0,0:0:0:0:
288,256,48847,5,2,0:0:0:0:
311,256,48874,1,2,0:0:0:0:
334,256,48901,1,2,0:0:0:0:
208,208,48956,1,2,0:0:0:0:
184,208,48983,1,2,0:0:0:0:
161,208,49010,1,2,0:0:0:0:
48,224,49065,1,2,0:0:0:0:
320,320,49174,5,2,0:0:0:0:
343,320,49201,1,2,0:0:0:0:
320,320,49228,1,2,0:0:0:0:
208,304,49283,1,2,0:0:0:0:
184,304,49310,1,2,0:0:0:0:
161,304,49337,1,2,0:0:0:0:
320,256,49392,1,2,0:0:0:0:
96,192,49501,6,0,L|64:192,2,31.1666676177979,2|2|2,0:0|0:0|0:0,0:0:0:0:
224,192,49610,2,0,L|256:192,2,31.1666676177979,2|2|2,0:0|0:0|0:0,0:0:0:0:
80,320,49719,6,0,L|80:208,1,93.5000028533936,6|2,0:0|0:0,0:0:0:0:
304,208,49938,2,0,L|208:208,1,93.5000028533936,2|2,0:0|0:0,0:0:0:0:
432,320,50156,2,0,L|432:208,1,93.5000028533936,2|2,0:0|0:0,0:0:0:0:
256,240,50374,5,2,0:0:0:0:
232,240,50401,1,2,0:0:0:0:
232,200,50429,1,2,0:0:0:0:
352,192,50483,2,0,L|400:192,1,46.7500014266968,2|0,0:0|0:0,0:0:0:0:
224,320,50592,5,2,0:0:0:0:
200,320,50619,1,2,0:0:0:0:
177,320,50646,1,2,0:0:0:0:
336,240,50701,1,2,0:0:0:0:
312,240,50728,1,2,0:0:0:0:
289,240,50755,1,2,0:0:0:0:
144,240,50810,1,2,0:0:0:0:
336,192,50919,6,0,L|368:192,2,23.3750007133484,2|2|2,0:0|0:0|0:0,0:0:0:0:
224,160,51029,2,0,L|192:160,2,23.3750007133484,2|2|2,0:0|0:0|0:0,0:0:0:0:
336,128,51138,1,2,0:0:0:0:
144,240,51247,6,0,L|144:192,1,31.1666676177979,2|2,0:0|0:0,0:0:0:0:
176,192,51319,1,2,0:0:0:0:
368,240,51356,2,0,L|368:192,1,31.1666676177979,2|2,0:0|0:0,0:0:0:0:
336,192,51428,1,2,0:0:0:0:
160,160,51465,5,6,0:0:0:0:
336,128,51574,2,0,L|464:128,1,93.5000028533936,2|2,0:0|0:0,0:0:0:0:
256,128,51792,1,2,0:0:0:0:
432,64,51901,2,0,L|336:64,1,93.5000028533936,2|2,0:0|0:0,0:0:0:0:
160,160,52119,2,0,L|128:160,2,23.3750007133484,2|2|2,0:0|0:0|0:0,0:0:0:0:
288,160,52229,2,0,L|336:160,1,46.7500014266968,2|0,0:0|0:0,0:0:0:0:
128,304,52338,6,0,L|96:304,2,23.3750007133484,2|2|2,0:0|0:0|0:0,0:0:0:0:
272,256,52447,1,2,0:0:0:0:
248,256,52474,1,2,0:0:0:0:
225,256,52501,1,2,0:0:0:0:
96,256,52556,1,2,0:0:0:0:
308,320,52665,5,2,0:0:0:0:
327,320,52692,1,2,0:0:0:0:
345,320,52719,1,2,0:0:0:0:
187,272,52774,1,2,0:0:0:0:
168,272,52801,1,2,0:0:0:0:
149,272,52828,1,2,0:0:0:0:
304,240,52883,1,2,0:0:0:0:
128,192,52992,5,2,0:0:0:0:
96,192,53028,1,2,0:0:0:0:
128,176,53064,1,2,0:0:0:0:
278,160,53101,1,2,0:0:0:0:
302,160,53137,1,2,0:0:0:0:
327,160,53173,1,2,0:0:0:0:
128,352,53210,6,0,P|80:304|160:224,1,187.000005706787,6|2,0:0|0:0,0:0:0:0:
192,224,53483,1,2,0:0:0:0:
336,224,53538,1,2,0:0:0:0:
144,320,53647,6,0,L|48:320,1,93.5000028533936,2|2,0:0|0:0,0:0:0:0:
80,272,53792,1,2,0:0:0:0:
112,240,53829,1,2,0:0:0:0:
256,256,53865,2,0,L|320:256,1,46.7500014266968,2|0,0:0|0:0,0:0:0:0:
96,192,53974,2,0,L|144:192,1,46.7500014266968,2|0,0:0|0:0,0:0:0:0:
368,192,54083,5,6,0:0:0:0:
406,151,54155,1,0,0:0:0:0:
414,96,54228,1,0,0:0:0:0:
389,46,54301,1,0,0:0:0:0:
340,20,54373,1,0,0:0:0:0:
285,26,54446,1,0,0:0:0:0:
112,192,54519,2,0,L|96:128,3,42.5
256,192,54738,2,0,L|272:128,3,42.5,2|0|0|0,1:2|0:0|0:0|0:0,0:0:0:0:
400,192,54956,6,0,L|400:80,1,85,6|2,0:0|0:0,0:0:0:0:
224,256,55174,2,0,L|320:256,1,85,2|2,0:0|0:0,0:0:0:0:
128,192,55392,1,2,0:0:0:0:
304,192,55501,1,2,0:0:0:0:
128,208,55610,2,0,L|80:208,1,42.5,2|2,0:0|0:0,0:0:0:0:
256,144,55719,1,2,0:0:0:0:
277,144,55746,1,0,0:0:0:0:
298,144,55773,1,0,0:0:0:0:
160,272,55829,6,0,L|160:176,1,85,2|2,0:0|0:0,0:0:0:0:
352,176,56047,2,0,L|464:176,1,85,2|2,0:0|0:0,0:0:0:0:
224,272,56265,2,0,L|336:272,1,85,2|2,0:0|0:0,0:0:0:0:
128,352,56483,6,0,L|96:352,2,21.25,2|2|2,0:0|0:0|0:0,0:0:0:0:
224,352,56565,1,2,0:0:0:0:
320,352,56592,2,0,L|352:352,2,21.25,2|0|0,0:0|0:0|0:0,0:0:0:0:
112,320,56701,6,0,L|112:224,1,85,2|2,0:0|0:0,0:0:0:0:
304,208,56919,2,0,L|347:209,1,28.3333333333333,2|2,0:0|0:0,0:0:0:0:
332,208,56992,2,0,L|304:208,1,28.3333333333333,2|2,0:0|0:0,0:0:0:0:
112,288,57138,6,0,L|208:288,1,85,2|2,0:0|0:0,0:0:0:0:
240,288,57301,1,2,0:0:0:0:
80,256,57356,2,0,L|16:256,1,42.5,2|2,0:0|0:0,0:0:0:0:
80,224,57465,2,0,L|144:224,1,42.5,2|2,0:0|0:0,0:0:0:0:
352,192,57574,6,0,L|432:192,2,56.6666666666667,2|2|2,0:0|0:0|0:0,0:0:0:0:
192,240,57792,1,2,0:0:0:0:
256,240,57865,1,2,0:0:0:0:
320,240,57938,1,2,0:0:0:0:
160,192,58010,2,0,L|80:192,2,56.6666666666667,2|2|2,0:0|0:0|0:0,0:0:0:0:
320,240,58228,1,2,0:0:0:0:
256,240,58301,1,2,0:0:0:0:
256,176,58374,1,2,0:0:0:0:
448,304,58447,6,0,L|448:192,1,85,6|2,0:0|0:0,0:0:0:0:
352,192,58665,1,2,0:0:0:0:
160,288,58773,2,0,L|272:288,1,85,2|2,0:0|0:0,0:0:0:0:
144,240,58992,2,0,L|144:144,1,85,2|2,0:0|0:0,0:0:0:0:
336,144,59210,2,0,L|400:144,1,42.5,2|0,0:0|0:0,0:0:0:0:
224,320,59319,6,0,L|112:320,1,85,2|2,0:0|0:0,0:0:0:0:
336,272,59538,2,0,L|336:160,1,85,2|2,0:0|0:0,0:0:0:0:
144,224,59756,2,0,L|256:224,1,85,2|2,0:0|0:0,0:0:0:0:
48,304,59974,2,0,L|48:176,1,127.5,10|0,0:0|0:0,0:0:0:0:
256,192,60192,6,0,L|352:192,1,85,6|0,0:0|0:0,0:0:0:0:
256,272,60410,2,0,L|160:272,1,85,8|2,0:0|0:0,0:0:0:0:
352,336,60629,6,0,L|448:336,1,85,2|0,0:0|0:0,0:0:0:0:
160,336,60847,2,0,L|64:336,1,85,10|0,0:0|0:0,0:0:0:0:
352,272,61065,6,0,P|384:224|336:160,1,127.5,2|0,0:0|0:0,0:0:0:0:
208,192,61283,1,2,0:0:0:0:
202,167,61319,1,0,0:0:0:0:
208,142,61355,1,0,0:0:0:0:
224,123,61392,1,2,0:0:0:0:
247,112,61428,1,0,0:0:0:0:
272,112,61464,1,0,0:0:0:0:
144,240,61501,6,0,L|32:240,1,85,2|2,0:0|0:0,0:0:0:0:
256,192,61719,2,0,L|128:192,1,127.5,2|0,0:0|0:0,0:0:0:0:
352,256,61938,6,0,L|432:256,1,50.9999984436036,2|2,0:0|0:0,0:0:0:0:
256,208,62047,2,0,L|192:208,1,50.9999984436036,2|2,0:0|0:0,0:0:0:0:
256,144,62156,2,0,L|336:144,1,50.9999984436036,2|2,0:0|0:0,0:0:0:0:
160,96,62265,2,0,L|96:96,1,50.9999984436036,2|2,0:0|0:0,0:0:0:0:
304,112,62374,6,0,L|384:112,1,50.9999984436036,2|2,0:0|0:0,0:0:0:0:
208,112,62483,2,0,L|128:112,1,50.9999984436036,2|2,0:0|0:0,0:0:0:0:
336,224,62592,2,0,L|400:224,1,50.9999984436036,2|2,0:0|0:0,0:0:0:0:
387,224,62701,2,0,L|323:224,1,50.9999984436036,2|2,0:0|0:0,0:0:0:0:
144,256,62810,6,0,L|112:192,3,50.9999984436036,2|2|2|2,0:0|0:0|0:0|0:0,0:0:0:0:
256,192,63029,2,0,L|256:112,3,50.9999984436036,2|2|2|2,0:0|0:0|0:0|0:0,0:0:0:0:
368,256,63247,2,0,L|400:192,3,50.9999984436036,2|2|2|2,0:0|0:0|0:0|0:0,0:0:0:0:
208,240,63465,2,0,L|128:240,1,50.9999984436036,2|2,0:0|0:0,0:0:0:0:
304,240,63574,2,0,L|384:240,1,50.9999984436036,2|2,0:0|0:0,0:0:0:0:
192,352,63683,6,0,P|250:110|320:352,1,680,6|0,0:0|0:0,0:0:0:0:
256,192,65538,12,0,66738,0:0:0:0:
256,336,67065,6,0,L|256:160,1,170
64,160,67392,6,0,L|208:160,2,97.7500018644333,12|0|2,0:0|0:0|0:0,0:0:0:0:
256,304,67719,2,0,L|256:192,1,97.7500018644333,2|0,0:0|0:0,0:0:0:0:
448,176,67938,6,0,L|240:176,1,195.500003728867,2|2,0:0|0:0,0:0:0:0:
448,240,68265,2,0,L|336:240,1,97.7500018644333,8|0,0:0|0:0,0:0:0:0:
160,320,68483,2,0,L|304:320,2,97.7500018644333,2|2|0,0:0|0:0|0:0,0:0:0:0:
384,352,68810,6,0,L|384:144,1,195.500003728867,2|2,0:0|0:0,0:0:0:0:
208,160,69138,2,0,L|320:160,1,97.7500018644333,8|0,0:0|0:0,0:0:0:0:
112,240,69356,2,0,L|224:240,2,97.7500018644333,2|2|8,0:0|0:0|0:0,0:0:0:0:
304,336,69683,6,0,L|80:336,1,195.500003728867,2|2,0:0|0:0,0:0:0:0:
288,288,70010,2,0,L|416:288,1,97.7500018644333,8|0,0:0|0:0,0:0:0:0:
192,224,70229,2,0,L|128:224,1,48.8750009322167,8|8,0:0|0:0,0:0:0:0:
288,192,70338,2,0,L|240:192,1,48.8750009322167,8|0,0:0|0:0,0:0:0:0:
96,192,70447,1,8,0:0:0:0:
368,240,70556,6,0,P|368:176|240:112,1,195.500003728867,6|2,0:0|0:0,0:0:0:0:
496,112,70883,2,0,L|368:112,1,97.7500018644333,8|0,0:0|0:0,0:0:0:0:
208,192,71101,2,0,L|352:192,1,97.7500018644333,2|0,0:0|0:0,0:0:0:0:
112,192,71319,1,8,0:0:0:0:
336,288,71429,6,0,L|128:288,1,195.500003728867,2|2,0:0|0:0,0:0:0:0:
352,336,71756,2,0,L|480:336,1,97.7500018644333,8|8,0:0|0:0,0:0:0:0:
208,336,71974,2,0,L|128:336,1,48.8750009322167,8|8,0:0|0:0,0:0:0:0:
304,336,72083,2,0,L|384:336,1,48.8750009322167,8|0,0:0|0:0,0:0:0:0:
176,288,72192,2,0,L|64:288,1,97.7500018644333,2|0,0:0|0:0,0:0:0:0:
304,304,72410,6,0,P|368:240|288:208,1,195.500003728867,2|8,0:0|0:0,0:0:0:0:
208,208,72738,1,2,0:0:0:0:
416,240,72847,2,0,L|416:128,1,97.7500018644333,8|8,0:0|0:0,0:0:0:0:
368,144,73010,1,0,0:0:0:0:
208,240,73065,2,0,L|160:240,1,48.8750009322167,8|0,0:0|0:0,0:0:0:0:
336,192,73174,6,0,P|368:112|272:80,1,195.500003728867,8|2,0:0|0:0,0:0:0:0:
112,176,73501,2,0,L|256:176,1,97.7500018644333,8|0,0:0|0:0,0:0:0:0:
32,256,73719,2,0,L|32:176,1,48.8750009322167,8|0,0:0|0:0,0:0:0:0:
176,176,73829,2,0,L|272:176,1,48.8750009322167,8|0,0:0|0:0,0:0:0:0:
96,304,73938,2,0,B|308:304|308:304|336:188,1,318.75,2|0,0:0|0:0,0:0:0:0:
192,352,74156,6,0,L|80:352,1,97.7500018644333,6|0,0:0|0:0,0:0:0:0:
320,256,74374,1,8,0:0:0:0:
96,272,74483,1,2,0:0:0:0:
192,256,74592,2,0,L|192:144,1,97.7500018644333,0|2,0:0|0:0,0:0:0:0:
400,144,74810,1,8,0:0:0:0:
192,256,74919,6,0,L|400:256,1,195.500003728867,2|2,0:0|0:0,0:0:0:0:
192,336,75247,2,0,L|304:336,1,97.7500018644333,8|0,0:0|0:0,0:0:0:0:
64,272,75465,2,0,L|176:272,1,97.7500018644333,2|0,0:0|0:0,0:0:0:0:
352,256,75683,6,0,L|416:256,1,48.8750009322167,8|0,0:0|0:0,0:0:0:0:
272,208,75792,2,0,L|224:208,1,48.8750009322167,8|8,0:0|0:0,0:0:0:0:
384,176,75901,6,0,L|496:176,1,97.7500018644333,2|0,0:0|0:0,0:0:0:0:
256,272,76119,1,2,0:0:0:0:
464,336,76228,6,0,L|288:336,1,146.62500279665,2|0,0:0|0:0,0:0:0:0:
48,336,76447,2,0,L|224:336,1,146.62500279665,2|0,0:0|0:0,0:0:0:0:
352,288,76665,6,0,L|112:288,1,195.500003728867,6|0,0:0|0:0,0:0:0:0:
384,240,76992,2,0,L|448:240,1,48.8750009322167,8|0,0:0|0:0,0:0:0:0:
272,224,77101,2,0,L|208:224,1,48.8750009322167,8|0,0:0|0:0,0:0:0:0:
368,176,77210,2,0,L|384:112,3,48.8750009322167,8|0|8|0,0:0|0:0|0:0|0:0,0:0:0:0:
256,112,77429,2,0,L|208:112,1,48.8750009322167,8|8,0:0|0:0,0:0:0:0:
256,80,77538,2,0,L|320:80,1,48.8750009322167,8|8,0:0|0:0,0:0:0:0:
144,304,77647,6,0,L|144:192,1,97.7500018644333,2|8,0:0|0:0,0:0:0:0:
192,192,77810,1,8,0:0:0:0:
319,176,77865,2,0,L|415:176,1,48.8750009322167,8|0,0:0|0:0,0:0:0:0:
192,304,77974,6,0,L|16:304,1,146.62500279665,8|0,0:0|0:0,0:0:0:0:
192,336,78192,2,0,L|368:336,1,146.62500279665,8|0,0:0|0:0,0:0:0:0:
128,304,78410,6,0,P|64:256|128:176,1,195.500003728867,6|8,0:0|0:0,0:0:0:0:
168,172,78683,1,8,0:0:0:0:
288,224,78738,2,0,L|352:224,1,48.8750009322167,8|0,0:0|0:0,0:0:0:0:
288,176,78847,2,0,L|224:176,1,48.8750009322167,8|0,0:0|0:0,0:0:0:0:
384,144,78956,2,0,L|464:144,1,48.8750009322167,8|0,0:0|0:0,0:0:0:0:
272,112,79065,2,0,L|208:112,1,48.8750009322167,8|0,0:0|0:0,0:0:0:0:
272,64,79174,2,0,L|352:64,1,48.8750009322167,8|0,0:0|0:0,0:0:0:0:
160,48,79283,2,0,L|240:48,1,48.8750009322167,8|0,0:0|0:0,0:0:0:0:
368,192,79392,6,0,L|368:128,1,48.8750009322167,8|0,0:0|0:0,0:0:0:0:
240,256,79501,2,0,L|112:256,1,97.7500018644333,2|2,0:0|0:0,0:0:0:0:
384,224,79719,6,0,L|432:176,1,48.8750009322167,8|0,0:0|0:0,0:0:0:0:
224,288,79828,2,0,L|96:288,1,97.7500018644333,2|2,0:0|0:0,0:0:0:0:
400,256,80047,6,0,L|464:256,1,48.8750009322167,8|0,0:0|0:0,0:0:0:0:
224,320,80156,2,0,L|288:320,1,48.8750009322167,2|0,0:0|0:0,0:0:0:0:
400,320,80265,1,0,0:0:0:0:
192,272,80374,6,0,L|144:272,1,48.8750009322167,8|0,0:0|0:0,0:0:0:0:
320,272,80483,2,0,L|368:272,1,48.8750009322167,8|0,0:0|0:0,0:0:0:0:
176,208,80592,2,0,L|128:208,1,48.8750009322167,8|0,0:0|0:0,0:0:0:0:
256,192,80701,2,0,L|304:192,1,48.8750009322167,8|8,0:0|0:0,0:0:0:0:
256,144,80810,2,0,L|208:144,1,48.8750009322167,8|8,0:0|0:0,0:0:0:0:
336,112,80919,2,0,L|400:112,1,48.8750009322167,8|0,0:0|0:0,0:0:0:0:
256,304,81029,6,0,P|202:240|256:204,1,170,8|2,0:0|0:0,0:0:0:0:
304,208,81301,1,2,0:0:0:0:
112,288,81356,6,0,L|0:288,1,97.7500018644333,12|0,0:0|0:0,0:0:0:0:
64,240,81519,1,0,0:0:0:0:
240,240,81574,2,0,L|240:128,1,97.7500018644333,2|2,0:0|0:0,0:0:0:0:
192,128,81738,1,0,0:0:0:0:
368,112,81792,2,0,L|240:112,1,97.7500018644333,8|0,0:0|0:0,0:0:0:0:
496,256,82010,6,0,L|368:256,2,97.7500018644333,2|0|8,0:0|0:0|0:0,0:0:0:0:
256,352,82338,2,0,L|464:352,1,195.500003728867
256,272,82665,1,8,0:0:0:0:
448,272,82774,6,0,P|448:192|336:160,1,195.500003728867,2|2,0:0|0:0,0:0:0:0:
256,240,83101,2,0,L|368:240,1,97.7500018644333,8|0,0:0|0:0,0:0:0:0:
160,320,83319,1,2,0:0:0:0:
272,272,83429,2,0,L|272:160,1,97.7500018644333,2|8,0:0|0:0,0:0:0:0:
64,160,83647,6,0,L|288:160,1,195.500003728867,2|2,0:0|0:0,0:0:0:0:
48,224,83974,2,0,L|145:224,1,97.7500018644333,8|8,0:0|0:0,0:0:0:0:
320,304,84192,6,0,L|384:304,1,48.8750009322167,8|0,0:0|0:0,0:0:0:0:
240,288,84301,2,0,L|176:288,1,48.8750009322167,8|0,0:0|0:0,0:0:0:0:
336,240,84410,2,0,L|400:240,1,48.8750009322167,8|0,0:0|0:0,0:0:0:0:
224,224,84519,6,0,P|160:192|240:128,1,195.500003728867,6|2,0:0|0:0,0:0:0:0:
416,128,84847,2,0,L|304:128,1,97.7500018644333,8|2,0:0|0:0,0:0:0:0:
128,240,85065,2,0,L|240:240,1,97.7500018644333,0|2,0:0|0:0,0:0:0:0:
16,160,85283,2,0,L|16:112,1,48.8750009322167,8|0,0:0|0:0,0:0:0:0:
240,192,85392,6,0,L|16:192,1,195.500003728867,2|2,0:0|0:0,0:0:0:0:
272,288,85719,2,0,L|400:288,1,97.7500018644333,8|8,0:0|0:0,0:0:0:0:
176,336,85938,2,0,L|112:336,1,48.8750009322167,8|0,0:0|0:0,0:0:0:0:
256,256,86047,1,8,0:0:0:0:
160,224,86156,2,0,L|96:224,1,48.8750009322167,8|8,0:0|0:0,0:0:0:0:
240,352,86265,2,0,L|304:352,1,48.8750009322167,8|8,0:0|0:0,0:0:0:0:
128,352,86374,6,0,P|128:272|240:224,1,195.500003728867,8|8,0:0|0:0,0:0:0:0:
416,224,86701,1,2,0:0:0:0:
224,288,86810,2,0,L|160:288,1,48.8750009322167,8|2,0:0|0:0,0:0:0:0:
224,240,86919,2,0,L|304:240,1,48.8750009322167,2|2,0:0|0:0,0:0:0:0:
96,224,87029,2,0,L|96:160,1,48.8750009322167,2|2,0:0|0:0,0:0:0:0:
144,160,87138,2,0,L|192:160,1,48.8750009322167,2|2,0:0|0:0,0:0:0:0:
384,320,87247,5,2,0:0:0:0:
432,304,87301,1,0,0:0:0:0:
432,256,87356,1,2,0:0:0:0:
384,224,87410,1,0,0:0:0:0:
336,224,87465,1,2,0:0:0:0:
288,208,87519,1,0,0:0:0:0:
288,160,87574,1,0,0:0:0:0:
336,144,87628,1,0,0:0:0:0:
208,272,87683,5,2,0:0:0:0:
160,256,87737,1,0,0:0:0:0:
160,208,87792,1,0,0:0:0:0:
208,176,87846,1,0,0:0:0:0:
384,192,87901,2,0,P|432:144|352:96,1,146.62500279665,8|0,0:0|0:0,0:0:0:0:
176,336,88119,6,0,L|48:336,1,97.7500018644333,2|2,0:0|0:0,0:0:0:0:
128,320,88283,1,0,0:0:0:0:
304,288,88338,2,0,L|160:288,1,97.7500018644333,12|2,0:0|0:0,0:0:0:0:
416,224,88556,2,0,L|288:224,2,97.7500018644333,2|2|8,0:0|0:0|0:0,0:0:0:0:
160,320,88883,6,0,L|368:320,1,195.500003728867,2|2,0:0|0:0,0:0:0:0:
160,256,89210,2,0,L|32:256,1,97.7500018644333,8|2,0:0|0:0,0:0:0:0:
256,224,89429,2,0,L|320:224,1,48.8750009322167,8|0,0:0|0:0,0:0:0:0:
256,160,89538,2,0,L|192:160,1,48.8750009322167,2|0,0:0|0:0,0:0:0:0:
384,128,89647,2,0,L|464:128,1,48.8750009322167,8|8,0:0|0:0,0:0:0:0:
256,96,89756,1,8,0:0:0:0:
192,176,90010,6,0,L|112:176,1,65.1666679096222,6|0,0:0|0:0,0:0:0:0:
320,176,90156,2,0,L|400:176,1,65.1666679096222,6|0,0:0|0:0,0:0:0:0:
176,224,90301,2,0,L|96:224,1,65.1666679096222,6|0,0:0|0:0,0:0:0:0:
352,224,90447,2,0,L|432:224,1,65.1666679096222,6|0,0:0|0:0,0:0:0:0:
224,304,90592,2,0,L|304:304,1,65.1666679096222,6|0,0:0|0:0,0:0:0:0:
432,304,90738,6,0,P|432:192|208:48,1,391.000007457733,6|8,0:0|0:0,0:0:0:0:
320,48,91283,1,8,0:0:0:0:
224,112,91392,2,0,L|94:228,1,146.62500279665,8|0,0:0|0:0,0:0:0:0:
320,256,91610,6,0,L|320:208,1,48.8750009322167,8|0,0:0|0:0,0:0:0:0:
192,192,91719,2,0,L|192:144,1,48.8750009322167,2|2,0:0|0:0,0:0:0:0:
320,128,91828,1,2,0:0:0:0:
144,256,91938,2,0,L|96:208,1,48.8750009322167,8|0,0:0|0:0,0:0:0:0:
240,256,92047,2,0,L|288:208,1,48.8750009322167,2|2,0:0|0:0,0:0:0:0:
144,192,92156,1,2,0:0:0:0:
352,240,92265,6,0,L|432:240,1,48.8750009322167,8|0,0:0|0:0,0:0:0:0:
272,304,92374,2,0,L|208:304,1,48.8750009322167,2|2,0:0|0:0,0:0:0:0:
352,208,92483,1,2,0:0:0:0:
160,288,92592,6,0,L|96:288,1,48.8750009322167,8|0,0:0|0:0,0:0:0:0:
256,240,92701,2,0,L|352:240,1,48.8750009322167,8|0,0:0|0:0,0:0:0:0:
256,176,92810,2,0,L|192:176,1,48.8750009322167,8|0,0:0|0:0,0:0:0:0:
352,128,92919,2,0,L|368:64,3,48.8750009322167,8|8|8|0,0:0|0:0|0:0|0:0,0:0:0:0:
192,160,93138,2,0,L|96:160,1,48.8750009322167,8|0,0:0|0:0,0:0:0:0:
320,144,93248,2,0,L|384:144,1,48.8750009322167,8|0,0:0|0:0,0:0:0:0:
160,352,93356,6,0,L|48:352,2,102
256,352,94229,2,0,L|256:304,1,34,8|0,0:0|0:0,0:0:0:0:
464,320,94447,1,8,0:0:0:0:
464,256,94665,2,0,L|352:256,1,85,8|8,0:0|0:0,0:0:0:0:
240,256,94829,2,0,L|144:256,1,85
288,224,94992,2,0,L|336:224,1,42.5,8|0,0:0|0:0,0:0:0:0:
144,320,95101,6,0,L|96:320,1,42.5,6|2,0:0|0:0,0:0:0:0:
272,288,95210,2,0,L|288:240,1,42.5,2|2,0:0|0:0,0:0:0:0:
240,288,95319,2,0,L|224:240,1,42.5,2|2,0:0|0:0,0:0:0:0:
368,320,95429,2,0,L|416:320,1,42.5,2|2,0:0|0:0,0:0:0:0:
208,352,95538,6,0,L|160:352,1,42.5,2|2,0:0|0:0,0:0:0:0:
304,352,95647,2,0,L|352:352,1,42.5,2|2,0:0|0:0,0:0:0:0:
160,304,95756,2,0,P|117:255|172:235,1,127.5,2|0,0:0|0:0,0:0:0:0:
352,224,95974,6,0,L|432:224,1,46.7500014266968,6|2,0:0|0:0,0:0:0:0:
256,192,96083,2,0,L|192:192,1,46.7500014266968,2|2,0:0|0:0,0:0:0:0:
256,128,96192,2,0,L|336:128,1,46.7500014266968,2|2,0:0|0:0,0:0:0:0:
160,96,96301,2,0,L|96:96,1,46.7500014266968,2|2,0:0|0:0,0:0:0:0:
320,64,96410,6,0,L|384:64,1,46.7500014266968,2|2,0:0|0:0,0:0:0:0:
192,64,96519,2,0,L|128:64,1,46.7500014266968,2|2,0:0|0:0,0:0:0:0:
336,208,96629,1,2,0:0:0:0:
376,189,96683,1,0,0:0:0:0:
379,145,96738,1,0,0:0:0:0:
341,122,96792,1,0,0:0:0:0:
112,336,96847,6,0,P|64:272|136:189,1,191.250007295609,6|0,0:0|2:0,0:0:0:0:
368,256,97283,2,0,L|153:255,1,191.250007295609,2|0,0:0|0:0,0:0:0:0:
496,352,97719,6,0,L|227:353,2,255,2|0|2,0:0|0:0|0:0,0:0:0:0:
64,352,98592,6,0,L|208:352,1,127.5,6|0,0:0|0:0,0:0:0:0:
368,320,98810,2,0,L|368:208,1,85,8|0,0:0|0:0,0:0:0:0:
272,192,99029,2,0,L|368:192,1,85,2|2,0:0|0:0,0:0:0:0:
128,256,99247,2,0,L|128:160,1,85,8|0,0:0|0:0,0:0:0:0:
352,112,99465,6,0,L|256:112,1,85,8|2,0:0|0:0,0:0:0:0:
480,224,99683,2,0,L|384:224,1,85,8|0,0:0|0:0,0:0:0:0:
192,320,99901,2,0,L|96:320,1,85,2|2,0:0|0:0,0:0:0:0:
288,256,100119,1,8,0:0:0:0:
336,240,100173,1,0,0:0:0:0:
336,208,100228,1,0,0:0:0:0:
288,192,100282,1,0,0:0:0:0:
64,176,100338,6,0,L|176:176,2,85,2|0|8,0:0|0:0|0:0,0:0:0:0:
256,224,100665,1,0,0:0:0:0:
48,272,100774,2,0,L|48:176,1,85,2|2,0:0|0:0,0:0:0:0:
224,144,100992,1,8,0:0:0:0:
181,144,101046,1,8,0:0:0:0:
139,144,101101,1,8,0:0:0:0:
96,144,101155,1,0,0:0:0:0:
224,240,101210,6,0,L|320:240,1,85,8|2,0:0|0:0,0:0:0:0:
128,336,101429,2,0,L|128:224,1,85,8|0,0:0|0:0,0:0:0:0:
352,272,101647,2,0,L|240:272,1,85,2|2,0:0|0:0,0:0:0:0:
480,256,101865,1,8,0:0:0:0:
482,214,101919,1,8,0:0:0:0:
458,179,101974,1,8,0:0:0:0:
419,166,102028,1,8,0:0:0:0:
240,336,102083,6,0,L|384:336,1,127.5,6|0,0:0|0:0,0:0:0:0:
208,288,102301,2,0,L|96:288,1,85,8|0,0:0|0:0,0:0:0:0:
304,240,102519,2,0,L|208:240,1,85,2|2,0:0|0:0,0:0:0:0:
416,208,102737,2,0,L|432:160,3,42.5,8|0|2|0,0:0|0:0|0:0|0:0,0:0:0:0:
208,304,102956,6,0,L|320:304,1,85,8|2,0:0|0:0,0:0:0:0:
112,224,103174,1,8,0:0:0:0:
304,304,103283,2,0,L|192:304,1,85,2|2,0:0|0:0,0:0:0:0:
400,224,103501,1,2,0:0:0:0:
208,304,103610,2,0,L|320:304,1,85,8|8,0:0|0:0,0:0:0:0:
80,272,103829,6,0,L|64:208,2,42.5,2|0|2,0:0|0:0|0:0,0:0:0:0:
256,304,104047,2,0,L|304:304,1,42.5,8|0,0:0|0:0,0:0:0:0:
176,272,104156,1,2,0:0:0:0:
352,272,104265,2,0,L|384:240,1,42.5,8|8,0:0|0:0,0:0:0:0:
256,224,104374,1,8,0:0:0:0:
432,208,104483,1,2,0:0:0:0:
480,192,104537,1,0,0:0:0:0:
480,160,104592,1,2,0:0:0:0:
432,144,104646,1,0,0:0:0:0:
256,176,104701,6,0,L|176:176,1,42.5,8|0,0:0|0:0,0:0:0:0:
256,128,104810,2,0,L|320:128,1,42.5,8|0,0:0|0:0,0:0:0:0:
160,320,104919,2,0,L|96:320,1,42.5,8|0,0:0|0:0,0:0:0:0:
256,304,105029,1,8,0:0:0:0:
176,272,105138,6,0,L|112:272,1,42.5,8|8,0:0|0:0,0:0:0:0:
256,192,105247,2,0,L|304:192,1,42.5,8|8,0:0|0:0,0:0:0:0:
256,192,105356,2,0,L|192:192,1,42.5,8|8,0:0|0:0,0:0:0:0:
336,272,105465,2,0,L|384:272,1,42.5,8|8,0:0|0:0,0:0:0:0:
176,336,105574,6,0,L|96:336,2,56.6666666666667,2|0|0,0:0|0:0|0:0,0:0:0:0:
336,320,105792,1,6,0:0:0:0:
192,272,105865,2,0,L|96:272,1,56.6666666666667
336,336,106010,6,0,L|416:336,2,56.6666666666667,6|0|0,0:0|0:0|0:0,0:0:0:0:
176,320,106228,1,2,0:0:0:0:
320,272,106301,2,0,L|224:272,1,56.6666666666667
32,272,106447,6,0,L|16:208,2,56.6666666666667,2|0|0,0:0|0:0|0:0,0:0:0:0:
176,192,106665,2,0,L|264:192,2,56.6666666666667,2|0|0,0:0|0:0|0:0,0:0:0:0:
480,272,106883,2,0,L|496:208,2,56.6666666666667,6|0|0,0:0|0:0|0:0,0:0:0:0:
336,192,107101,2,0,L|248:192,2,56.6666666666667,2|2|2,0:0|0:0|0:0,0:0:0:0:
144,336,107319,5,2,0:0:0:0:
288,288,107392,2,0,L|208:288,1,56.6666666666667
64,288,107538,1,2,0:0:0:0:
208,224,107610,2,0,L|288:224,1,56.6666666666667
432,208,107756,6,0,L|352:208,1,56.6666666666667,6|0,0:0|0:0,0:0:0:0:
224,176,107901,2,0,L|160:176,1,56.6666666666667,0|2,0:0|0:0,0:0:0:0:
352,128,108047,2,0,L|288:128,1,56.6666666666667
160,304,108192,6,0,L|112:304,1,42.5,2|2,0:0|0:0,0:0:0:0:
256,224,108301,2,0,L|336:224,1,42.5,2|2,0:0|0:0,0:0:0:0:
256,208,108410,2,0,L|208:208,1,42.5,2|2,0:0|0:0,0:0:0:0:
352,128,108519,2,0,L|432:128,1,42.5,2|2,0:0|0:0,0:0:0:0:
240,272,108629,1,2,0:0:0:0:
296,272,108701,1,2,0:0:0:0:
356,272,108774,1,2,0:0:0:0:
192,224,108847,2,0,P|151:190|208:160,1,127.5,2|0,0:0|2:0,0:0:0:0:
400,272,109065,6,0,L|416:352,3,42.5,6|0|0|0,0:0|0:0|0:0|0:0,0:0:0:0:
336,320,109283,2,0,L|320:400,3,42.5,2|0|0|0,0:0|0:0|0:0|0:0,0:0:0:0:
112,272,109501,2,0,L|96:352,3,42.5,10|0|0|0,0:0|0:0|0:0|0:0,0:0:0:0:
176,320,109719,2,0,L|192:400,3,42.5,2|0|0|0,0:0|0:0|0:0|0:0,0:0:0:0:
400,160,109938,6,0,L|416:240,3,42.5,2|0|0|0,0:0|0:0|0:0|0:0,0:0:0:0:
256,256,110156,2,0,L|192:256,1,42.5,2|0,0:0|0:0,0:0:0:0:
256,192,110265,2,0,L|304:192,1,42.5
112,160,110374,6,0,L|96:240,3,42.5,10|0|8|0,0:0|0:0|0:0|0:0,0:0:0:0:
304,256,110592,2,0,L|368:256,1,42.5,2|0,0:0|0:0,0:0:0:0:
208,256,110701,2,0,L|160:256,1,42.5,2|0,0:0|0:0,0:0:0:0:
352,336,110810,6,0,L|416:336,1,48.8750009322167,2|2,0:0|0:0,0:0:0:0:
272,304,110919,2,0,L|224:304,1,48.8750009322167,2|2,0:0|0:0,0:0:0:0:
280,272,111029,2,0,L|344:272,1,48.8750009322167,2|2,0:0|0:0,0:0:0:0:
200,240,111138,2,0,L|152:240,1,48.8750009322167,2|2,0:0|0:0,0:0:0:0:
344,224,111247,2,0,L|408:224,1,48.8750009322167,2|2,0:0|0:0,0:0:0:0:
264,192,111356,2,0,L|216:192,1,48.8750009322167,2|2,0:0|0:0,0:0:0:0:
376,184,111465,6,0,P|423:130|357:105,1,146.62500279665,2|0,0:0|0:0,0:0:0:0:
160,336,111683,2,0,L|96:336,1,48.8750009322167,2|2,0:0|0:0,0:0:0:0:
240,304,111792,2,0,L|288:304,1,48.8750009322167,2|2,0:0|0:0,0:0:0:0:
232,272,111902,2,0,L|168:272,1,48.8750009322167,2|2,0:0|0:0,0:0:0:0:
312,240,112011,2,0,L|360:240,1,48.8750009322167,2|2,0:0|0:0,0:0:0:0:
168,224,112120,2,0,L|104:224,1,48.8750009322167,2|2,0:0|0:0,0:0:0:0:
248,192,112229,2,0,L|296:192,1,48.8750009322167,2|2,0:0|0:0,0:0:0:0:
144,192,112338,1,2,0:0:0:0:
192,160,112392,1,0,0:0:0:0:
240,128,112447,1,0,0:0:0:0:
288,96,112501,1,0,0:0:0:0:
73,353,112556,6,0,P|38:312|170:105,1,340,6|2,0:0|0:0,0:0:0:0:
199,126,113501,1,0,0:0:0:0:
227,153,113573,1,0,0:0:0:0:
246,188,113646,1,0,0:0:0:0:
254,227,113719,1,0,0:0:0:0:
250,266,113791,1,0,0:0:0:0:
235,302,113864,1,2,0:0:0:0:
210,333,113937,1,0,0:0:0:0:
177,355,114010,1,0,0:0:0:0:
139,366,114082,1,0,0:0:0:0:
99,366,114155,1,0,0:0:0:0:
62,354,114228,1,0,0:0:0:0:
368,336,114301,6,0,L|432:336,1,42.5,2|2,0:0|0:0,0:0:0:0:
144,336,114410,2,0,L|80:336,1,42.5,2|2,0:0|0:0,0:0:0:0:
256,288,114519,2,0,L|304:288,1,42.5,2|2,0:0|0:0,0:0:0:0:
256,288,114629,2,0,L|208:288,1,42.5,2|2,0:0|0:0,0:0:0:0:
352,256,114738,6,0,L|416:256,1,42.5,2|2,0:0|0:0,0:0:0:0:
160,256,114847,2,0,L|96:256,1,42.5,2|2,0:0|0:0,0:0:0:0:
256,208,114956,2,0,L|304:208,1,42.5,2|2,0:0|0:0,0:0:0:0:
256,208,115066,2,0,L|208:208,1,42.5,2|2,0:0|0:0,0:0:0:0:
400,192,115174,6,0,L|464:192,1,42.5,2|2,0:0|0:0,0:0:0:0:
276,128,115283,2,0,L|228:128,1,42.5,2|2,0:0|0:0,0:0:0:0:
112,192,115393,2,0,L|48:192,1,42.5,2|2,0:0|0:0,0:0:0:0:
236,128,115502,2,0,L|284:128,1,42.5,2|2,0:0|0:0,0:0:0:0:
144,144,115610,1,2,0:0:0:0:
368,144,115719,1,2,0:0:0:0:
144,128,115829,1,2,0:0:0:0:
368,128,115938,1,2,0:0:0:0:
