osu file format v14

[General]
AudioFilename: audio.mp3
AudioLeadIn: 0
PreviewTime: 66954
Countdown: 0
SampleSet: Soft
StackLeniency: 0.2
Mode: 2
LetterboxInBreaks: 0
WidescreenStoryboard: 1

[Editor]
DistanceSpacing: 1
BeatDivisor: 4
GridSize: 16
TimelineZoom: 2.399999

[Metadata]
Title:MixxioN
TitleUnicode:MixxioN
Artist:MisoilePunch
ArtistUnicode:MisoilePunch♪
Creator:fayew
Version:BASIC
Source:SOUND VOLTEX EXCEED GEAR
Tags:skill issue lol stardust prism -rustyy -joakh hareimu kukkai verti 4rcher- archer mochi mochi_- misomyl みそみぃる ponchi grace グレイス HEXA DIVER アザレアの使命篇 Azalea no Shimei-hen The 10th KAC オリジナル楽曲コンテスト Original Song Contest 最優秀賞 Saiyuushuu-shou Grand Prize SDVX Konami Bemani Video Game Electronic Rock Instrumental mission
BeatmapID:4436740
BeatmapSetID:1831275

[Difficulty]
HPDrainRate:3
CircleSize:2.5
OverallDifficulty:6
ApproachRate:6
SliderMultiplier:0.789999999999999
SliderTickRate:0.5

[Events]
//Background and Video events
0,0,"bg.jpg",0,0
//Break Periods
2,34210,38197
//Storyboard Layer 0 (Background)
//Storyboard Layer 1 (Fail)
//Storyboard Layer 2 (Pass)
//Storyboard Layer 3 (Foreground)
//Storyboard Layer 4 (Overlay)
//Storyboard Sound Samples

[TimingPoints]
1720,218.181818181818,4,2,0,25,1,0
2592,-100,4,2,3,25,0,0
3464,-100,4,2,4,25,0,0
8701,-100,4,2,8,65,0,0
18229,-100,4,2,3,65,0,0
18301,-100,4,2,3,65,0,0
18738,-100,4,1,3,65,0,0
19829,-100,4,2,3,65,0,0
20047,-100,4,2,8,65,0,0
20919,-100,4,2,4,65,0,0
20974,-100,4,2,8,65,0,0
22665,-100,4,2,4,65,0,0
22719,-100,4,2,8,65,0,0
24410,-100,4,2,4,65,0,0
24465,-100,4,2,8,65,0,0
26156,-100,4,2,4,65,0,0
26210,-100,4,2,8,65,0,0
34229,-100,4,2,4,40,0,0
38810,-100,4,2,5,50,0,0
39574,-100,4,2,6,50,0,0
39901,-100,4,2,3,60,0,0
40119,-100,4,2,4,65,0,0
40556,-100,4,2,8,65,0,0
47210,-100,4,2,9,65,0,0
47483,-100,4,2,7,65,0,0
47538,-100,4,2,7,65,0,0
47974,-100,4,1,3,60,0,0
54083,-100,4,2,8,70,0,0
61938,-100,4,1,3,70,0,0
63683,-100,4,2,8,70,0,0
64119,-100,4,2,4,40,0,0
64522,-100,4,2,4,5,0,0
64556,-100,4,2,4,40,0,0
66410,-100,4,2,5,50,0,0
67392,-100,4,2,8,80,0,1
73938,-100,4,2,3,80,0,0
74156,-100,4,2,8,80,0,1
81029,-100,4,2,8,80,0,0
81356,-100,4,2,8,80,0,1
93356,-100,4,2,4,60,0,0
94447,-100,4,2,8,60,0,0
95101,-100,4,1,3,80,0,1
96847,-100,4,1,3,80,0,0
97228,-100,4,1,3,5,0,0
97283,-100,4,2,10,80,0,0
97664,-100,4,2,10,5,0,0
97719,-100,4,2,7,80,0,0
98374,-100,4,2,8,50,0,0
98592,-100,4,2,8,75,0,0
99465,-100,4,2,4,75,0,0
99574,-100,4,2,8,75,0,0
101210,-100,4,2,4,75,0,0
101319,-100,4,2,8,75,0,0
102956,-100,4,2,4,75,0,0
103065,-100,4,2,8,75,0,0
105574,-100,4,2,4,75,0,0
105792,-100,4,1,3,75,0,0
109065,-100,4,2,8,75,0,0
113428,-100,4,2,5,75,0,0
113865,-100,4,2,7,75,0,0
114301,-100,4,1,3,75,0,0
116047,-100,4,2,9,55,0,0

[Colours]
Combo1 : 255,0,128
Combo2 : 255,255,0
Combo3 : 128,0,255
Combo4 : 0,172,255

[HitObjects]
255,319,1720,6,0,L|144:208,1,158,2|2,0:0|0:0,0:0:0:0:
256,320,2592,6,0,P|364:224|256:176,1,316,2|8,0:0|0:0,0:0:0:0:
160,176,3901,1,0,0:0:0:0:
255,176,4338,6,0,P|367:247|256:320,1,316,0|8,0:0|0:0,0:0:0:0:
160,312,5647,1,0,0:0:0:0:
320,343,6083,6,0,P|320:291|106:174,1,316,0|8,0:0|0:0,0:0:0:0:
248,212,7392,1,0,0:0:0:0:
256,192,7829,12,0,8265,0:0:0:0:
205,352,8701,6,0,L|95:354,1,78.9999999999999,2|8,0:0|0:0,0:0:0:0:
205,352,9138,2,0,L|222:297,3,39.5,8|8|2|8,0:0|0:0|0:0|0:0,0:0:0:0:
359,297,9792,6,0,P|384:250|296:189,1,158,12|8,0:0|0:0,0:0:0:0:
280,194,10338,2,0,P|241:150|288:107,1,118.5,2|8,0:0|0:0,0:0:0:0:
346,102,10883,2,0,L|446:103,1,78.9999999999999,8|8,0:0|0:0,0:0:0:0:
330,219,11319,6,0,L|249:232,1,78.9999999999999,2|8,0:0|0:0,0:0:0:0:
292,252,11647,2,0,L|389:272,1,78.9999999999999,2|2,0:0|0:0,0:0:0:0:
448,288,12083,2,0,P|477:258|425:201,1,118.5,6|8,0:0|0:0,0:0:0:0:
364,221,12629,5,8,0:0:0:0:
325,221,12738,1,8,0:0:0:0:
364,221,12847,1,2,0:0:0:0:
269,287,13065,6,0,L|134:288,1,118.5,8|2,0:0|0:0,0:0:0:0:
229,317,13610,1,8,0:0:0:0:
308,304,13829,2,0,P|328:270|208:177,1,197.5,6|8,0:0|0:0,0:0:0:0:
204,170,14483,1,8,0:0:0:0:
299,195,14701,6,0,P|343:221|352:285,1,118.5,12|8,0:0|0:0,0:0:0:0:
323,311,15247,1,8,0:0:0:0:
281,316,15356,1,2,0:0:0:0:
376,348,15574,6,0,P|377:304|290:220,1,158,8|8,0:0|0:0,0:0:0:0:
225,225,16229,2,0,L|165:227,1,39.5,8|8,0:0|0:0,0:0:0:0:
263,328,16556,6,0,P|317:276|229:201,1,210.666666666666,6|2,0:0|0:0,0:0:0:0:
133,209,17429,2,0,L|12:216,2,105.333333333333,6|2|2,0:0|0:0|0:0,0:0:0:0:
238,118,18301,5,2,0:0:0:0:
336,112,18738,2,0,P|404:276|235:320,1,394.999999999999,2|2,0:0|0:0,0:0:0:0:
134,307,20047,6,0,L|267:297,2,118.5,12|8|8,0:0|0:0|0:0,0:0:0:0:
292,372,21138,2,0,L|381:379,2,78.9999999999999,8|8|8,0:0|0:0|0:0,0:0:0:0:
212,307,21792,6,0,L|81:296,2,118.5,10|8|8,0:0|0:0|0:0,0:0:0:0:
371,273,22883,2,0,L|460:266,2,78.9999999999999,8|8|8,0:0|0:0|0:0,0:0:0:0:
276,283,23538,6,0,P|218:244|207:196,2,118.5,12|8|8,0:0|0:0|0:0,0:0:0:0:
435,320,24629,2,0,L|452:233,1,78.9999999999999,8|8,0:0|0:0,0:0:0:0:
371,192,25065,1,10,0:0:0:0:
277,184,25283,6,0,P|219:145|208:97,2,118.5,2|8|8,0:0|0:0|0:0,0:0:0:0:
158,235,26265,2,0,L|146:187,1,39.5,8|8,0:0|0:0,0:0:0:0:
267,257,26701,6,0,L|317:262,1,39.5,8|8,0:0|0:0,0:0:0:0:
306,260,26919,2,0,L|267:257,1,39.5,8|0,0:0|0:0,0:0:0:0:
187,327,27247,6,0,L|106:346,1,78.9999999999999,12|2,0:0|0:0,0:0:0:0:
187,327,27683,2,0,L|243:330,1,39.5,8|0,0:0|0:0,0:0:0:0:
187,327,27901,6,0,P|136:299|188:242,1,158,2|2,0:0|0:0,0:0:0:0:
267,243,28556,1,8,0:0:0:0:
362,240,28774,6,0,L|375:155,1,78.9999999999999,2|8,0:0|0:0,0:0:0:0:
295,138,29210,1,2,0:0:0:0:
235,132,29375,1,0,0:0:0:0:
176,127,29539,1,0,0:0:0:0:
226,122,29647,6,0,P|221:216|169:243,1,158,8|0,0:0|0:0,0:0:0:0:
113,241,30301,1,8,0:0:0:0:
208,303,30519,6,0,L|237:59,1,237,2|8,0:0|0:0,0:0:0:0:
315,57,31392,2,0,P|379:98|297:192,1,237,8|8,0:0|0:0,0:0:0:0:
201,182,32265,6,0,L|82:169,2,118.5,10|10|10,0:0|0:0|0:0,0:0:0:0:
356,304,33356,2,0,L|400:234,2,78.9999999999999,10|8|2,0:0|0:0|0:0,0:0:0:0:
269,338,34010,5,6,0:0:0:0:
256,192,39247,12,8,40556,0:0:0:0:
153,332,40992,6,0,P|119:290|190:230,1,158,14|8,0:0|0:0,0:0:0:0:
299,228,41756,2,0,L|91:206,1,197.5,8|8,0:0|0:0,0:0:0:0:
183,185,42519,1,8,0:0:0:0:
265,157,42738,6,0,P|314:189|264:253,1,158,8|8,0:0|0:0,0:0:0:0:
186,253,43610,2,0,L|271:252,1,78.9999999999999,8|8,0:0|0:0,0:0:0:0:
264,252,44047,2,0,L|179:251,1,78.9999999999999,8|8,0:0|0:0,0:0:0:0:
90,254,44483,6,0,P|70:228|208:48,1,316,6|0,0:0|0:0,0:0:0:0:
271,91,45574,1,2,0:0:0:0:
304,159,45792,1,8,0:0:0:0:
271,228,46010,1,8,0:0:0:0:
174,269,46229,6,0,L|47:284,2,118.5,2|2|2,0:0|0:0|0:0,0:0:0:0:
256,192,47210,12,0,47647,0:0:0:0:
276,316,47974,6,0,P|297:237|171:153,1,237,6|2,0:0|0:0,0:0:0:0:
268,161,48847,2,0,L|398:171,2,118.5,2|2|2,0:0|0:0|0:0,0:0:0:0:
165,163,49719,6,0,P|116:228|229:303,1,237,6|2,0:0|0:0,0:0:0:0:
298,274,50592,2,0,L|421:275,2,118.5,2|2|2,0:0|0:0|0:0,0:0:0:0:
192,295,51465,6,0,P|171:216|297:132,1,237,6|2,0:0|0:0,0:0:0:0:
198,136,52338,2,0,L|68:146,2,118.5,2|2|2,0:0|0:0|0:0,0:0:0:0:
304,140,53210,6,0,P|353:205|294:236,1,158,6|2,0:0|0:0,0:0:0:0:
225,240,53864,1,2,0:0:0:0:
305,237,54083,1,6,0:0:0:0:
305,237,54956,6,0,P|374:196|295:96,1,237,6|2,0:0|0:0,0:0:0:0:
261,96,55719,1,2,0:0:0:0:
222,97,55828,2,0,P|153:138|232:238,1,237,2|2,0:0|0:0,0:0:0:0:
266,238,56592,1,2,0:0:0:0:
303,238,56701,6,0,P|306:191|210:143,1,158,2|2,0:0|0:0,0:0:0:0:
138,175,57356,1,2,0:0:0:0:
235,187,57574,6,0,P|295:100|183:68,1,237,2|2,0:0|0:0,0:0:0:0:
313,202,58447,6,0,L|306:369,1,158,6|2,0:0|0:0,0:0:0:0:
227,366,59101,1,2,0:0:0:0:
306,359,59319,5,2,0:0:0:0:
384,365,59538,1,2,0:0:0:0:
419,343,59755,1,2,0:0:0:0:
385,318,59974,1,10,0:0:0:0:
284,289,60192,6,0,P|248:256|350:155,1,237,6|10,0:0|0:0,0:0:0:0:
266,172,61065,2,0,P|229:150|279:108,1,118.5,2|2,0:0|0:0,0:0:0:0:
345,107,61610,2,0,L|388:107,1,39.5,2|2,0:0|0:0,0:0:0:0:
282,106,61938,6,0,P|213:208|289:234,1,237,2|2,0:0|0:0,0:0:0:0:
362,229,62810,2,0,L|349:140,1,78.9999999999999,2|2,0:0|0:0,0:0:0:0:
271,130,63247,2,0,L|258:41,1,78.9999999999999,2|2,0:0|0:0,0:0:0:0:
189,40,63683,5,6,0:0:0:0:
256,192,64556,12,0,66738,0:0:0:0:
374,317,67065,6,0,P|404:284|360:236,1,118.5,0|12,0:0|0:0,0:0:0:0:
280,233,67610,2,0,L|241:234,1,39.5,2|2,0:0|0:0,0:0:0:0:
162,200,67938,6,0,L|304:210,1,118.5,2|8,0:0|0:0,0:0:0:0:
200,273,68483,2,0,L|134:276,1,39.5,2|2,0:0|0:0,0:0:0:0:
254,337,68810,6,0,L|277:195,1,118.5,2|8,0:0|0:0,0:0:0:0:
352,180,69356,2,0,L|362:134,1,39.5,2|2,0:0|0:0,0:0:0:0:
266,119,69683,6,0,L|135:116,1,118.5,2|8,0:0|0:0,0:0:0:0:
227,171,70229,2,0,L|254:128,2,39.5,8|8|8,0:0|0:0|0:0,0:0:0:0:
176,182,70556,6,0,P|129:255|207:313,1,197.5,6|2,0:0|0:0,0:0:0:0:
281,299,71319,1,8,0:0:0:0:
330,289,71429,6,0,L|336:163,1,118.5,2|8,0:0|0:0,0:0:0:0:
255,164,71974,2,0,L|250:70,1,78.9999999999999,8|2,0:0|0:0,0:0:0:0:
156,76,72410,6,0,P|112:150|165:168,1,158,2|8,0:0|0:0,0:0:0:0:
232,168,73065,1,8,0:0:0:0:
311,165,73283,2,0,L|321:77,1,78.9999999999999,2|8,0:0|0:0,0:0:0:0:
242,70,73719,1,8,0:0:0:0:
330,180,73938,1,2,0:0:0:0:
432,300,74156,6,0,P|451:229|381:181,1,158,6|0,0:0|0:0,0:0:0:0:
272,262,74919,2,0,L|407:257,1,118.5,2|8,0:0|0:0,0:0:0:0:
408,200,75465,1,2,0:0:0:0:
202,309,75901,5,2,0:0:0:0:
321,249,76229,2,0,L|423:238,2,78.9999999999999,2|2|6,0:0|0:0|0:0,0:0:0:0:
201,327,76992,6,0,L|190:231,1,78.9999999999999,8|8,0:0|0:0,0:0:0:0:
271,209,77429,1,8,0:0:0:0:
168,209,77647,6,0,P|136:154|179:116,1,118.5,2|8,0:0|0:0,0:0:0:0:
234,106,78192,1,8,0:0:0:0:
304,136,78410,2,0,L|148:122,1,118.5,6|8,0:0|0:0,0:0:0:0:
107,113,78956,2,0,L|109:203,1,78.9999999999999,8|8,0:0|0:0,0:0:0:0:
211,238,79392,6,0,L|355:228,2,118.5,8|8|8,0:0|0:0|0:0,0:0:0:0:
329,229,80374,2,0,P|366:175|241:76,1,237,8|8,0:0|0:0,0:0:0:0:
102,72,81356,6,0,P|64:140|122:175,1,158,12|8,0:0|0:0,0:0:0:0:
198,178,82010,2,0,P|251:232|186:258,1,158,2|2,0:0|0:0,0:0:0:0:
64,322,82774,6,0,L|287:308,1,197.5,2|2,0:0|0:0,0:0:0:0:
142,300,83647,2,0,P|146:229|261:160,1,197.5,2|8,0:0|0:0,0:0:0:0:
260,140,84301,1,8,0:0:0:0:
242,159,84410,1,8,0:0:0:0:
194,164,84519,6,0,P|159:137|239:40,1,197.5,6|0,0:0|0:0,0:0:0:0:
344,176,85392,2,0,L|192:165,1,118.5,2|8,0:0|0:0,0:0:0:0:
225,167,85938,2,0,L|330:156,1,78.9999999999999,8|8,0:0|0:0,0:0:0:0:
406,145,86374,6,0,P|431:176|380:271,1,158,8|8,0:0|0:0,0:0:0:0:
306,286,87029,1,2,0:0:0:0:
227,308,87247,6,0,L|204:226,2,78.9999999999999,2|2|2,0:0|0:0|0:0,0:0:0:0:
285,333,87901,1,8,0:0:0:0:
475,347,88338,6,0,P|461:285|365:224,1,158,12|8,0:0|0:0,0:0:0:0:
350,227,88883,2,0,P|337:201|406:147,1,118.5,2|8,0:0|0:0,0:0:0:0:
495,177,89429,2,0,L|482:75,1,78.9999999999999,8|8,0:0|0:0,0:0:0:0:
302,99,90010,6,0,P|227:177|308:219,1,210.666666666666,6|6,0:0|0:0,0:0:0:0:
339,226,90738,2,0,P|390:173|331:130,1,158,6|8,0:0|0:0,0:0:0:0:
134,273,91610,6,0,L|261:276,2,118.5,8|8|8,0:0|0:0|0:0,0:0:0:0:
252,275,92592,2,0,L|274:122,1,118.5,8|8,0:0|0:0,0:0:0:0:
188,123,93138,1,8,0:0:0:0:
256,192,93574,12,8,94447,0:0:0:0:
139,336,95101,6,0,P|141:254|288:171,1,237,6|2,0:0|0:0,0:0:0:0:
337,170,95974,2,0,P|419:108|331:44,1,237,6|2,0:0|0:0,0:0:0:0:
236,67,96847,6,0,P|165:118|272:285,1,316,6|2,0:0|0:0,0:0:0:0:
369,289,98374,1,2,0:0:0:0:
257,344,98592,6,0,L|168:342,2,78.9999999999999,6|8|2,0:0|0:0|0:0,0:0:0:0:
336,344,99247,2,0,P|388:295|317:246,1,158,8|8,0:0|0:0,0:0:0:0:
260,243,99901,2,0,L|245:140,1,78.9999999999999,2|8,0:0|0:0,0:0:0:0:
344,184,100338,6,0,L|433:182,2,78.9999999999999,2|8|2,0:0|0:0|0:0,0:0:0:0:
265,184,100993,2,0,P|213:135|284:86,1,158,8|8,0:0|0:0,0:0:0:0:
341,83,101647,2,0,L|356:-20,1,78.9999999999999,2|8,0:0|0:0,0:0:0:0:
258,35,102083,6,0,L|154:34,1,78.9999999999999,6|8,0:0|0:0,0:0:0:0:
179,34,102519,2,0,L|283:33,1,78.9999999999999,2|8,0:0|0:0,0:0:0:0:
337,91,102956,2,0,P|391:88|426:21,2,118.5,8|2|8,0:0|0:0|0:0,0:0:0:0:
242,83,103829,6,0,P|207:174|247:183,1,158,2|8,0:0|0:0,0:0:0:0:
312,189,104483,2,0,L|340:104,2,78.9999999999999,2|8|8,0:0|0:0|0:0,0:0:0:0:
231,183,105138,2,0,P|192:247|236:242,1,158,8|2,0:0|0:0,0:0:0:0:
330,247,105792,6,0,L|171:222,1,158,6|2,0:0|0:0,0:0:0:0:
253,221,106447,1,2,0:0:0:0:
332,113,106665,2,0,P|380:163|322:218,1,158,2|2,0:0|0:0,0:0:0:0:
253,237,107319,5,2,0:0:0:0:
166,338,107538,1,2,0:0:0:0:
180,262,107756,1,6,0:0:0:0:
243,219,107974,1,2,0:0:0:0:
346,202,108192,5,2,0:0:0:0:
350,130,108410,1,2,0:0:0:0:
263,109,108628,1,2,0:0:0:0:
263,109,108846,1,2,0:0:0:0:
160,144,109065,6,0,P|122:228|171:271,1,158,6|10,0:0|0:0,0:0:0:0:
318,139,109938,2,0,P|356:223|307:266,1,158,2|10,0:0|0:0,0:0:0:0:
159,342,110810,6,0,P|152:298|292:192,1,237,2|2,0:0|0:0,0:0:0:0:
189,224,111683,2,0,P|182:180|322:74,1,237,2|2,0:0|0:0,0:0:0:0:
408,94,112556,5,6,0:0:0:0:
256,192,112992,12,2,113865,0:0:0:0:
195,365,114301,6,0,P|135:322|212:204,1,237,2|2,0:0|0:0,0:0:0:0:
297,198,115174,2,0,L|306:112,1,78.9999999999999,2|2,0:0|0:0,0:0:0:0:
401,100,115610,5,2,0:0:0:0:
438,133,115719,1,2,0:0:0:0:
431,183,115828,1,2,0:0:0:0:
386,205,115937,1,2,0:0:0:0:
