osu file format v14

[General]
AudioFilename: audio.mp3
AudioLeadIn: 0
PreviewTime: 66954
Countdown: 0
SampleSet: Normal
StackLeniency: 0.7
Mode: 3
LetterboxInBreaks: 0
SpecialStyle: 0
WidescreenStoryboard: 1

[Editor]
DistanceSpacing: 1
BeatDivisor: 4
GridSize: 32
TimelineZoom: 1.9

[Metadata]
Title:MixxioN
TitleUnicode:MixxioN
Artist:MisoilePunch
ArtistUnicode:MisoilePunch♪
Creator:Aruel
Version:NOVICE
Source:SOUND VOLTEX EXCEED GEAR
Tags:misomyl みそみぃる ponchi grace グレイス HEXA DIVER アザレアの使命篇 Azalea no Shimei-hen The 10th KAC オリジナル楽曲コンテスト Original Song Contest 最優秀賞 Saiyuushuu-shou Grand Prize SDVX Konami Bemani Video Game Electronic Rock Instrumental
BeatmapID:3511776
BeatmapSetID:1717598

[Difficulty]
HPDrainRate:6.5
CircleSize:4
OverallDifficulty:6.5
ApproachRate:5
SliderMultiplier:1.4
SliderTickRate:1

[Events]
//Background and Video events
0,0,"bg.jpg",0,0
//Break Periods
//Storyboard Layer 0 (Background)
//Storyboard Layer 1 (Fail)
//Storyboard Layer 2 (Pass)
//Storyboard Layer 3 (Foreground)
//Storyboard Layer 4 (Overlay)
//Storyboard Sound Samples

[TimingPoints]
1718,218.181818181818,4,1,1,25,1,0
8808,-100,4,1,1,50,0,0
34008,-100,4,1,1,30,0,0
40990,-100,4,1,1,50,0,0
67390,-100,4,1,1,50,0,1
81027,-100,4,1,1,50,0,0
81354,-100,4,1,1,50,0,1
93354,-100,4,1,1,30,0,0
95099,-100,4,1,1,50,0,0
105790,-100,4,1,1,50,0,1
109063,-100,4,1,1,50,0,0

[HitObjects]
192,192,1717,5,0,0:0:0:0:
448,192,2154,1,0,0:0:0:0:
64,192,2590,1,0,0:0:0:0:
192,192,3463,1,0,0:0:0:0:
448,192,3899,1,0,0:0:0:0:
64,192,4336,1,0,0:0:0:0:
448,192,5208,1,0,0:0:0:0:
192,192,5645,1,0,0:0:0:0:
64,192,6081,1,0,0:0:0:0:
192,192,6517,1,0,0:0:0:0:
320,192,6954,1,0,0:0:0:0:
448,192,7390,1,0,0:0:0:0:
192,192,7827,1,0,0:0:0:0:
448,192,8699,1,0,0:0:0:0:
320,192,9136,128,0,9572:0:0:0:0:
64,192,9790,1,0,0:0:0:0:
448,192,9790,1,0,0:0:0:0:
320,192,10008,1,0,0:0:0:0:
64,192,10336,128,0,10554:0:0:0:0:
448,192,10663,1,0,0:0:0:0:
320,192,10881,1,0,0:0:0:0:
192,192,11099,1,0,0:0:0:0:
448,192,11317,128,0,11536:0:0:0:0:
64,192,11536,1,0,0:0:0:0:
320,192,11863,1,0,0:0:0:0:
192,192,12081,128,0,12627:0:0:0:0:
448,192,12627,1,0,0:0:0:0:
64,192,12845,1,0,0:0:0:0:
320,192,13063,128,0,13390:0:0:0:0:
192,192,13390,1,0,0:0:0:0:
448,192,13608,1,0,0:0:0:0:
64,192,13827,128,0,14154:0:0:0:0:
448,192,14154,128,0,14372:0:0:0:0:
192,192,14481,128,0,14699:0:0:0:0:
320,192,14699,128,0,16554:0:0:0:0:
192,192,16554,1,0,0:0:0:0:
192,192,16990,1,0,0:0:0:0:
320,192,17427,1,0,0:0:0:0:
320,192,17863,1,0,0:0:0:0:
64,192,18736,1,0,0:0:0:0:
448,192,18954,1,0,0:0:0:0:
64,192,19172,1,0,0:0:0:0:
448,192,19390,1,0,0:0:0:0:
64,192,19608,1,0,0:0:0:0:
448,192,19827,1,0,0:0:0:0:
192,192,20045,1,0,0:0:0:0:
64,192,20045,1,0,0:0:0:0:
192,192,20372,1,0,0:0:0:0:
320,192,20699,1,0,0:0:0:0:
320,192,21027,1,0,0:0:0:0:
64,192,21354,1,0,0:0:0:0:
448,192,21572,1,0,0:0:0:0:
192,192,21790,1,0,0:0:0:0:
192,192,22117,1,0,0:0:0:0:
320,192,22445,1,0,0:0:0:0:
320,192,22772,1,0,0:0:0:0:
64,192,23099,1,0,0:0:0:0:
448,192,23317,1,0,0:0:0:0:
320,192,23536,1,0,0:0:0:0:
320,192,23863,1,0,0:0:0:0:
192,192,24190,1,0,0:0:0:0:
192,192,24517,1,0,0:0:0:0:
448,192,24845,1,0,0:0:0:0:
64,192,25063,1,0,0:0:0:0:
320,192,25281,1,0,0:0:0:0:
320,192,25608,1,0,0:0:0:0:
192,192,25936,1,0,0:0:0:0:
192,192,26263,1,0,0:0:0:0:
448,192,26590,128,0,27027:0:0:0:0:
64,192,27027,1,0,0:0:0:0:
192,192,27245,1,0,0:0:0:0:
448,192,27245,1,0,0:0:0:0:
64,192,27681,1,0,0:0:0:0:
448,192,27899,1,0,0:0:0:0:
320,192,28063,1,0,0:0:0:0:
192,192,28227,1,0,0:0:0:0:
448,192,28445,128,0,28772:0:0:0:0:
64,192,28772,1,0,0:0:0:0:
320,192,29208,1,0,0:0:0:0:
192,192,29645,1,0,0:0:0:0:
320,192,30081,1,0,0:0:0:0:
192,192,30245,1,0,0:0:0:0:
64,192,30408,1,0,0:0:0:0:
448,192,30517,1,0,0:0:0:0:
192,192,30954,1,0,0:0:0:0:
320,192,31117,1,0,0:0:0:0:
448,192,31281,1,0,0:0:0:0:
64,192,31390,1,0,0:0:0:0:
320,192,31827,1,0,0:0:0:0:
192,192,32045,1,0,0:0:0:0:
64,192,32263,1,0,0:0:0:0:
320,192,32590,1,0,0:0:0:0:
64,192,32917,1,0,0:0:0:0:
448,192,33354,1,0,0:0:0:0:
320,192,33572,1,0,0:0:0:0:
192,192,33790,1,0,0:0:0:0:
64,192,34008,128,0,34881:0:0:0:0:
448,192,34881,1,0,0:0:0:0:
192,192,35754,1,0,0:0:0:0:
320,192,36627,1,0,0:0:0:0:
64,192,37499,1,0,0:0:0:0:
448,192,38372,1,0,0:0:0:0:
64,192,39245,1,0,0:0:0:0:
448,192,39572,1,0,0:0:0:0:
448,192,40554,128,0,40990:0:0:0:0:
320,192,40990,1,0,0:0:0:0:
64,192,40990,1,0,0:0:0:0:
320,192,41427,1,0,0:0:0:0:
448,192,41645,1,0,0:0:0:0:
192,192,41863,1,0,0:0:0:0:
192,192,42299,1,0,0:0:0:0:
64,192,42517,1,0,0:0:0:0:
448,192,42736,1,0,0:0:0:0:
448,192,43172,1,0,0:0:0:0:
192,192,43390,1,0,0:0:0:0:
64,192,43608,1,0,0:0:0:0:
64,192,44045,1,0,0:0:0:0:
320,192,44263,1,0,0:0:0:0:
448,192,44481,128,0,45790:0:0:0:0:
64,192,44808,1,0,0:0:0:0:
192,192,45136,1,0,0:0:0:0:
320,192,45463,1,0,0:0:0:0:
192,192,45790,128,0,46227:0:0:0:0:
320,192,46227,1,0,0:0:0:0:
192,192,46554,1,0,0:0:0:0:
320,192,46881,1,0,0:0:0:0:
448,192,47972,1,0,0:0:0:0:
64,192,47972,1,0,0:0:0:0:
448,192,48408,1,0,0:0:0:0:
64,192,48408,1,0,0:0:0:0:
320,192,48845,128,0,49063:0:0:0:0:
192,192,49172,128,0,49390:0:0:0:0:
320,192,49499,128,0,49717:0:0:0:0:
448,192,49717,1,0,0:0:0:0:
64,192,49717,1,0,0:0:0:0:
448,192,50154,1,0,0:0:0:0:
64,192,50154,1,0,0:0:0:0:
192,192,50590,128,0,50808:0:0:0:0:
320,192,50917,128,0,51136:0:0:0:0:
192,192,51245,128,0,51463:0:0:0:0:
320,192,51463,1,0,0:0:0:0:
64,192,51463,1,0,0:0:0:0:
320,192,51899,1,0,0:0:0:0:
64,192,51899,1,0,0:0:0:0:
448,192,52336,128,0,52554:0:0:0:0:
192,192,52663,128,0,52881:0:0:0:0:
448,192,52990,128,0,53208:0:0:0:0:
192,192,53208,1,0,0:0:0:0:
64,192,53208,1,0,0:0:0:0:
192,192,53645,1,0,0:0:0:0:
64,192,53645,1,0,0:0:0:0:
320,192,54081,1,0,0:0:0:0:
448,192,54081,1,0,0:0:0:0:
64,192,54954,1,0,0:0:0:0:
192,192,55172,1,0,0:0:0:0:
320,192,55390,128,0,55608:0:0:0:0:
64,192,55608,1,0,0:0:0:0:
448,192,55827,1,0,0:0:0:0:
320,192,56045,1,0,0:0:0:0:
192,192,56263,128,0,56481:0:0:0:0:
448,192,56481,1,0,0:0:0:0:
64,192,56699,128,0,56917:0:0:0:0:
192,192,56917,1,0,0:0:0:0:
448,192,57136,128,0,57354:0:0:0:0:
320,192,57354,1,0,0:0:0:0:
192,192,57572,128,0,58008:0:0:0:0:
64,192,58008,128,0,58445:0:0:0:0:
320,192,58445,1,0,0:0:0:0:
448,192,58881,1,0,0:0:0:0:
320,192,59099,1,0,0:0:0:0:
192,192,59317,1,0,0:0:0:0:
64,192,59754,1,0,0:0:0:0:
192,192,59972,1,0,0:0:0:0:
320,192,60190,128,0,61936:0:0:0:0:
64,192,60627,1,0,0:0:0:0:
192,192,61063,1,0,0:0:0:0:
64,192,61499,1,0,0:0:0:0:
192,192,61936,1,0,0:0:0:0:
320,192,62154,1,0,0:0:0:0:
192,192,62372,1,0,0:0:0:0:
320,192,62590,1,0,0:0:0:0:
64,192,62808,1,0,0:0:0:0:
448,192,63027,1,0,0:0:0:0:
64,192,63245,1,0,0:0:0:0:
448,192,63463,1,0,0:0:0:0:
192,192,63681,1,0,0:0:0:0:
320,192,67063,128,0,67390:0:0:0:0:
448,192,67390,1,0,0:0:0:0:
64,192,67390,1,0,0:0:0:0:
320,192,67608,1,0,0:0:0:0:
192,192,67936,128,0,68263:0:0:0:0:
448,192,68263,1,0,0:0:0:0:
192,192,68481,1,0,0:0:0:0:
320,192,68808,128,0,69136:0:0:0:0:
64,192,69136,1,0,0:0:0:0:
320,192,69354,1,0,0:0:0:0:
64,192,69681,128,0,70008:0:0:0:0:
192,192,70008,1,0,0:0:0:0:
192,192,70227,1,0,0:0:0:0:
448,192,70554,128,0,70881:0:0:0:0:
64,192,70881,1,0,0:0:0:0:
64,192,71099,1,0,0:0:0:0:
320,192,71427,128,0,71754:0:0:0:0:
448,192,71754,128,0,71972:0:0:0:0:
192,192,71972,128,0,72190:0:0:0:0:
64,192,72190,128,0,72408:0:0:0:0:
320,192,72408,128,0,72736:0:0:0:0:
64,192,72736,128,0,73499:0:0:0:0:
448,192,73063,1,0,0:0:0:0:
192,192,73499,1,0,0:0:0:0:
320,192,73717,1,0,0:0:0:0:
448,192,73936,1,0,0:0:0:0:
64,192,74154,1,0,0:0:0:0:
192,192,74481,1,0,0:0:0:0:
448,192,74699,1,0,0:0:0:0:
320,192,74917,1,0,0:0:0:0:
64,192,75245,1,0,0:0:0:0:
192,192,75463,1,0,0:0:0:0:
320,192,75681,1,0,0:0:0:0:
64,192,75899,128,0,76117:0:0:0:0:
448,192,76227,128,0,76445:0:0:0:0:
192,192,76663,128,0,76990:0:0:0:0:
64,192,76663,1,0,0:0:0:0:
448,192,76990,128,0,77208:0:0:0:0:
320,192,77208,128,0,77427:0:0:0:0:
64,192,77427,128,0,77645:0:0:0:0:
320,192,77645,128,0,77972:0:0:0:0:
192,192,77972,1,0,0:0:0:0:
320,192,78190,1,0,0:0:0:0:
64,192,78408,1,0,0:0:0:0:
448,192,78408,128,0,78736:0:0:0:0:
320,192,78736,128,0,78954:0:0:0:0:
192,192,78954,128,0,79172:0:0:0:0:
64,192,79172,128,0,79390:0:0:0:0:
320,192,79390,128,0,80699:0:0:0:0:
448,192,79390,1,0,0:0:0:0:
64,192,79717,1,0,0:0:0:0:
64,192,80045,1,0,0:0:0:0:
192,192,80372,1,0,0:0:0:0:
64,192,80699,128,0,81027:0:0:0:0:
448,192,81027,128,0,81354:0:0:0:0:
192,192,81354,1,0,0:0:0:0:
64,192,81354,1,0,0:0:0:0:
192,192,81572,1,0,0:0:0:0:
320,192,81790,1,0,0:0:0:0:
64,192,82008,1,0,0:0:0:0:
320,192,82336,128,0,82554:0:0:0:0:
64,192,82554,1,0,0:0:0:0:
192,192,82772,128,0,82990:0:0:0:0:
448,192,83099,1,0,0:0:0:0:
320,192,83317,1,0,0:0:0:0:
64,192,83645,128,0,83972:0:0:0:0:
192,192,83972,128,0,84190:0:0:0:0:
448,192,84190,128,0,84408:0:0:0:0:
320,192,84517,128,0,84845:0:0:0:0:
192,192,85063,1,0,0:0:0:0:
64,192,85390,128,0,85717:0:0:0:0:
192,192,85717,128,0,85936:0:0:0:0:
448,192,85936,128,0,86154:0:0:0:0:
320,192,86154,128,0,86372:0:0:0:0:
64,192,86372,128,0,86590:0:0:0:0:
448,192,86699,128,0,87245:0:0:0:0:
64,192,87463,128,0,87681:0:0:0:0:
192,192,87681,128,0,87899:0:0:0:0:
448,192,87899,128,0,88117:0:0:0:0:
320,192,88117,128,0,88336:0:0:0:0:
192,192,88336,1,0,0:0:0:0:
64,192,88336,1,0,0:0:0:0:
448,192,88554,1,0,0:0:0:0:
192,192,88881,128,0,89208:0:0:0:0:
64,192,89208,1,0,0:0:0:0:
448,192,89427,1,0,0:0:0:0:
320,192,89645,1,0,0:0:0:0:
192,192,90008,1,0,0:0:0:0:
192,192,90299,1,0,0:0:0:0:
448,192,90736,128,0,91172:0:0:0:0:
64,192,90736,1,0,0:0:0:0:
320,192,91172,128,0,91390:0:0:0:0:
192,192,91390,128,0,91608:0:0:0:0:
64,192,91608,1,0,0:0:0:0:
64,192,91936,1,0,0:0:0:0:
320,192,92263,1,0,0:0:0:0:
320,192,92590,1,0,0:0:0:0:
192,192,92917,1,0,0:0:0:0:
448,192,93136,1,0,0:0:0:0:
64,192,93354,1,0,0:0:0:0:
64,192,94663,128,0,95099:0:0:0:0:
320,192,95099,1,0,0:0:0:0:
320,192,95317,1,0,0:0:0:0:
64,192,95536,1,0,0:0:0:0:
64,192,95754,1,0,0:0:0:0:
448,192,95972,1,0,0:0:0:0:
448,192,96190,1,0,0:0:0:0:
192,192,96408,1,0,0:0:0:0:
192,192,96627,1,0,0:0:0:0:
448,192,96845,1,0,0:0:0:0:
64,192,98590,1,0,0:0:0:0:
192,192,98808,1,0,0:0:0:0:
320,192,99027,1,0,0:0:0:0:
448,192,99463,1,0,0:0:0:0:
320,192,99681,1,0,0:0:0:0:
192,192,99899,1,0,0:0:0:0:
320,192,100117,1,0,0:0:0:0:
64,192,100336,1,0,0:0:0:0:
448,192,100554,1,0,0:0:0:0:
192,192,100772,1,0,0:0:0:0:
448,192,101208,1,0,0:0:0:0:
64,192,101427,1,0,0:0:0:0:
320,192,101645,1,0,0:0:0:0:
64,192,101863,1,0,0:0:0:0:
192,192,102081,1,0,0:0:0:0:
64,192,102299,1,0,0:0:0:0:
448,192,102517,1,0,0:0:0:0:
320,192,102954,1,0,0:0:0:0:
448,192,103172,1,0,0:0:0:0:
64,192,103390,1,0,0:0:0:0:
192,192,103608,1,0,0:0:0:0:
448,192,103827,1,0,0:0:0:0:
448,192,104045,1,0,0:0:0:0:
64,192,104263,1,0,0:0:0:0:
64,192,104481,1,0,0:0:0:0:
192,192,104699,128,0,105136:0:0:0:0:
448,192,104917,1,0,0:0:0:0:
320,192,105136,128,0,105572:0:0:0:0:
64,192,105354,1,0,0:0:0:0:
448,192,105572,128,0,105790:0:0:0:0:
192,192,105790,1,0,0:0:0:0:
64,192,105790,1,0,0:0:0:0:
320,192,106008,128,0,106227:0:0:0:0:
192,192,106445,128,0,106663:0:0:0:0:
320,192,106881,128,0,107099:0:0:0:0:
64,192,107317,128,0,107536:0:0:0:0:
192,192,107754,128,0,107972:0:0:0:0:
448,192,108190,128,0,108408:0:0:0:0:
320,192,108627,128,0,108845:0:0:0:0:
64,192,109063,1,0,0:0:0:0:
448,192,109499,1,0,0:0:0:0:
192,192,109936,1,0,0:0:0:0:
320,192,110154,1,0,0:0:0:0:
64,192,110372,1,0,0:0:0:0:
448,192,110590,1,0,0:0:0:0:
64,192,110808,1,0,0:0:0:0:
64,192,111027,1,0,0:0:0:0:
64,192,111245,1,0,0:0:0:0:
320,192,111463,1,0,0:0:0:0:
448,192,111681,1,0,0:0:0:0:
448,192,111899,1,0,0:0:0:0:
448,192,112117,1,0,0:0:0:0:
192,192,112336,1,0,0:0:0:0:
320,192,112554,1,0,0:0:0:0:
64,192,112554,128,0,114299:0:0:0:0:
448,192,114299,1,0,0:0:0:0:
448,192,114517,1,0,0:0:0:0:
192,192,114736,1,0,0:0:0:0:
192,192,114954,1,0,0:0:0:0:
320,192,115172,1,0,0:0:0:0:
320,192,115390,1,0,0:0:0:0:
64,192,115608,1,0,0:0:0:0:
448,192,115827,1,0,0:0:0:0:
