osu file format v14

[General]
AudioFilename: audio.mp3
AudioLeadIn: 0
PreviewTime: 66954
Countdown: 0
SampleSet: Normal
StackLeniency: 0.7
Mode: 3
LetterboxInBreaks: 0
SpecialStyle: 0
WidescreenStoryboard: 1

[Editor]
DistanceSpacing: 1
BeatDivisor: 4
GridSize: 32
TimelineZoom: 2.3

[Metadata]
Title:MixxioN
TitleUnicode:MixxioN
Artist:MisoilePunch
ArtistUnicode:MisoilePunch♪
Creator:Aruel
Version:EXCEED
Source:SOUND VOLTEX EXCEED GEAR
Tags:misomyl みそみぃる ponchi grace グレイス HEXA DIVER アザレアの使命篇 Azalea no Shimei-hen The 10th KAC オリジナル楽曲コンテスト Original Song Contest 最優秀賞 Saiyuushuu-shou Grand Prize SDVX Konami Bemani Video Game Electronic Rock Instrumental
BeatmapID:3510035
BeatmapSetID:1717598

[Difficulty]
HPDrainRate:8
CircleSize:4
OverallDifficulty:8
ApproachRate:5
SliderMultiplier:1.4
SliderTickRate:1

[Events]
//Background and Video events
0,0,"bg.jpg",0,0
//Break Periods
//Storyboard Layer 0 (Background)
//Storyboard Layer 1 (Fail)
//Storyboard Layer 2 (Pass)
//Storyboard Layer 3 (Foreground)
//Storyboard Layer 4 (Overlay)
//Storyboard Sound Samples

[TimingPoints]
1718,218.181818181818,4,1,1,25,1,0
8808,-100,4,1,1,50,0,0
34008,-100,4,1,1,30,0,0
40990,-100,4,1,1,50,0,0
67390,-100,4,1,1,50,0,1
81027,-100,4,1,1,50,0,0
81354,-100,4,1,1,50,0,1
93354,-100,4,1,1,30,0,0
95099,-100,4,1,1,50,0,0
105790,-100,4,1,1,50,0,1
109063,-100,4,1,1,50,0,0

[HitObjects]
192,192,1717,128,0,2154:0:0:0:0:
448,192,2154,128,0,2536:0:0:0:0:
448,192,2590,128,0,3463:0:0:0:0:
64,192,2590,1,0,0:0:0:0:
192,192,3463,128,0,3899:0:0:0:0:
64,192,3463,1,0,0:0:0:0:
448,192,3899,128,0,4281:0:0:0:0:
448,192,4336,128,0,5208:0:0:0:0:
192,192,4336,1,0,0:0:0:0:
320,192,5208,128,0,5645:0:0:0:0:
64,192,5208,1,0,0:0:0:0:
192,192,5645,128,0,6081:0:0:0:0:
64,192,6081,128,0,6299:0:0:0:0:
320,192,6081,1,0,0:0:0:0:
192,192,6299,128,0,6517:0:0:0:0:
320,192,6517,128,0,6736:0:0:0:0:
448,192,6736,128,0,6954:0:0:0:0:
192,192,6954,128,0,7172:0:0:0:0:
320,192,6954,1,0,0:0:0:0:
448,192,7172,128,0,7390:0:0:0:0:
320,192,7390,128,0,7608:0:0:0:0:
64,192,7608,128,0,7827:0:0:0:0:
320,192,7827,128,0,8154:0:0:0:0:
448,192,7827,128,0,8699:0:0:0:0:
192,192,8154,128,0,8699:0:0:0:0:
320,192,8699,1,0,0:0:0:0:
192,192,8808,1,0,0:0:0:0:
320,192,8863,1,0,0:0:0:0:
448,192,8917,128,0,9136:0:0:0:0:
64,192,8917,128,0,9136:0:0:0:0:
320,192,9136,1,0,0:0:0:0:
192,192,9190,1,0,0:0:0:0:
448,192,9245,1,0,0:0:0:0:
320,192,9299,1,0,0:0:0:0:
192,192,9354,1,0,0:0:0:0:
64,192,9354,1,0,0:0:0:0:
320,192,9463,128,0,9572:0:0:0:0:
192,192,9681,1,0,0:0:0:0:
320,192,9736,1,0,0:0:0:0:
64,192,9790,128,0,10008:0:0:0:0:
448,192,9790,1,0,0:0:0:0:
192,192,9790,1,0,0:0:0:0:
320,192,10008,128,0,10117:0:0:0:0:
192,192,10008,1,0,0:0:0:0:
448,192,10117,1,0,0:0:0:0:
64,192,10227,1,0,0:0:0:0:
192,192,10227,128,0,10336:0:0:0:0:
320,192,10336,1,0,0:0:0:0:
448,192,10336,128,0,10554:0:0:0:0:
192,192,10554,1,0,0:0:0:0:
64,192,10554,1,0,0:0:0:0:
320,192,10663,1,0,0:0:0:0:
448,192,10663,1,0,0:0:0:0:
192,192,10717,1,0,0:0:0:0:
64,192,10772,1,0,0:0:0:0:
320,192,10827,1,0,0:0:0:0:
192,192,10881,1,0,0:0:0:0:
448,192,10881,1,0,0:0:0:0:
64,192,10936,1,0,0:0:0:0:
448,192,10990,1,0,0:0:0:0:
64,192,11045,1,0,0:0:0:0:
320,192,11099,1,0,0:0:0:0:
192,192,11099,1,0,0:0:0:0:
64,192,11208,1,0,0:0:0:0:
320,192,11208,1,0,0:0:0:0:
448,192,11317,128,0,11481:0:0:0:0:
448,192,11536,128,0,11645:0:0:0:0:
192,192,11536,1,0,0:0:0:0:
64,192,11536,1,0,0:0:0:0:
320,192,11645,128,0,11754:0:0:0:0:
192,192,11754,1,0,0:0:0:0:
448,192,11754,1,0,0:0:0:0:
64,192,11863,128,0,11972:0:0:0:0:
320,192,11863,1,0,0:0:0:0:
448,192,11972,1,0,0:0:0:0:
192,192,11972,1,0,0:0:0:0:
320,192,12081,128,0,12299:0:0:0:0:
448,192,12081,1,0,0:0:0:0:
192,192,12299,1,0,0:0:0:0:
64,192,12299,1,0,0:0:0:0:
448,192,12408,1,0,0:0:0:0:
320,192,12408,1,0,0:0:0:0:
64,192,12463,1,0,0:0:0:0:
192,192,12517,1,0,0:0:0:0:
320,192,12572,1,0,0:0:0:0:
448,192,12627,1,0,0:0:0:0:
64,192,12627,1,0,0:0:0:0:
320,192,12681,1,0,0:0:0:0:
192,192,12736,1,0,0:0:0:0:
64,192,12790,1,0,0:0:0:0:
320,192,12845,128,0,13063:0:0:0:0:
192,192,12845,1,0,0:0:0:0:
64,192,13063,128,0,13390:0:0:0:0:
192,192,13063,1,0,0:0:0:0:
448,192,13172,1,0,0:0:0:0:
448,192,13281,1,0,0:0:0:0:
320,192,13390,1,0,0:0:0:0:
192,192,13390,128,0,13499:0:0:0:0:
448,192,13499,1,0,0:0:0:0:
64,192,13499,1,0,0:0:0:0:
192,192,13554,1,0,0:0:0:0:
320,192,13608,128,0,13717:0:0:0:0:
64,192,13608,1,0,0:0:0:0:
448,192,13717,1,0,0:0:0:0:
192,192,13717,1,0,0:0:0:0:
192,192,13827,1,0,0:0:0:0:
64,192,13827,1,0,0:0:0:0:
448,192,13827,128,0,14154:0:0:0:0:
192,192,14045,1,0,0:0:0:0:
64,192,14045,1,0,0:0:0:0:
320,192,14154,1,0,0:0:0:0:
192,192,14154,128,0,14372:0:0:0:0:
64,192,14263,1,0,0:0:0:0:
448,192,14372,1,0,0:0:0:0:
320,192,14372,1,0,0:0:0:0:
64,192,14427,1,0,0:0:0:0:
192,192,14481,1,0,0:0:0:0:
320,192,14536,1,0,0:0:0:0:
64,192,14590,1,0,0:0:0:0:
192,192,14645,1,0,0:0:0:0:
448,192,14699,128,0,16336:0:0:0:0:
320,192,14699,1,0,0:0:0:0:
64,192,14699,1,0,0:0:0:0:
192,192,14808,1,0,0:0:0:0:
320,192,14917,1,0,0:0:0:0:
192,192,15027,1,0,0:0:0:0:
64,192,15027,1,0,0:0:0:0:
320,192,15136,1,0,0:0:0:0:
192,192,15245,1,0,0:0:0:0:
64,192,15245,1,0,0:0:0:0:
192,192,15354,1,0,0:0:0:0:
64,192,15354,1,0,0:0:0:0:
320,192,15463,1,0,0:0:0:0:
192,192,15572,1,0,0:0:0:0:
64,192,15572,1,0,0:0:0:0:
192,192,15790,1,0,0:0:0:0:
64,192,15790,1,0,0:0:0:0:
192,192,15899,1,0,0:0:0:0:
64,192,15899,1,0,0:0:0:0:
192,192,16008,1,0,0:0:0:0:
64,192,16008,1,0,0:0:0:0:
320,192,16117,1,0,0:0:0:0:
64,192,16172,1,0,0:0:0:0:
192,192,16227,1,0,0:0:0:0:
320,192,16281,1,0,0:0:0:0:
64,192,16336,1,0,0:0:0:0:
192,192,16390,1,0,0:0:0:0:
320,192,16445,1,0,0:0:0:0:
448,192,16499,1,0,0:0:0:0:
192,192,16554,1,0,0:0:0:0:
64,192,16554,1,0,0:0:0:0:
192,192,16699,1,0,0:0:0:0:
64,192,16699,1,0,0:0:0:0:
448,192,16772,1,0,0:0:0:0:
320,192,16845,1,0,0:0:0:0:
192,192,16845,1,0,0:0:0:0:
64,192,16917,1,0,0:0:0:0:
320,192,16990,1,0,0:0:0:0:
448,192,16990,1,0,0:0:0:0:
448,192,17136,1,0,0:0:0:0:
320,192,17136,1,0,0:0:0:0:
64,192,17208,1,0,0:0:0:0:
192,192,17281,1,0,0:0:0:0:
320,192,17281,1,0,0:0:0:0:
448,192,17354,1,0,0:0:0:0:
192,192,17427,1,0,0:0:0:0:
64,192,17427,1,0,0:0:0:0:
320,192,17572,1,0,0:0:0:0:
64,192,17572,1,0,0:0:0:0:
448,192,17645,1,0,0:0:0:0:
192,192,17717,1,0,0:0:0:0:
320,192,17717,1,0,0:0:0:0:
64,192,17790,1,0,0:0:0:0:
448,192,17863,1,0,0:0:0:0:
192,192,17863,1,0,0:0:0:0:
448,192,18008,1,0,0:0:0:0:
320,192,18008,1,0,0:0:0:0:
64,192,18081,1,0,0:0:0:0:
192,192,18154,1,0,0:0:0:0:
320,192,18190,1,0,0:0:0:0:
448,192,18245,1,0,0:0:0:0:
64,192,18299,1,0,0:0:0:0:
64,192,18736,1,0,0:0:0:0:
448,192,18736,1,0,0:0:0:0:
320,192,18790,1,0,0:0:0:0:
192,192,18845,1,0,0:0:0:0:
64,192,18845,1,0,0:0:0:0:
448,192,18899,1,0,0:0:0:0:
320,192,18954,1,0,0:0:0:0:
192,192,18954,1,0,0:0:0:0:
64,192,19008,1,0,0:0:0:0:
448,192,19063,1,0,0:0:0:0:
320,192,19063,1,0,0:0:0:0:
192,192,19117,1,0,0:0:0:0:
448,192,19172,1,0,0:0:0:0:
64,192,19172,1,0,0:0:0:0:
320,192,19227,1,0,0:0:0:0:
192,192,19281,1,0,0:0:0:0:
64,192,19281,1,0,0:0:0:0:
448,192,19336,1,0,0:0:0:0:
320,192,19390,1,0,0:0:0:0:
192,192,19390,1,0,0:0:0:0:
64,192,19445,1,0,0:0:0:0:
320,192,19499,1,0,0:0:0:0:
448,192,19554,1,0,0:0:0:0:
192,192,19608,1,0,0:0:0:0:
64,192,19663,1,0,0:0:0:0:
320,192,19717,1,0,0:0:0:0:
448,192,19772,1,0,0:0:0:0:
192,192,19827,1,0,0:0:0:0:
64,192,19827,1,0,0:0:0:0:
320,192,20045,128,0,20154:0:0:0:0:
448,192,20045,1,0,0:0:0:0:
192,192,20045,1,0,0:0:0:0:
192,192,20154,1,0,0:0:0:0:
448,192,20263,128,0,20372:0:0:0:0:
64,192,20263,1,0,0:0:0:0:
320,192,20372,1,0,0:0:0:0:
192,192,20372,128,0,20481:0:0:0:0:
320,192,20481,1,0,0:0:0:0:
448,192,20590,1,0,0:0:0:0:
64,192,20699,1,0,0:0:0:0:
192,192,20699,1,0,0:0:0:0:
64,192,20808,1,0,0:0:0:0:
448,192,20917,1,0,0:0:0:0:
64,192,21027,1,0,0:0:0:0:
192,192,21027,1,0,0:0:0:0:
64,192,21136,1,0,0:0:0:0:
192,192,21136,128,0,21245:0:0:0:0:
448,192,21245,1,0,0:0:0:0:
320,192,21354,128,0,21463:0:0:0:0:
64,192,21354,1,0,0:0:0:0:
448,192,21408,1,0,0:0:0:0:
192,192,21463,1,0,0:0:0:0:
64,192,21517,1,0,0:0:0:0:
448,192,21572,128,0,21681:0:0:0:0:
320,192,21572,1,0,0:0:0:0:
64,192,21681,1,0,0:0:0:0:
192,192,21790,1,0,0:0:0:0:
448,192,21790,1,0,0:0:0:0:
320,192,21790,128,0,21899:0:0:0:0:
192,192,21899,1,0,0:0:0:0:
448,192,22008,128,0,22117:0:0:0:0:
64,192,22008,1,0,0:0:0:0:
192,192,22117,128,0,22227:0:0:0:0:
320,192,22117,1,0,0:0:0:0:
320,192,22227,1,0,0:0:0:0:
448,192,22336,1,0,0:0:0:0:
192,192,22445,1,0,0:0:0:0:
64,192,22445,1,0,0:0:0:0:
64,192,22554,1,0,0:0:0:0:
448,192,22663,1,0,0:0:0:0:
192,192,22772,1,0,0:0:0:0:
64,192,22772,1,0,0:0:0:0:
192,192,22881,1,0,0:0:0:0:
64,192,22881,128,0,22990:0:0:0:0:
448,192,22990,1,0,0:0:0:0:
320,192,23099,1,0,0:0:0:0:
192,192,23099,128,0,23208:0:0:0:0:
448,192,23154,1,0,0:0:0:0:
64,192,23208,1,0,0:0:0:0:
192,192,23263,1,0,0:0:0:0:
320,192,23317,128,0,23427:0:0:0:0:
448,192,23317,1,0,0:0:0:0:
64,192,23427,1,0,0:0:0:0:
448,192,23536,128,0,23645:0:0:0:0:
192,192,23536,1,0,0:0:0:0:
320,192,23536,1,0,0:0:0:0:
192,192,23645,1,0,0:0:0:0:
320,192,23754,1,0,0:0:0:0:
192,192,23863,128,0,23972:0:0:0:0:
448,192,23863,1,0,0:0:0:0:
448,192,23972,1,0,0:0:0:0:
192,192,24081,1,0,0:0:0:0:
64,192,24190,128,0,24299:0:0:0:0:
320,192,24190,1,0,0:0:0:0:
320,192,24299,1,0,0:0:0:0:
64,192,24408,1,0,0:0:0:0:
448,192,24517,1,0,0:0:0:0:
320,192,24517,1,0,0:0:0:0:
448,192,24627,1,0,0:0:0:0:
320,192,24627,128,0,24736:0:0:0:0:
64,192,24736,1,0,0:0:0:0:
192,192,24845,128,0,24954:0:0:0:0:
320,192,24845,1,0,0:0:0:0:
448,192,24899,1,0,0:0:0:0:
64,192,24954,1,0,0:0:0:0:
192,192,25008,1,0,0:0:0:0:
448,192,25063,128,0,25172:0:0:0:0:
320,192,25063,1,0,0:0:0:0:
64,192,25172,1,0,0:0:0:0:
320,192,25281,128,0,25390:0:0:0:0:
192,192,25281,1,0,0:0:0:0:
448,192,25281,1,0,0:0:0:0:
192,192,25390,1,0,0:0:0:0:
320,192,25499,1,0,0:0:0:0:
64,192,25608,128,0,25717:0:0:0:0:
448,192,25608,1,0,0:0:0:0:
448,192,25717,1,0,0:0:0:0:
192,192,25827,1,0,0:0:0:0:
448,192,25936,128,0,26045:0:0:0:0:
64,192,25936,1,0,0:0:0:0:
64,192,26045,1,0,0:0:0:0:
448,192,26154,1,0,0:0:0:0:
192,192,26154,1,0,0:0:0:0:
64,192,26263,1,0,0:0:0:0:
320,192,26263,1,0,0:0:0:0:
64,192,26372,1,0,0:0:0:0:
320,192,26372,1,0,0:0:0:0:
192,192,26481,1,0,0:0:0:0:
448,192,26590,1,0,0:0:0:0:
64,192,26590,1,0,0:0:0:0:
192,192,26699,1,0,0:0:0:0:
320,192,26754,1,0,0:0:0:0:
448,192,26808,1,0,0:0:0:0:
64,192,26808,1,0,0:0:0:0:
192,192,26917,1,0,0:0:0:0:
320,192,26917,1,0,0:0:0:0:
448,192,27027,128,0,27136:0:0:0:0:
192,192,27136,1,0,0:0:0:0:
320,192,27190,1,0,0:0:0:0:
448,192,27245,1,0,0:0:0:0:
64,192,27245,1,0,0:0:0:0:
192,192,27245,1,0,0:0:0:0:
320,192,27354,1,0,0:0:0:0:
192,192,27463,1,0,0:0:0:0:
64,192,27463,1,0,0:0:0:0:
448,192,27517,1,0,0:0:0:0:
320,192,27572,1,0,0:0:0:0:
448,192,27627,1,0,0:0:0:0:
64,192,27681,1,0,0:0:0:0:
192,192,27681,1,0,0:0:0:0:
320,192,27790,1,0,0:0:0:0:
448,192,27790,1,0,0:0:0:0:
192,192,27899,1,0,0:0:0:0:
448,192,28008,1,0,0:0:0:0:
320,192,28063,1,0,0:0:0:0:
192,192,28117,1,0,0:0:0:0:
64,192,28117,1,0,0:0:0:0:
320,192,28227,1,0,0:0:0:0:
448,192,28227,1,0,0:0:0:0:
192,192,28336,1,0,0:0:0:0:
64,192,28336,1,0,0:0:0:0:
192,192,28445,1,0,0:0:0:0:
64,192,28445,1,0,0:0:0:0:
320,192,28554,1,0,0:0:0:0:
448,192,28554,1,0,0:0:0:0:
192,192,28663,1,0,0:0:0:0:
320,192,28772,1,0,0:0:0:0:
64,192,28772,1,0,0:0:0:0:
192,192,28881,1,0,0:0:0:0:
64,192,28990,1,0,0:0:0:0:
448,192,28990,1,0,0:0:0:0:
192,192,29099,1,0,0:0:0:0:
448,192,29208,1,0,0:0:0:0:
320,192,29208,1,0,0:0:0:0:
64,192,29263,1,0,0:0:0:0:
192,192,29317,1,0,0:0:0:0:
64,192,29372,1,0,0:0:0:0:
320,192,29427,1,0,0:0:0:0:
448,192,29427,1,0,0:0:0:0:
192,192,29536,1,0,0:0:0:0:
64,192,29536,1,0,0:0:0:0:
448,192,29645,1,0,0:0:0:0:
64,192,29645,1,0,0:0:0:0:
320,192,29754,1,0,0:0:0:0:
192,192,29808,1,0,0:0:0:0:
64,192,29863,1,0,0:0:0:0:
448,192,29863,1,0,0:0:0:0:
320,192,29917,1,0,0:0:0:0:
192,192,29972,1,0,0:0:0:0:
320,192,30027,1,0,0:0:0:0:
448,192,30081,1,0,0:0:0:0:
64,192,30081,1,0,0:0:0:0:
192,192,30190,1,0,0:0:0:0:
320,192,30245,1,0,0:0:0:0:
448,192,30299,1,0,0:0:0:0:
64,192,30299,1,0,0:0:0:0:
192,192,30354,1,0,0:0:0:0:
320,192,30408,1,0,0:0:0:0:
192,192,30463,1,0,0:0:0:0:
320,192,30517,1,0,0:0:0:0:
448,192,30517,1,0,0:0:0:0:
64,192,30517,1,0,0:0:0:0:
320,192,30736,1,0,0:0:0:0:
64,192,30736,1,0,0:0:0:0:
192,192,30845,1,0,0:0:0:0:
320,192,30954,1,0,0:0:0:0:
448,192,30954,1,0,0:0:0:0:
192,192,31063,1,0,0:0:0:0:
448,192,31117,1,0,0:0:0:0:
320,192,31172,1,0,0:0:0:0:
64,192,31172,1,0,0:0:0:0:
192,192,31281,1,0,0:0:0:0:
448,192,31281,1,0,0:0:0:0:
320,192,31390,1,0,0:0:0:0:
448,192,31390,1,0,0:0:0:0:
64,192,31390,1,0,0:0:0:0:
192,192,31499,1,0,0:0:0:0:
64,192,31499,1,0,0:0:0:0:
320,192,31608,1,0,0:0:0:0:
448,192,31608,1,0,0:0:0:0:
448,192,31717,1,0,0:0:0:0:
64,192,31717,1,0,0:0:0:0:
320,192,31827,1,0,0:0:0:0:
192,192,31936,1,0,0:0:0:0:
64,192,31936,1,0,0:0:0:0:
64,192,32045,1,0,0:0:0:0:
448,192,32045,1,0,0:0:0:0:
192,192,32154,1,0,0:0:0:0:
448,192,32154,1,0,0:0:0:0:
320,192,32263,1,0,0:0:0:0:
64,192,32263,1,0,0:0:0:0:
64,192,32372,1,0,0:0:0:0:
320,192,32590,1,0,0:0:0:0:
448,192,32590,1,0,0:0:0:0:
320,192,32699,1,0,0:0:0:0:
448,192,32917,1,0,0:0:0:0:
64,192,32917,1,0,0:0:0:0:
448,192,33027,1,0,0:0:0:0:
320,192,33245,1,0,0:0:0:0:
192,192,33245,1,0,0:0:0:0:
64,192,33245,1,0,0:0:0:0:
448,192,33354,1,0,0:0:0:0:
192,192,33463,1,0,0:0:0:0:
64,192,33463,1,0,0:0:0:0:
192,192,33572,1,0,0:0:0:0:
64,192,33572,1,0,0:0:0:0:
320,192,33681,1,0,0:0:0:0:
192,192,33736,1,0,0:0:0:0:
64,192,33790,1,0,0:0:0:0:
448,192,33790,1,0,0:0:0:0:
320,192,33899,1,0,0:0:0:0:
192,192,33899,1,0,0:0:0:0:
448,192,34008,1,0,0:0:0:0:
64,192,34008,128,0,35754:0:0:0:0:
320,192,34227,1,0,0:0:0:0:
192,192,34336,1,0,0:0:0:0:
448,192,34445,1,0,0:0:0:0:
192,192,34881,128,0,35317:0:0:0:0:
448,192,34881,1,0,0:0:0:0:
448,192,35317,128,0,35754:0:0:0:0:
192,192,35754,128,0,36190:0:0:0:0:
448,192,35863,1,0,0:0:0:0:
320,192,35972,1,0,0:0:0:0:
64,192,36081,1,0,0:0:0:0:
448,192,36190,128,0,36627:0:0:0:0:
320,192,36627,128,0,37063:0:0:0:0:
192,192,36627,1,0,0:0:0:0:
192,192,37063,128,0,37499:0:0:0:0:
64,192,37499,128,0,38154:0:0:0:0:
448,192,37608,1,0,0:0:0:0:
192,192,37717,1,0,0:0:0:0:
320,192,37827,1,0,0:0:0:0:
448,192,38154,1,0,0:0:0:0:
448,192,38263,1,0,0:0:0:0:
192,192,38372,128,0,39190:0:0:0:0:
320,192,38372,1,0,0:0:0:0:
320,192,38590,1,0,0:0:0:0:
448,192,38590,128,0,38808:0:0:0:0:
64,192,38808,128,0,38917:0:0:0:0:
320,192,38917,128,0,39027:0:0:0:0:
448,192,39027,128,0,39136:0:0:0:0:
64,192,39136,128,0,39245:0:0:0:0:
320,192,39245,1,0,0:0:0:0:
448,192,39245,1,0,0:0:0:0:
192,192,39245,1,0,0:0:0:0:
320,192,39572,1,0,0:0:0:0:
192,192,39572,1,0,0:0:0:0:
64,192,39572,1,0,0:0:0:0:
320,192,39899,128,0,40008:0:0:0:0:
64,192,40008,1,0,0:0:0:0:
192,192,40063,1,0,0:0:0:0:
448,192,40117,1,0,0:0:0:0:
320,192,40190,1,0,0:0:0:0:
192,192,40263,1,0,0:0:0:0:
64,192,40336,1,0,0:0:0:0:
448,192,40336,128,0,40445:0:0:0:0:
320,192,40554,128,0,40772:0:0:0:0:
192,192,40554,1,0,0:0:0:0:
192,192,40772,128,0,40990:0:0:0:0:
64,192,40772,1,0,0:0:0:0:
64,192,40990,1,0,0:0:0:0:
448,192,40990,1,0,0:0:0:0:
320,192,41099,1,0,0:0:0:0:
64,192,41208,128,0,41427:0:0:0:0:
192,192,41208,1,0,0:0:0:0:
448,192,41317,1,0,0:0:0:0:
192,192,41427,128,0,41536:0:0:0:0:
320,192,41427,1,0,0:0:0:0:
448,192,41536,128,0,41645:0:0:0:0:
64,192,41536,1,0,0:0:0:0:
192,192,41645,1,0,0:0:0:0:
320,192,41754,128,0,41972:0:0:0:0:
64,192,41754,1,0,0:0:0:0:
192,192,41863,1,0,0:0:0:0:
64,192,41972,128,0,42081:0:0:0:0:
448,192,41972,1,0,0:0:0:0:
192,192,42081,128,0,42299:0:0:0:0:
320,192,42081,1,0,0:0:0:0:
448,192,42190,1,0,0:0:0:0:
448,192,42299,128,0,42408:0:0:0:0:
64,192,42299,1,0,0:0:0:0:
192,192,42354,1,0,0:0:0:0:
320,192,42408,128,0,42517:0:0:0:0:
448,192,42463,1,0,0:0:0:0:
64,192,42517,1,0,0:0:0:0:
320,192,42572,1,0,0:0:0:0:
192,192,42627,128,0,42845:0:0:0:0:
448,192,42681,1,0,0:0:0:0:
320,192,42736,1,0,0:0:0:0:
64,192,42736,1,0,0:0:0:0:
448,192,42845,1,0,0:0:0:0:
64,192,42954,128,0,43063:0:0:0:0:
320,192,42954,1,0,0:0:0:0:
320,192,43063,1,0,0:0:0:0:
192,192,43172,128,0,43281:0:0:0:0:
448,192,43172,1,0,0:0:0:0:
64,192,43281,1,0,0:0:0:0:
320,192,43390,128,0,43499:0:0:0:0:
192,192,43390,1,0,0:0:0:0:
192,192,43499,1,0,0:0:0:0:
448,192,43608,128,0,43717:0:0:0:0:
64,192,43608,1,0,0:0:0:0:
192,192,43717,1,0,0:0:0:0:
64,192,43827,128,0,43936:0:0:0:0:
448,192,43827,1,0,0:0:0:0:
448,192,43936,1,0,0:0:0:0:
320,192,44045,128,0,44154:0:0:0:0:
64,192,44045,1,0,0:0:0:0:
192,192,44099,1,0,0:0:0:0:
448,192,44154,1,0,0:0:0:0:
64,192,44208,1,0,0:0:0:0:
192,192,44263,128,0,44372:0:0:0:0:
320,192,44263,1,0,0:0:0:0:
64,192,44317,1,0,0:0:0:0:
448,192,44372,1,0,0:0:0:0:
320,192,44427,1,0,0:0:0:0:
448,192,44481,128,0,45354:0:0:0:0:
64,192,44481,1,0,0:0:0:0:
192,192,44481,1,0,0:0:0:0:
320,192,44590,1,0,0:0:0:0:
320,192,44699,1,0,0:0:0:0:
64,192,44808,1,0,0:0:0:0:
192,192,44808,1,0,0:0:0:0:
320,192,44917,1,0,0:0:0:0:
320,192,45027,1,0,0:0:0:0:
64,192,45136,1,0,0:0:0:0:
192,192,45136,1,0,0:0:0:0:
320,192,45245,1,0,0:0:0:0:
192,192,45354,1,0,0:0:0:0:
64,192,45408,1,0,0:0:0:0:
320,192,45463,1,0,0:0:0:0:
448,192,45463,1,0,0:0:0:0:
192,192,45517,1,0,0:0:0:0:
64,192,45572,1,0,0:0:0:0:
192,192,45627,1,0,0:0:0:0:
320,192,45681,1,0,0:0:0:0:
448,192,45736,1,0,0:0:0:0:
192,192,45790,1,0,0:0:0:0:
64,192,45790,1,0,0:0:0:0:
320,192,45845,1,0,0:0:0:0:
448,192,45899,1,0,0:0:0:0:
64,192,45954,1,0,0:0:0:0:
192,192,46008,1,0,0:0:0:0:
320,192,46008,1,0,0:0:0:0:
448,192,46063,1,0,0:0:0:0:
192,192,46117,1,0,0:0:0:0:
320,192,46172,1,0,0:0:0:0:
448,192,46227,1,0,0:0:0:0:
64,192,46227,1,0,0:0:0:0:
448,192,46336,1,0,0:0:0:0:
64,192,46336,1,0,0:0:0:0:
448,192,46554,1,0,0:0:0:0:
64,192,46554,1,0,0:0:0:0:
64,192,46663,1,0,0:0:0:0:
448,192,46663,1,0,0:0:0:0:
64,192,46881,1,0,0:0:0:0:
448,192,46881,1,0,0:0:0:0:
448,192,46990,1,0,0:0:0:0:
64,192,46990,1,0,0:0:0:0:
320,192,47972,1,0,0:0:0:0:
448,192,47972,1,0,0:0:0:0:
64,192,47972,1,0,0:0:0:0:
192,192,48081,1,0,0:0:0:0:
448,192,48081,1,0,0:0:0:0:
320,192,48190,1,0,0:0:0:0:
64,192,48190,1,0,0:0:0:0:
192,192,48299,1,0,0:0:0:0:
64,192,48299,1,0,0:0:0:0:
192,192,48408,1,0,0:0:0:0:
448,192,48408,1,0,0:0:0:0:
320,192,48517,1,0,0:0:0:0:
448,192,48517,1,0,0:0:0:0:
64,192,48627,1,0,0:0:0:0:
192,192,48663,1,0,0:0:0:0:
320,192,48699,1,0,0:0:0:0:
64,192,48736,1,0,0:0:0:0:
448,192,48845,1,0,0:0:0:0:
320,192,48881,1,0,0:0:0:0:
192,192,48917,1,0,0:0:0:0:
64,192,48954,1,0,0:0:0:0:
320,192,49008,1,0,0:0:0:0:
448,192,49063,1,0,0:0:0:0:
64,192,49172,1,0,0:0:0:0:
192,192,49208,1,0,0:0:0:0:
320,192,49245,1,0,0:0:0:0:
448,192,49281,1,0,0:0:0:0:
192,192,49336,1,0,0:0:0:0:
64,192,49390,1,0,0:0:0:0:
448,192,49499,1,0,0:0:0:0:
320,192,49536,1,0,0:0:0:0:
192,192,49572,1,0,0:0:0:0:
64,192,49608,1,0,0:0:0:0:
320,192,49663,1,0,0:0:0:0:
448,192,49717,1,0,0:0:0:0:
64,192,49717,1,0,0:0:0:0:
320,192,49827,1,0,0:0:0:0:
192,192,49827,1,0,0:0:0:0:
192,192,49936,1,0,0:0:0:0:
448,192,49936,1,0,0:0:0:0:
320,192,50045,1,0,0:0:0:0:
448,192,50045,1,0,0:0:0:0:
64,192,50154,1,0,0:0:0:0:
320,192,50154,1,0,0:0:0:0:
64,192,50263,1,0,0:0:0:0:
192,192,50263,1,0,0:0:0:0:
448,192,50372,1,0,0:0:0:0:
320,192,50408,1,0,0:0:0:0:
192,192,50445,1,0,0:0:0:0:
448,192,50481,1,0,0:0:0:0:
64,192,50590,1,0,0:0:0:0:
192,192,50627,1,0,0:0:0:0:
320,192,50663,1,0,0:0:0:0:
448,192,50699,1,0,0:0:0:0:
192,192,50754,1,0,0:0:0:0:
64,192,50808,1,0,0:0:0:0:
448,192,50917,1,0,0:0:0:0:
320,192,50954,1,0,0:0:0:0:
192,192,50990,1,0,0:0:0:0:
64,192,51027,1,0,0:0:0:0:
320,192,51081,1,0,0:0:0:0:
448,192,51136,1,0,0:0:0:0:
64,192,51245,1,0,0:0:0:0:
192,192,51281,1,0,0:0:0:0:
320,192,51317,1,0,0:0:0:0:
448,192,51354,1,0,0:0:0:0:
192,192,51408,1,0,0:0:0:0:
448,192,51463,1,0,0:0:0:0:
64,192,51463,1,0,0:0:0:0:
320,192,51572,1,0,0:0:0:0:
64,192,51572,1,0,0:0:0:0:
192,192,51681,1,0,0:0:0:0:
320,192,51681,1,0,0:0:0:0:
448,192,51790,1,0,0:0:0:0:
192,192,51790,1,0,0:0:0:0:
64,192,51899,1,0,0:0:0:0:
448,192,51899,1,0,0:0:0:0:
320,192,52008,1,0,0:0:0:0:
64,192,52008,1,0,0:0:0:0:
448,192,52117,1,0,0:0:0:0:
320,192,52154,1,0,0:0:0:0:
192,192,52190,1,0,0:0:0:0:
448,192,52227,1,0,0:0:0:0:
64,192,52336,1,0,0:0:0:0:
192,192,52372,1,0,0:0:0:0:
320,192,52408,1,0,0:0:0:0:
448,192,52445,1,0,0:0:0:0:
192,192,52499,1,0,0:0:0:0:
64,192,52554,1,0,0:0:0:0:
448,192,52663,1,0,0:0:0:0:
320,192,52699,1,0,0:0:0:0:
192,192,52736,1,0,0:0:0:0:
64,192,52772,1,0,0:0:0:0:
320,192,52827,1,0,0:0:0:0:
448,192,52881,1,0,0:0:0:0:
64,192,52990,1,0,0:0:0:0:
192,192,53027,1,0,0:0:0:0:
320,192,53063,1,0,0:0:0:0:
448,192,53099,1,0,0:0:0:0:
192,192,53154,1,0,0:0:0:0:
64,192,53208,1,0,0:0:0:0:
448,192,53208,1,0,0:0:0:0:
192,192,53427,1,0,0:0:0:0:
64,192,53427,1,0,0:0:0:0:
320,192,53481,1,0,0:0:0:0:
448,192,53481,1,0,0:0:0:0:
192,192,53536,1,0,0:0:0:0:
64,192,53536,1,0,0:0:0:0:
320,192,53645,1,0,0:0:0:0:
448,192,53645,1,0,0:0:0:0:
64,192,53754,1,0,0:0:0:0:
192,192,53790,1,0,0:0:0:0:
320,192,53827,1,0,0:0:0:0:
448,192,53863,1,0,0:0:0:0:
192,192,53972,1,0,0:0:0:0:
64,192,53972,1,0,0:0:0:0:
320,192,54081,1,0,0:0:0:0:
448,192,54081,1,0,0:0:0:0:
192,192,54190,1,0,0:0:0:0:
64,192,54263,1,0,0:0:0:0:
192,192,54336,1,0,0:0:0:0:
320,192,54408,1,0,0:0:0:0:
448,192,54517,1,0,0:0:0:0:
192,192,54627,1,0,0:0:0:0:
320,192,54681,1,0,0:0:0:0:
448,192,54736,1,0,0:0:0:0:
64,192,54736,1,0,0:0:0:0:
320,192,54790,1,0,0:0:0:0:
192,192,54845,1,0,0:0:0:0:
448,192,54954,1,0,0:0:0:0:
64,192,54954,1,0,0:0:0:0:
320,192,55063,1,0,0:0:0:0:
192,192,55063,1,0,0:0:0:0:
320,192,55172,1,0,0:0:0:0:
192,192,55172,1,0,0:0:0:0:
448,192,55281,1,0,0:0:0:0:
64,192,55281,1,0,0:0:0:0:
320,192,55390,1,0,0:0:0:0:
64,192,55390,1,0,0:0:0:0:
192,192,55499,1,0,0:0:0:0:
448,192,55499,1,0,0:0:0:0:
64,192,55608,1,0,0:0:0:0:
192,192,55645,1,0,0:0:0:0:
320,192,55681,1,0,0:0:0:0:
64,192,55717,1,0,0:0:0:0:
192,192,55772,1,0,0:0:0:0:
448,192,55827,1,0,0:0:0:0:
320,192,55827,1,0,0:0:0:0:
192,192,55936,1,0,0:0:0:0:
64,192,55936,1,0,0:0:0:0:
448,192,56045,1,0,0:0:0:0:
64,192,56045,1,0,0:0:0:0:
320,192,56154,1,0,0:0:0:0:
192,192,56154,1,0,0:0:0:0:
192,192,56263,1,0,0:0:0:0:
448,192,56263,1,0,0:0:0:0:
320,192,56372,1,0,0:0:0:0:
64,192,56372,1,0,0:0:0:0:
448,192,56481,1,0,0:0:0:0:
320,192,56517,1,0,0:0:0:0:
192,192,56554,1,0,0:0:0:0:
448,192,56590,1,0,0:0:0:0:
320,192,56645,1,0,0:0:0:0:
64,192,56699,1,0,0:0:0:0:
192,192,56699,1,0,0:0:0:0:
448,192,56808,1,0,0:0:0:0:
320,192,56808,1,0,0:0:0:0:
64,192,56917,1,0,0:0:0:0:
192,192,56954,1,0,0:0:0:0:
320,192,56990,1,0,0:0:0:0:
64,192,57027,1,0,0:0:0:0:
192,192,57081,1,0,0:0:0:0:
448,192,57136,1,0,0:0:0:0:
320,192,57136,1,0,0:0:0:0:
448,192,57245,1,0,0:0:0:0:
320,192,57281,1,0,0:0:0:0:
192,192,57317,1,0,0:0:0:0:
448,192,57354,1,0,0:0:0:0:
320,192,57408,1,0,0:0:0:0:
192,192,57463,1,0,0:0:0:0:
64,192,57463,1,0,0:0:0:0:
64,192,57572,1,0,0:0:0:0:
448,192,57572,1,0,0:0:0:0:
320,192,57645,1,0,0:0:0:0:
64,192,57717,1,0,0:0:0:0:
320,192,57790,1,0,0:0:0:0:
448,192,57790,1,0,0:0:0:0:
192,192,57863,1,0,0:0:0:0:
448,192,57936,1,0,0:0:0:0:
192,192,58008,1,0,0:0:0:0:
64,192,58008,1,0,0:0:0:0:
320,192,58081,1,0,0:0:0:0:
64,192,58154,1,0,0:0:0:0:
320,192,58227,1,0,0:0:0:0:
448,192,58227,1,0,0:0:0:0:
192,192,58299,1,0,0:0:0:0:
64,192,58372,1,0,0:0:0:0:
320,192,58445,1,0,0:0:0:0:
448,192,58445,1,0,0:0:0:0:
448,192,58554,1,0,0:0:0:0:
64,192,58554,1,0,0:0:0:0:
192,192,58663,1,0,0:0:0:0:
320,192,58663,1,0,0:0:0:0:
64,192,58772,1,0,0:0:0:0:
320,192,58772,1,0,0:0:0:0:
192,192,58881,1,0,0:0:0:0:
448,192,58881,1,0,0:0:0:0:
320,192,58990,1,0,0:0:0:0:
448,192,58990,1,0,0:0:0:0:
192,192,59099,1,0,0:0:0:0:
64,192,59099,1,0,0:0:0:0:
64,192,59208,1,0,0:0:0:0:
320,192,59208,1,0,0:0:0:0:
192,192,59317,1,0,0:0:0:0:
320,192,59317,1,0,0:0:0:0:
448,192,59317,1,0,0:0:0:0:
192,192,59427,1,0,0:0:0:0:
64,192,59427,1,0,0:0:0:0:
320,192,59536,1,0,0:0:0:0:
448,192,59536,1,0,0:0:0:0:
448,192,59645,1,0,0:0:0:0:
64,192,59645,1,0,0:0:0:0:
320,192,59754,1,0,0:0:0:0:
192,192,59754,1,0,0:0:0:0:
192,192,59863,1,0,0:0:0:0:
64,192,59863,1,0,0:0:0:0:
320,192,59972,1,0,0:0:0:0:
448,192,59972,1,0,0:0:0:0:
64,192,60081,1,0,0:0:0:0:
192,192,60190,1,0,0:0:0:0:
448,192,60190,1,0,0:0:0:0:
64,192,60299,1,0,0:0:0:0:
192,192,60354,1,0,0:0:0:0:
320,192,60408,1,0,0:0:0:0:
448,192,60408,1,0,0:0:0:0:
192,192,60517,1,0,0:0:0:0:
320,192,60572,1,0,0:0:0:0:
448,192,60627,1,0,0:0:0:0:
64,192,60627,1,0,0:0:0:0:
320,192,60736,1,0,0:0:0:0:
448,192,60790,1,0,0:0:0:0:
192,192,60845,1,0,0:0:0:0:
64,192,60845,1,0,0:0:0:0:
320,192,60954,1,0,0:0:0:0:
192,192,61008,1,0,0:0:0:0:
448,192,61063,1,0,0:0:0:0:
64,192,61063,1,0,0:0:0:0:
320,192,61117,1,0,0:0:0:0:
192,192,61172,1,0,0:0:0:0:
64,192,61227,1,0,0:0:0:0:
448,192,61281,1,0,0:0:0:0:
320,192,61317,1,0,0:0:0:0:
192,192,61354,1,0,0:0:0:0:
64,192,61390,1,0,0:0:0:0:
448,192,61427,1,0,0:0:0:0:
320,192,61463,1,0,0:0:0:0:
192,192,61499,1,0,0:0:0:0:
64,192,61608,1,0,0:0:0:0:
192,192,61645,1,0,0:0:0:0:
320,192,61681,1,0,0:0:0:0:
448,192,61717,1,0,0:0:0:0:
64,192,61717,1,0,0:0:0:0:
448,192,61936,1,0,0:0:0:0:
192,192,61936,1,0,0:0:0:0:
64,192,61990,1,0,0:0:0:0:
320,192,62045,1,0,0:0:0:0:
64,192,62099,1,0,0:0:0:0:
192,192,62154,1,0,0:0:0:0:
448,192,62154,1,0,0:0:0:0:
320,192,62208,1,0,0:0:0:0:
64,192,62263,1,0,0:0:0:0:
192,192,62317,1,0,0:0:0:0:
448,192,62372,1,0,0:0:0:0:
320,192,62372,1,0,0:0:0:0:
64,192,62427,1,0,0:0:0:0:
448,192,62481,1,0,0:0:0:0:
64,192,62536,1,0,0:0:0:0:
320,192,62590,1,0,0:0:0:0:
192,192,62590,1,0,0:0:0:0:
448,192,62645,1,0,0:0:0:0:
64,192,62699,1,0,0:0:0:0:
192,192,62754,1,0,0:0:0:0:
320,192,62808,1,0,0:0:0:0:
64,192,62808,1,0,0:0:0:0:
448,192,62863,1,0,0:0:0:0:
192,192,62917,1,0,0:0:0:0:
448,192,62972,1,0,0:0:0:0:
64,192,63027,1,0,0:0:0:0:
320,192,63027,1,0,0:0:0:0:
192,192,63081,1,0,0:0:0:0:
448,192,63136,1,0,0:0:0:0:
320,192,63190,1,0,0:0:0:0:
64,192,63245,1,0,0:0:0:0:
192,192,63245,1,0,0:0:0:0:
448,192,63299,1,0,0:0:0:0:
320,192,63354,1,0,0:0:0:0:
192,192,63408,1,0,0:0:0:0:
448,192,63463,1,0,0:0:0:0:
64,192,63463,1,0,0:0:0:0:
320,192,63517,1,0,0:0:0:0:
192,192,63572,1,0,0:0:0:0:
64,192,63627,1,0,0:0:0:0:
320,192,63681,1,0,0:0:0:0:
448,192,63681,1,0,0:0:0:0:
192,192,64554,128,0,64990:0:0:0:0:
320,192,64990,128,0,65427:0:0:0:0:
448,192,65427,128,0,65863:0:0:0:0:
192,192,65863,128,0,66081:0:0:0:0:
64,192,65863,128,0,66736:0:0:0:0:
192,192,66299,128,0,66736:0:0:0:0:
320,192,66299,128,0,66517:0:0:0:0:
320,192,66736,1,0,0:0:0:0:
448,192,66736,1,0,0:0:0:0:
192,192,67063,128,0,67281:0:0:0:0:
448,192,67281,128,0,67390:0:0:0:0:
320,192,67390,128,0,67499:0:0:0:0:
192,192,67390,1,0,0:0:0:0:
64,192,67390,1,0,0:0:0:0:
448,192,67499,128,0,67608:0:0:0:0:
192,192,67608,128,0,67717:0:0:0:0:
64,192,67608,1,0,0:0:0:0:
320,192,67717,1,0,0:0:0:0:
448,192,67717,128,0,67827:0:0:0:0:
192,192,67827,1,0,0:0:0:0:
64,192,67827,1,0,0:0:0:0:
320,192,67936,128,0,68154:0:0:0:0:
448,192,67936,1,0,0:0:0:0:
64,192,68154,128,0,68263:0:0:0:0:
448,192,68154,1,0,0:0:0:0:
192,192,68263,128,0,68372:0:0:0:0:
320,192,68263,1,0,0:0:0:0:
64,192,68372,128,0,68481:0:0:0:0:
320,192,68481,128,0,68590:0:0:0:0:
448,192,68481,1,0,0:0:0:0:
64,192,68590,128,0,68699:0:0:0:0:
192,192,68590,1,0,0:0:0:0:
320,192,68699,1,0,0:0:0:0:
448,192,68699,1,0,0:0:0:0:
192,192,68808,128,0,69027:0:0:0:0:
64,192,68808,1,0,0:0:0:0:
448,192,69027,128,0,69136:0:0:0:0:
64,192,69136,1,0,0:0:0:0:
320,192,69136,128,0,69245:0:0:0:0:
192,192,69136,1,0,0:0:0:0:
448,192,69245,128,0,69354:0:0:0:0:
192,192,69354,128,0,69463:0:0:0:0:
64,192,69354,1,0,0:0:0:0:
448,192,69463,1,0,0:0:0:0:
320,192,69463,128,0,69572:0:0:0:0:
192,192,69572,1,0,0:0:0:0:
64,192,69572,1,0,0:0:0:0:
320,192,69681,1,0,0:0:0:0:
448,192,69681,128,0,70008:0:0:0:0:
192,192,69899,1,0,0:0:0:0:
320,192,70008,1,0,0:0:0:0:
64,192,70008,128,0,70227:0:0:0:0:
192,192,70117,1,0,0:0:0:0:
448,192,70227,1,0,0:0:0:0:
320,192,70227,1,0,0:0:0:0:
192,192,70281,1,0,0:0:0:0:
64,192,70336,1,0,0:0:0:0:
320,192,70390,1,0,0:0:0:0:
192,192,70445,1,0,0:0:0:0:
448,192,70445,128,0,70554:0:0:0:0:
64,192,70554,1,0,0:0:0:0:
320,192,70554,128,0,70881:0:0:0:0:
448,192,70772,1,0,0:0:0:0:
192,192,70881,128,0,71045:0:0:0:0:
64,192,70881,1,0,0:0:0:0:
192,192,71099,128,0,71317:0:0:0:0:
64,192,71099,1,0,0:0:0:0:
448,192,71208,1,0,0:0:0:0:
64,192,71317,128,0,71427:0:0:0:0:
320,192,71317,1,0,0:0:0:0:
448,192,71427,128,0,71754:0:0:0:0:
192,192,71427,1,0,0:0:0:0:
64,192,71645,1,0,0:0:0:0:
320,192,71754,128,0,71972:0:0:0:0:
192,192,71754,1,0,0:0:0:0:
448,192,71863,1,0,0:0:0:0:
64,192,71972,1,0,0:0:0:0:
192,192,71972,1,0,0:0:0:0:
320,192,72027,1,0,0:0:0:0:
448,192,72081,1,0,0:0:0:0:
64,192,72136,1,0,0:0:0:0:
192,192,72190,128,0,72408:0:0:0:0:
320,192,72190,1,0,0:0:0:0:
448,192,72299,1,0,0:0:0:0:
320,192,72408,128,0,72736:0:0:0:0:
64,192,72517,1,0,0:0:0:0:
192,192,72627,1,0,0:0:0:0:
64,192,72736,128,0,73499:0:0:0:0:
448,192,72736,1,0,0:0:0:0:
320,192,72845,1,0,0:0:0:0:
448,192,72954,1,0,0:0:0:0:
320,192,73008,1,0,0:0:0:0:
192,192,73063,1,0,0:0:0:0:
448,192,73172,1,0,0:0:0:0:
448,192,73390,1,0,0:0:0:0:
192,192,73499,128,0,73608:0:0:0:0:
320,192,73499,1,0,0:0:0:0:
448,192,73608,1,0,0:0:0:0:
192,192,73717,1,0,0:0:0:0:
64,192,73717,1,0,0:0:0:0:
320,192,73772,1,0,0:0:0:0:
448,192,73827,1,0,0:0:0:0:
64,192,73881,1,0,0:0:0:0:
192,192,73936,1,0,0:0:0:0:
320,192,73936,1,0,0:0:0:0:
448,192,73990,1,0,0:0:0:0:
64,192,74045,1,0,0:0:0:0:
320,192,74099,1,0,0:0:0:0:
192,192,74154,128,0,74372:0:0:0:0:
448,192,74154,1,0,0:0:0:0:
64,192,74372,1,0,0:0:0:0:
448,192,74372,1,0,0:0:0:0:
64,192,74481,128,0,74699:0:0:0:0:
320,192,74590,1,0,0:0:0:0:
448,192,74699,128,0,74917:0:0:0:0:
192,192,74699,1,0,0:0:0:0:
64,192,74808,1,0,0:0:0:0:
320,192,74917,128,0,75136:0:0:0:0:
192,192,74917,1,0,0:0:0:0:
192,192,75136,1,0,0:0:0:0:
64,192,75136,1,0,0:0:0:0:
320,192,75190,1,0,0:0:0:0:
192,192,75245,128,0,75463:0:0:0:0:
448,192,75245,1,0,0:0:0:0:
448,192,75463,1,0,0:0:0:0:
64,192,75463,1,0,0:0:0:0:
320,192,75517,1,0,0:0:0:0:
192,192,75572,1,0,0:0:0:0:
64,192,75627,1,0,0:0:0:0:
320,192,75681,1,0,0:0:0:0:
448,192,75681,1,0,0:0:0:0:
192,192,75736,1,0,0:0:0:0:
64,192,75790,1,0,0:0:0:0:
320,192,75845,1,0,0:0:0:0:
192,192,75899,128,0,76117:0:0:0:0:
448,192,75899,128,0,76117:0:0:0:0:
320,192,76117,1,0,0:0:0:0:
64,192,76117,1,0,0:0:0:0:
320,192,76227,128,0,76445:0:0:0:0:
64,192,76227,128,0,76445:0:0:0:0:
192,192,76445,1,0,0:0:0:0:
448,192,76445,1,0,0:0:0:0:
320,192,76663,1,0,0:0:0:0:
448,192,76663,128,0,76881:0:0:0:0:
64,192,76663,128,0,76881:0:0:0:0:
320,192,76881,1,0,0:0:0:0:
192,192,76881,1,0,0:0:0:0:
64,192,76990,128,0,77208:0:0:0:0:
448,192,76990,1,0,0:0:0:0:
192,192,77099,1,0,0:0:0:0:
320,192,77208,1,0,0:0:0:0:
448,192,77208,1,0,0:0:0:0:
192,192,77263,1,0,0:0:0:0:
64,192,77317,1,0,0:0:0:0:
320,192,77372,1,0,0:0:0:0:
192,192,77427,1,0,0:0:0:0:
448,192,77427,1,0,0:0:0:0:
64,192,77481,1,0,0:0:0:0:
320,192,77536,1,0,0:0:0:0:
448,192,77590,1,0,0:0:0:0:
64,192,77645,1,0,0:0:0:0:
192,192,77645,1,0,0:0:0:0:
448,192,77754,1,0,0:0:0:0:
64,192,77808,1,0,0:0:0:0:
320,192,77863,1,0,0:0:0:0:
448,192,77972,1,0,0:0:0:0:
192,192,77972,1,0,0:0:0:0:
64,192,77972,1,0,0:0:0:0:
320,192,78190,1,0,0:0:0:0:
64,192,78190,1,0,0:0:0:0:
448,192,78190,1,0,0:0:0:0:
192,192,78408,128,0,78627:0:0:0:0:
320,192,78408,128,0,78517:0:0:0:0:
448,192,78408,1,0,0:0:0:0:
64,192,78627,1,0,0:0:0:0:
192,192,78681,1,0,0:0:0:0:
320,192,78736,1,0,0:0:0:0:
448,192,78736,1,0,0:0:0:0:
192,192,78790,1,0,0:0:0:0:
64,192,78845,1,0,0:0:0:0:
320,192,78899,1,0,0:0:0:0:
192,192,78954,1,0,0:0:0:0:
448,192,78954,1,0,0:0:0:0:
64,192,79008,1,0,0:0:0:0:
320,192,79063,1,0,0:0:0:0:
192,192,79117,1,0,0:0:0:0:
64,192,79172,1,0,0:0:0:0:
448,192,79172,1,0,0:0:0:0:
320,192,79227,1,0,0:0:0:0:
192,192,79281,1,0,0:0:0:0:
64,192,79336,1,0,0:0:0:0:
320,192,79390,1,0,0:0:0:0:
448,192,79390,1,0,0:0:0:0:
64,192,79445,1,0,0:0:0:0:
192,192,79499,1,0,0:0:0:0:
320,192,79554,1,0,0:0:0:0:
64,192,79608,1,0,0:0:0:0:
448,192,79608,1,0,0:0:0:0:
192,192,79717,1,0,0:0:0:0:
64,192,79717,1,0,0:0:0:0:
448,192,79772,1,0,0:0:0:0:
320,192,79827,1,0,0:0:0:0:
192,192,79881,1,0,0:0:0:0:
448,192,79936,1,0,0:0:0:0:
64,192,79936,1,0,0:0:0:0:
448,192,80045,1,0,0:0:0:0:
320,192,80045,1,0,0:0:0:0:
64,192,80099,1,0,0:0:0:0:
192,192,80154,1,0,0:0:0:0:
320,192,80263,1,0,0:0:0:0:
192,192,80317,1,0,0:0:0:0:
64,192,80372,1,0,0:0:0:0:
448,192,80372,1,0,0:0:0:0:
320,192,80481,1,0,0:0:0:0:
192,192,80481,1,0,0:0:0:0:
320,192,80590,1,0,0:0:0:0:
192,192,80590,1,0,0:0:0:0:
448,192,80699,1,0,0:0:0:0:
64,192,80699,1,0,0:0:0:0:
192,192,80754,1,0,0:0:0:0:
320,192,80808,1,0,0:0:0:0:
448,192,80863,1,0,0:0:0:0:
192,192,80917,1,0,0:0:0:0:
64,192,80972,1,0,0:0:0:0:
320,192,81027,128,0,81245:0:0:0:0:
192,192,81245,1,0,0:0:0:0:
320,192,81299,1,0,0:0:0:0:
448,192,81354,128,0,81463:0:0:0:0:
64,192,81354,128,0,81463:0:0:0:0:
192,192,81463,1,0,0:0:0:0:
448,192,81572,128,0,81681:0:0:0:0:
64,192,81572,128,0,81681:0:0:0:0:
320,192,81681,1,0,0:0:0:0:
64,192,81790,128,0,81899:0:0:0:0:
448,192,81790,128,0,81899:0:0:0:0:
192,192,81899,1,0,0:0:0:0:
64,192,82008,128,0,82117:0:0:0:0:
192,192,82117,128,0,82227:0:0:0:0:
448,192,82117,1,0,0:0:0:0:
320,192,82227,1,0,0:0:0:0:
64,192,82227,1,0,0:0:0:0:
448,192,82336,128,0,82554:0:0:0:0:
192,192,82445,1,0,0:0:0:0:
320,192,82554,128,0,82663:0:0:0:0:
64,192,82554,1,0,0:0:0:0:
448,192,82663,1,0,0:0:0:0:
192,192,82663,1,0,0:0:0:0:
192,192,82772,128,0,82990:0:0:0:0:
64,192,82772,1,0,0:0:0:0:
320,192,82990,1,0,0:0:0:0:
192,192,83045,1,0,0:0:0:0:
64,192,83099,128,0,83208:0:0:0:0:
448,192,83099,1,0,0:0:0:0:
192,192,83208,1,0,0:0:0:0:
320,192,83317,128,0,83427:0:0:0:0:
64,192,83317,1,0,0:0:0:0:
192,192,83427,1,0,0:0:0:0:
448,192,83427,128,0,83536:0:0:0:0:
320,192,83536,1,0,0:0:0:0:
64,192,83536,1,0,0:0:0:0:
64,192,83645,128,0,83972:0:0:0:0:
448,192,83645,1,0,0:0:0:0:
320,192,83863,1,0,0:0:0:0:
192,192,83972,128,0,84136:0:0:0:0:
448,192,83972,1,0,0:0:0:0:
320,192,84081,1,0,0:0:0:0:
192,192,84190,128,0,84299:0:0:0:0:
64,192,84190,1,0,0:0:0:0:
448,192,84299,1,0,0:0:0:0:
320,192,84354,1,0,0:0:0:0:
192,192,84408,1,0,0:0:0:0:
64,192,84408,1,0,0:0:0:0:
320,192,84517,128,0,84736:0:0:0:0:
64,192,84517,1,0,0:0:0:0:
192,192,84736,1,0,0:0:0:0:
448,192,84736,1,0,0:0:0:0:
320,192,84845,1,0,0:0:0:0:
64,192,84845,1,0,0:0:0:0:
192,192,84954,1,0,0:0:0:0:
64,192,85063,1,0,0:0:0:0:
448,192,85063,1,0,0:0:0:0:
320,192,85117,1,0,0:0:0:0:
192,192,85172,1,0,0:0:0:0:
64,192,85227,1,0,0:0:0:0:
320,192,85281,1,0,0:0:0:0:
192,192,85281,1,0,0:0:0:0:
448,192,85390,128,0,85608:0:0:0:0:
64,192,85390,1,0,0:0:0:0:
192,192,85608,1,0,0:0:0:0:
320,192,85608,1,0,0:0:0:0:
64,192,85717,128,0,85936:0:0:0:0:
448,192,85717,1,0,0:0:0:0:
320,192,85827,1,0,0:0:0:0:
448,192,85936,1,0,0:0:0:0:
192,192,85936,1,0,0:0:0:0:
320,192,85990,1,0,0:0:0:0:
64,192,86045,1,0,0:0:0:0:
192,192,86099,1,0,0:0:0:0:
320,192,86154,1,0,0:0:0:0:
448,192,86154,1,0,0:0:0:0:
64,192,86208,1,0,0:0:0:0:
320,192,86263,1,0,0:0:0:0:
448,192,86317,1,0,0:0:0:0:
192,192,86372,1,0,0:0:0:0:
64,192,86372,1,0,0:0:0:0:
320,192,86427,1,0,0:0:0:0:
448,192,86481,1,0,0:0:0:0:
192,192,86536,1,0,0:0:0:0:
64,192,86590,1,0,0:0:0:0:
320,192,86590,1,0,0:0:0:0:
448,192,86645,1,0,0:0:0:0:
192,192,86699,1,0,0:0:0:0:
320,192,86754,1,0,0:0:0:0:
448,192,86808,1,0,0:0:0:0:
64,192,86808,1,0,0:0:0:0:
320,192,86863,1,0,0:0:0:0:
192,192,86917,1,0,0:0:0:0:
320,192,86972,1,0,0:0:0:0:
64,192,87027,1,0,0:0:0:0:
448,192,87027,1,0,0:0:0:0:
192,192,87081,1,0,0:0:0:0:
320,192,87136,1,0,0:0:0:0:
192,192,87190,1,0,0:0:0:0:
448,192,87245,1,0,0:0:0:0:
64,192,87245,1,0,0:0:0:0:
320,192,87299,1,0,0:0:0:0:
192,192,87354,1,0,0:0:0:0:
64,192,87408,1,0,0:0:0:0:
320,192,87463,1,0,0:0:0:0:
448,192,87463,1,0,0:0:0:0:
64,192,87517,1,0,0:0:0:0:
192,192,87572,1,0,0:0:0:0:
448,192,87627,1,0,0:0:0:0:
320,192,87681,1,0,0:0:0:0:
64,192,87681,1,0,0:0:0:0:
192,192,87736,1,0,0:0:0:0:
448,192,87790,1,0,0:0:0:0:
320,192,87845,1,0,0:0:0:0:
64,192,87899,1,0,0:0:0:0:
192,192,87899,128,0,88117:0:0:0:0:
320,192,88117,1,0,0:0:0:0:
448,192,88117,1,0,0:0:0:0:
192,192,88172,1,0,0:0:0:0:
64,192,88227,1,0,0:0:0:0:
320,192,88281,1,0,0:0:0:0:
192,192,88336,1,0,0:0:0:0:
448,192,88336,1,0,0:0:0:0:
320,192,88554,128,0,88663:0:0:0:0:
448,192,88554,1,0,0:0:0:0:
192,192,88663,128,0,88772:0:0:0:0:
64,192,88663,1,0,0:0:0:0:
320,192,88772,1,0,0:0:0:0:
448,192,88772,1,0,0:0:0:0:
192,192,88881,1,0,0:0:0:0:
64,192,88881,128,0,89208:0:0:0:0:
448,192,89099,1,0,0:0:0:0:
320,192,89208,1,0,0:0:0:0:
192,192,89208,1,0,0:0:0:0:
448,192,89317,1,0,0:0:0:0:
320,192,89372,1,0,0:0:0:0:
192,192,89427,1,0,0:0:0:0:
64,192,89427,1,0,0:0:0:0:
448,192,89481,1,0,0:0:0:0:
320,192,89536,1,0,0:0:0:0:
192,192,89590,1,0,0:0:0:0:
448,192,89645,1,0,0:0:0:0:
64,192,89645,1,0,0:0:0:0:
320,192,89754,1,0,0:0:0:0:
192,192,89754,1,0,0:0:0:0:
320,192,90008,1,0,0:0:0:0:
448,192,90008,1,0,0:0:0:0:
64,192,90008,1,0,0:0:0:0:
320,192,90154,1,0,0:0:0:0:
448,192,90154,1,0,0:0:0:0:
64,192,90154,1,0,0:0:0:0:
192,192,90299,1,0,0:0:0:0:
64,192,90299,1,0,0:0:0:0:
448,192,90299,1,0,0:0:0:0:
320,192,90445,1,0,0:0:0:0:
448,192,90445,1,0,0:0:0:0:
64,192,90445,1,0,0:0:0:0:
192,192,90590,1,0,0:0:0:0:
64,192,90590,1,0,0:0:0:0:
448,192,90590,1,0,0:0:0:0:
192,192,90736,1,0,0:0:0:0:
320,192,90736,1,0,0:0:0:0:
448,192,90736,128,0,90954:0:0:0:0:
64,192,90954,1,0,0:0:0:0:
192,192,91008,1,0,0:0:0:0:
320,192,91063,1,0,0:0:0:0:
448,192,91117,1,0,0:0:0:0:
192,192,91172,1,0,0:0:0:0:
64,192,91172,128,0,91390:0:0:0:0:
448,192,91390,1,0,0:0:0:0:
320,192,91390,128,0,91608:0:0:0:0:
192,192,91608,1,0,0:0:0:0:
64,192,91608,1,0,0:0:0:0:
448,192,91717,1,0,0:0:0:0:
320,192,91772,1,0,0:0:0:0:
192,192,91827,1,0,0:0:0:0:
64,192,91827,1,0,0:0:0:0:
64,192,91936,1,0,0:0:0:0:
448,192,91936,1,0,0:0:0:0:
192,192,92045,1,0,0:0:0:0:
64,192,92099,1,0,0:0:0:0:
320,192,92154,1,0,0:0:0:0:
448,192,92154,1,0,0:0:0:0:
448,192,92263,1,0,0:0:0:0:
64,192,92263,1,0,0:0:0:0:
192,192,92372,1,0,0:0:0:0:
320,192,92427,1,0,0:0:0:0:
448,192,92481,1,0,0:0:0:0:
64,192,92481,1,0,0:0:0:0:
192,192,92590,1,0,0:0:0:0:
64,192,92590,1,0,0:0:0:0:
320,192,92699,1,0,0:0:0:0:
192,192,92754,1,0,0:0:0:0:
64,192,92808,1,0,0:0:0:0:
448,192,92808,1,0,0:0:0:0:
320,192,92917,1,0,0:0:0:0:
448,192,92917,1,0,0:0:0:0:
192,192,92972,1,0,0:0:0:0:
64,192,93027,1,0,0:0:0:0:
320,192,93081,1,0,0:0:0:0:
192,192,93136,1,0,0:0:0:0:
64,192,93190,1,0,0:0:0:0:
448,192,93245,1,0,0:0:0:0:
320,192,93299,1,0,0:0:0:0:
192,192,93354,1,0,0:0:0:0:
64,192,93681,1,0,0:0:0:0:
448,192,94008,1,0,0:0:0:0:
192,192,94336,1,0,0:0:0:0:
448,192,94445,1,0,0:0:0:0:
64,192,94445,1,0,0:0:0:0:
320,192,94554,1,0,0:0:0:0:
64,192,94663,128,0,94827:0:0:0:0:
448,192,94663,1,0,0:0:0:0:
192,192,94827,128,0,94990:0:0:0:0:
448,192,94881,1,0,0:0:0:0:
320,192,94990,128,0,95099:0:0:0:0:
192,192,95099,1,0,0:0:0:0:
64,192,95099,1,0,0:0:0:0:
448,192,95154,1,0,0:0:0:0:
64,192,95208,1,0,0:0:0:0:
192,192,95263,1,0,0:0:0:0:
320,192,95317,1,0,0:0:0:0:
448,192,95317,1,0,0:0:0:0:
64,192,95372,1,0,0:0:0:0:
448,192,95427,1,0,0:0:0:0:
320,192,95481,1,0,0:0:0:0:
192,192,95536,1,0,0:0:0:0:
64,192,95536,1,0,0:0:0:0:
448,192,95590,1,0,0:0:0:0:
64,192,95645,1,0,0:0:0:0:
192,192,95699,1,0,0:0:0:0:
448,192,95754,1,0,0:0:0:0:
320,192,95754,1,0,0:0:0:0:
64,192,95808,1,0,0:0:0:0:
192,192,95863,1,0,0:0:0:0:
320,192,95917,1,0,0:0:0:0:
192,192,95972,1,0,0:0:0:0:
64,192,95972,1,0,0:0:0:0:
448,192,96027,1,0,0:0:0:0:
64,192,96081,1,0,0:0:0:0:
192,192,96136,1,0,0:0:0:0:
320,192,96190,1,0,0:0:0:0:
448,192,96190,1,0,0:0:0:0:
64,192,96245,1,0,0:0:0:0:
448,192,96299,1,0,0:0:0:0:
320,192,96354,1,0,0:0:0:0:
64,192,96408,1,0,0:0:0:0:
192,192,96408,1,0,0:0:0:0:
448,192,96463,1,0,0:0:0:0:
64,192,96517,1,0,0:0:0:0:
192,192,96572,1,0,0:0:0:0:
320,192,96627,1,0,0:0:0:0:
448,192,96627,1,0,0:0:0:0:
64,192,96681,1,0,0:0:0:0:
192,192,96736,1,0,0:0:0:0:
320,192,96790,1,0,0:0:0:0:
448,192,96845,128,0,97717:0:0:0:0:
64,192,96845,128,0,97281:0:0:0:0:
192,192,97717,128,0,98372:0:0:0:0:
64,192,98045,128,0,98372:0:0:0:0:
320,192,98045,128,0,98372:0:0:0:0:
448,192,98372,1,0,0:0:0:0:
64,192,98590,1,0,0:0:0:0:
192,192,98590,1,0,0:0:0:0:
448,192,98590,1,0,0:0:0:0:
320,192,98645,1,0,0:0:0:0:
192,192,98699,1,0,0:0:0:0:
64,192,98754,1,0,0:0:0:0:
448,192,98808,1,0,0:0:0:0:
320,192,98863,1,0,0:0:0:0:
192,192,98917,1,0,0:0:0:0:
448,192,98972,1,0,0:0:0:0:
64,192,99027,1,0,0:0:0:0:
192,192,99081,1,0,0:0:0:0:
320,192,99136,1,0,0:0:0:0:
64,192,99190,1,0,0:0:0:0:
448,192,99245,1,0,0:0:0:0:
320,192,99299,1,0,0:0:0:0:
64,192,99354,1,0,0:0:0:0:
192,192,99408,1,0,0:0:0:0:
320,192,99463,1,0,0:0:0:0:
448,192,99517,1,0,0:0:0:0:
192,192,99572,1,0,0:0:0:0:
320,192,99627,1,0,0:0:0:0:
64,192,99681,1,0,0:0:0:0:
192,192,99736,1,0,0:0:0:0:
320,192,99790,1,0,0:0:0:0:
64,192,99845,1,0,0:0:0:0:
448,192,99899,1,0,0:0:0:0:
320,192,99954,1,0,0:0:0:0:
192,192,100008,1,0,0:0:0:0:
64,192,100063,1,0,0:0:0:0:
192,192,100117,1,0,0:0:0:0:
320,192,100172,1,0,0:0:0:0:
448,192,100227,1,0,0:0:0:0:
192,192,100281,1,0,0:0:0:0:
448,192,100336,1,0,0:0:0:0:
64,192,100336,1,0,0:0:0:0:
320,192,100390,1,0,0:0:0:0:
192,192,100445,1,0,0:0:0:0:
64,192,100499,1,0,0:0:0:0:
448,192,100554,1,0,0:0:0:0:
320,192,100608,1,0,0:0:0:0:
192,192,100663,1,0,0:0:0:0:
448,192,100717,1,0,0:0:0:0:
64,192,100772,1,0,0:0:0:0:
192,192,100827,1,0,0:0:0:0:
320,192,100881,1,0,0:0:0:0:
64,192,100936,1,0,0:0:0:0:
448,192,100990,1,0,0:0:0:0:
320,192,101045,1,0,0:0:0:0:
64,192,101099,1,0,0:0:0:0:
192,192,101154,1,0,0:0:0:0:
320,192,101208,1,0,0:0:0:0:
64,192,101208,1,0,0:0:0:0:
448,192,101263,1,0,0:0:0:0:
192,192,101317,1,0,0:0:0:0:
320,192,101372,1,0,0:0:0:0:
64,192,101427,1,0,0:0:0:0:
192,192,101481,1,0,0:0:0:0:
320,192,101536,1,0,0:0:0:0:
64,192,101590,1,0,0:0:0:0:
448,192,101645,1,0,0:0:0:0:
192,192,101645,1,0,0:0:0:0:
320,192,101699,1,0,0:0:0:0:
192,192,101754,1,0,0:0:0:0:
64,192,101808,1,0,0:0:0:0:
320,192,101863,1,0,0:0:0:0:
448,192,101917,1,0,0:0:0:0:
192,192,101972,1,0,0:0:0:0:
320,192,102027,1,0,0:0:0:0:
448,192,102081,1,0,0:0:0:0:
64,192,102081,1,0,0:0:0:0:
192,192,102136,1,0,0:0:0:0:
320,192,102190,1,0,0:0:0:0:
64,192,102245,1,0,0:0:0:0:
448,192,102299,1,0,0:0:0:0:
320,192,102354,1,0,0:0:0:0:
192,192,102408,1,0,0:0:0:0:
448,192,102463,1,0,0:0:0:0:
64,192,102517,1,0,0:0:0:0:
192,192,102572,1,0,0:0:0:0:
320,192,102627,1,0,0:0:0:0:
448,192,102681,1,0,0:0:0:0:
320,192,102736,1,0,0:0:0:0:
192,192,102790,1,0,0:0:0:0:
64,192,102845,1,0,0:0:0:0:
320,192,102899,1,0,0:0:0:0:
192,192,102954,1,0,0:0:0:0:
448,192,102954,1,0,0:0:0:0:
64,192,103008,1,0,0:0:0:0:
448,192,103063,1,0,0:0:0:0:
320,192,103117,1,0,0:0:0:0:
192,192,103172,1,0,0:0:0:0:
448,192,103227,1,0,0:0:0:0:
320,192,103281,1,0,0:0:0:0:
64,192,103281,1,0,0:0:0:0:
192,192,103336,1,0,0:0:0:0:
64,192,103390,1,0,0:0:0:0:
320,192,103445,1,0,0:0:0:0:
448,192,103499,1,0,0:0:0:0:
64,192,103554,1,0,0:0:0:0:
320,192,103608,1,0,0:0:0:0:
192,192,103608,1,0,0:0:0:0:
448,192,103663,1,0,0:0:0:0:
64,192,103717,1,0,0:0:0:0:
192,192,103772,1,0,0:0:0:0:
320,192,103827,1,0,0:0:0:0:
448,192,103827,1,0,0:0:0:0:
64,192,103881,1,0,0:0:0:0:
192,192,103936,1,0,0:0:0:0:
448,192,103936,1,0,0:0:0:0:
320,192,103990,1,0,0:0:0:0:
192,192,104045,1,0,0:0:0:0:
64,192,104045,1,0,0:0:0:0:
320,192,104263,1,0,0:0:0:0:
64,192,104263,1,0,0:0:0:0:
448,192,104317,1,0,0:0:0:0:
192,192,104372,1,0,0:0:0:0:
64,192,104372,1,0,0:0:0:0:
320,192,104427,1,0,0:0:0:0:
448,192,104481,1,0,0:0:0:0:
192,192,104481,1,0,0:0:0:0:
320,192,104590,1,0,0:0:0:0:
64,192,104590,1,0,0:0:0:0:
192,192,104645,1,0,0:0:0:0:
448,192,104699,1,0,0:0:0:0:
320,192,104699,1,0,0:0:0:0:
64,192,104754,1,0,0:0:0:0:
192,192,104808,1,0,0:0:0:0:
448,192,104863,1,0,0:0:0:0:
320,192,104917,1,0,0:0:0:0:
64,192,104917,1,0,0:0:0:0:
192,192,104972,1,0,0:0:0:0:
448,192,105027,1,0,0:0:0:0:
320,192,105081,1,0,0:0:0:0:
192,192,105136,1,0,0:0:0:0:
64,192,105136,1,0,0:0:0:0:
320,192,105190,1,0,0:0:0:0:
448,192,105245,1,0,0:0:0:0:
192,192,105299,1,0,0:0:0:0:
64,192,105354,1,0,0:0:0:0:
320,192,105408,1,0,0:0:0:0:
448,192,105463,1,0,0:0:0:0:
192,192,105517,1,0,0:0:0:0:
64,192,105572,1,0,0:0:0:0:
192,192,105645,1,0,0:0:0:0:
448,192,105717,1,0,0:0:0:0:
192,192,105790,1,0,0:0:0:0:
64,192,105790,1,0,0:0:0:0:
320,192,105790,1,0,0:0:0:0:
448,192,105863,1,0,0:0:0:0:
64,192,105936,1,0,0:0:0:0:
448,192,106008,1,0,0:0:0:0:
320,192,106008,1,0,0:0:0:0:
192,192,106081,1,0,0:0:0:0:
64,192,106081,1,0,0:0:0:0:
448,192,106154,1,0,0:0:0:0:
192,192,106227,1,0,0:0:0:0:
64,192,106227,1,0,0:0:0:0:
448,192,106299,1,0,0:0:0:0:
320,192,106299,1,0,0:0:0:0:
64,192,106372,1,0,0:0:0:0:
448,192,106445,1,0,0:0:0:0:
320,192,106445,1,0,0:0:0:0:
192,192,106517,1,0,0:0:0:0:
64,192,106517,1,0,0:0:0:0:
320,192,106590,1,0,0:0:0:0:
64,192,106663,1,0,0:0:0:0:
192,192,106663,1,0,0:0:0:0:
448,192,106736,1,0,0:0:0:0:
320,192,106736,1,0,0:0:0:0:
192,192,106808,1,0,0:0:0:0:
320,192,106881,1,0,0:0:0:0:
448,192,106881,1,0,0:0:0:0:
64,192,106954,1,0,0:0:0:0:
192,192,106954,1,0,0:0:0:0:
320,192,107027,1,0,0:0:0:0:
192,192,107099,1,0,0:0:0:0:
64,192,107099,1,0,0:0:0:0:
320,192,107172,1,0,0:0:0:0:
448,192,107172,1,0,0:0:0:0:
192,192,107245,1,0,0:0:0:0:
448,192,107317,1,0,0:0:0:0:
320,192,107317,1,0,0:0:0:0:
192,192,107390,1,0,0:0:0:0:
64,192,107390,1,0,0:0:0:0:
448,192,107463,1,0,0:0:0:0:
64,192,107536,1,0,0:0:0:0:
192,192,107536,1,0,0:0:0:0:
448,192,107608,1,0,0:0:0:0:
320,192,107608,1,0,0:0:0:0:
64,192,107681,1,0,0:0:0:0:
320,192,107754,1,0,0:0:0:0:
448,192,107754,1,0,0:0:0:0:
64,192,107827,1,0,0:0:0:0:
192,192,107827,1,0,0:0:0:0:
320,192,107899,1,0,0:0:0:0:
192,192,107972,1,0,0:0:0:0:
64,192,107972,1,0,0:0:0:0:
320,192,108045,1,0,0:0:0:0:
448,192,108045,1,0,0:0:0:0:
192,192,108117,1,0,0:0:0:0:
64,192,108190,1,0,0:0:0:0:
448,192,108190,1,0,0:0:0:0:
320,192,108245,1,0,0:0:0:0:
192,192,108299,1,0,0:0:0:0:
64,192,108354,1,0,0:0:0:0:
320,192,108408,1,0,0:0:0:0:
448,192,108408,1,0,0:0:0:0:
192,192,108463,1,0,0:0:0:0:
64,192,108517,1,0,0:0:0:0:
448,192,108572,1,0,0:0:0:0:
192,192,108627,1,0,0:0:0:0:
64,192,108627,1,0,0:0:0:0:
320,192,108699,1,0,0:0:0:0:
192,192,108772,1,0,0:0:0:0:
448,192,108845,1,0,0:0:0:0:
64,192,108845,1,0,0:0:0:0:
320,192,108917,1,0,0:0:0:0:
192,192,108990,1,0,0:0:0:0:
448,192,109063,1,0,0:0:0:0:
64,192,109063,1,0,0:0:0:0:
320,192,109172,1,0,0:0:0:0:
192,192,109227,1,0,0:0:0:0:
448,192,109281,1,0,0:0:0:0:
64,192,109281,1,0,0:0:0:0:
320,192,109336,1,0,0:0:0:0:
192,192,109390,1,0,0:0:0:0:
320,192,109499,1,0,0:0:0:0:
448,192,109499,1,0,0:0:0:0:
192,192,109608,1,0,0:0:0:0:
320,192,109663,1,0,0:0:0:0:
64,192,109717,1,0,0:0:0:0:
448,192,109717,1,0,0:0:0:0:
192,192,109772,1,0,0:0:0:0:
320,192,109827,1,0,0:0:0:0:
192,192,109936,1,0,0:0:0:0:
64,192,109936,1,0,0:0:0:0:
320,192,110045,1,0,0:0:0:0:
192,192,110099,1,0,0:0:0:0:
448,192,110154,1,0,0:0:0:0:
64,192,110154,1,0,0:0:0:0:
320,192,110208,1,0,0:0:0:0:
192,192,110263,1,0,0:0:0:0:
64,192,110317,1,0,0:0:0:0:
320,192,110372,1,0,0:0:0:0:
448,192,110372,1,0,0:0:0:0:
64,192,110427,1,0,0:0:0:0:
192,192,110481,1,0,0:0:0:0:
320,192,110536,1,0,0:0:0:0:
448,192,110590,1,0,0:0:0:0:
64,192,110590,1,0,0:0:0:0:
192,192,110645,1,0,0:0:0:0:
320,192,110699,1,0,0:0:0:0:
448,192,110754,1,0,0:0:0:0:
192,192,110808,1,0,0:0:0:0:
64,192,110808,1,0,0:0:0:0:
320,192,110863,1,0,0:0:0:0:
64,192,110917,1,0,0:0:0:0:
320,192,110972,1,0,0:0:0:0:
192,192,111027,1,0,0:0:0:0:
448,192,111027,1,0,0:0:0:0:
64,192,111081,1,0,0:0:0:0:
448,192,111136,1,0,0:0:0:0:
64,192,111190,1,0,0:0:0:0:
320,192,111245,1,0,0:0:0:0:
448,192,111245,1,0,0:0:0:0:
192,192,111299,1,0,0:0:0:0:
320,192,111354,1,0,0:0:0:0:
192,192,111408,1,0,0:0:0:0:
448,192,111463,1,0,0:0:0:0:
64,192,111463,1,0,0:0:0:0:
320,192,111681,1,0,0:0:0:0:
448,192,111681,1,0,0:0:0:0:
192,192,111736,1,0,0:0:0:0:
448,192,111790,1,0,0:0:0:0:
192,192,111845,1,0,0:0:0:0:
64,192,111899,1,0,0:0:0:0:
320,192,111899,1,0,0:0:0:0:
448,192,111954,1,0,0:0:0:0:
64,192,112008,1,0,0:0:0:0:
448,192,112063,1,0,0:0:0:0:
192,192,112117,1,0,0:0:0:0:
64,192,112117,1,0,0:0:0:0:
320,192,112172,1,0,0:0:0:0:
192,192,112227,1,0,0:0:0:0:
320,192,112281,1,0,0:0:0:0:
64,192,112336,1,0,0:0:0:0:
448,192,112336,1,0,0:0:0:0:
192,192,112390,1,0,0:0:0:0:
320,192,112445,1,0,0:0:0:0:
448,192,112499,1,0,0:0:0:0:
192,192,112554,1,0,0:0:0:0:
64,192,112554,128,0,114299:0:0:0:0:
320,192,114299,1,0,0:0:0:0:
448,192,114299,1,0,0:0:0:0:
192,192,114354,1,0,0:0:0:0:
64,192,114408,1,0,0:0:0:0:
448,192,114408,1,0,0:0:0:0:
320,192,114463,1,0,0:0:0:0:
192,192,114517,1,0,0:0:0:0:
64,192,114517,1,0,0:0:0:0:
448,192,114572,1,0,0:0:0:0:
320,192,114627,1,0,0:0:0:0:
192,192,114627,1,0,0:0:0:0:
64,192,114681,1,0,0:0:0:0:
448,192,114736,1,0,0:0:0:0:
320,192,114736,1,0,0:0:0:0:
192,192,114790,1,0,0:0:0:0:
64,192,114845,1,0,0:0:0:0:
448,192,114845,1,0,0:0:0:0:
320,192,114899,1,0,0:0:0:0:
192,192,114954,1,0,0:0:0:0:
64,192,114954,1,0,0:0:0:0:
448,192,115008,1,0,0:0:0:0:
320,192,115063,1,0,0:0:0:0:
192,192,115063,1,0,0:0:0:0:
64,192,115117,1,0,0:0:0:0:
320,192,115172,1,0,0:0:0:0:
448,192,115172,1,0,0:0:0:0:
192,192,115227,1,0,0:0:0:0:
64,192,115281,1,0,0:0:0:0:
320,192,115336,1,0,0:0:0:0:
448,192,115390,1,0,0:0:0:0:
192,192,115390,1,0,0:0:0:0:
320,192,115445,1,0,0:0:0:0:
64,192,115499,1,0,0:0:0:0:
448,192,115554,1,0,0:0:0:0:
192,192,115608,1,0,0:0:0:0:
320,192,115608,1,0,0:0:0:0:
192,192,115717,1,0,0:0:0:0:
448,192,115717,1,0,0:0:0:0:
448,192,115827,1,0,0:0:0:0:
64,192,115827,1,0,0:0:0:0:
320,192,115936,1,0,0:0:0:0:
64,192,115936,1,0,0:0:0:0:
