osu file format v14

[General]
AudioFilename: audio.mp3
AudioLeadIn: 0
PreviewTime: 66954
Countdown: 0
SampleSet: Normal
StackLeniency: 0.7
Mode: 3
LetterboxInBreaks: 0
SpecialStyle: 0
WidescreenStoryboard: 1

[Editor]
DistanceSpacing: 1
BeatDivisor: 4
GridSize: 32
TimelineZoom: 1.9

[Metadata]
Title:MixxioN
TitleUnicode:MixxioN
Artist:MisoilePunch
ArtistUnicode:MisoilePunch♪
Creator:Aruel
Version:ADVANCED
Source:SOUND VOLTEX EXCEED GEAR
Tags:misomyl みそみぃる ponchi grace グレイス HEXA DIVER アザレアの使命篇 Azalea no Shimei-hen The 10th KAC オリジナル楽曲コンテスト Original Song Contest 最優秀賞 Saiyuushuu-shou Grand Prize SDVX Konami Bemani Video Game Electronic Rock Instrumental
BeatmapID:3510036
BeatmapSetID:1717598

[Difficulty]
HPDrainRate:7
CircleSize:4
OverallDifficulty:7
ApproachRate:5
SliderMultiplier:1.4
SliderTickRate:1

[Events]
//Background and Video events
0,0,"bg.jpg",0,0
//Break Periods
//Storyboard Layer 0 (Background)
//Storyboard Layer 1 (Fail)
//Storyboard Layer 2 (Pass)
//Storyboard Layer 3 (Foreground)
//Storyboard Layer 4 (Overlay)
//Storyboard Sound Samples

[TimingPoints]
1718,218.181818181818,4,1,1,25,1,0
8808,-100,4,1,1,50,0,0
34008,-100,4,1,1,30,0,0
40990,-100,4,1,1,50,0,0
67390,-100,4,1,1,50,0,1
81027,-100,4,1,1,50,0,0
81354,-100,4,1,1,50,0,1
93354,-100,4,1,1,30,0,0
95099,-100,4,1,1,50,0,0
105790,-100,4,1,1,50,0,1
109063,-100,4,1,1,50,0,0

[HitObjects]
192,192,1717,128,0,2154:0:0:0:0:
448,192,2154,128,0,2590:0:0:0:0:
64,192,2590,128,0,3463:0:0:0:0:
192,192,3463,128,0,3899:0:0:0:0:
448,192,3899,128,0,4336:0:0:0:0:
64,192,4336,128,0,5208:0:0:0:0:
448,192,5208,128,0,5645:0:0:0:0:
192,192,5645,128,0,6081:0:0:0:0:
64,192,6081,1,0,0:0:0:0:
320,192,6517,1,0,0:0:0:0:
64,192,6954,1,0,0:0:0:0:
320,192,7390,1,0,0:0:0:0:
64,192,7827,128,0,8699:0:0:0:0:
448,192,8699,1,0,0:0:0:0:
320,192,8917,1,0,0:0:0:0:
64,192,9136,1,0,0:0:0:0:
192,192,9354,1,0,0:0:0:0:
448,192,9790,1,0,0:0:0:0:
64,192,9790,1,0,0:0:0:0:
192,192,10008,1,0,0:0:0:0:
320,192,10117,1,0,0:0:0:0:
64,192,10336,128,0,10554:0:0:0:0:
448,192,10663,1,0,0:0:0:0:
320,192,10772,1,0,0:0:0:0:
192,192,10881,1,0,0:0:0:0:
64,192,10990,1,0,0:0:0:0:
448,192,11099,1,0,0:0:0:0:
320,192,11317,128,0,11536:0:0:0:0:
192,192,11536,1,0,0:0:0:0:
448,192,11536,1,0,0:0:0:0:
64,192,11645,1,0,0:0:0:0:
320,192,11863,1,0,0:0:0:0:
192,192,12081,128,0,12299:0:0:0:0:
448,192,12299,1,0,0:0:0:0:
320,192,12408,1,0,0:0:0:0:
192,192,12517,1,0,0:0:0:0:
448,192,12627,1,0,0:0:0:0:
64,192,12736,1,0,0:0:0:0:
320,192,12845,1,0,0:0:0:0:
192,192,13063,128,0,13390:0:0:0:0:
448,192,13390,1,0,0:0:0:0:
64,192,13608,1,0,0:0:0:0:
448,192,13827,128,0,14154:0:0:0:0:
64,192,14154,128,0,14372:0:0:0:0:
448,192,14372,1,0,0:0:0:0:
192,192,14481,128,0,14699:0:0:0:0:
448,192,14699,128,0,16117:0:0:0:0:
64,192,14699,1,0,0:0:0:0:
64,192,16117,1,0,0:0:0:0:
192,192,16227,1,0,0:0:0:0:
320,192,16336,1,0,0:0:0:0:
448,192,16445,1,0,0:0:0:0:
64,192,16554,128,0,16845:0:0:0:0:
192,192,16845,1,0,0:0:0:0:
448,192,16990,128,0,17281:0:0:0:0:
320,192,17281,1,0,0:0:0:0:
192,192,17427,128,0,17717:0:0:0:0:
64,192,17717,1,0,0:0:0:0:
320,192,17863,128,0,18154:0:0:0:0:
448,192,18154,1,0,0:0:0:0:
192,192,18736,1,0,0:0:0:0:
320,192,18845,1,0,0:0:0:0:
192,192,18954,1,0,0:0:0:0:
320,192,19063,1,0,0:0:0:0:
192,192,19172,1,0,0:0:0:0:
320,192,19281,1,0,0:0:0:0:
64,192,19390,1,0,0:0:0:0:
448,192,19499,1,0,0:0:0:0:
64,192,19608,1,0,0:0:0:0:
448,192,19717,1,0,0:0:0:0:
192,192,19827,1,0,0:0:0:0:
320,192,20045,1,0,0:0:0:0:
64,192,20045,1,0,0:0:0:0:
192,192,20263,1,0,0:0:0:0:
320,192,20372,1,0,0:0:0:0:
192,192,20590,1,0,0:0:0:0:
448,192,20699,1,0,0:0:0:0:
192,192,20917,1,0,0:0:0:0:
320,192,21027,1,0,0:0:0:0:
192,192,21245,1,0,0:0:0:0:
448,192,21354,1,0,0:0:0:0:
320,192,21463,1,0,0:0:0:0:
192,192,21572,1,0,0:0:0:0:
64,192,21790,1,0,0:0:0:0:
192,192,22008,1,0,0:0:0:0:
320,192,22117,1,0,0:0:0:0:
192,192,22336,1,0,0:0:0:0:
448,192,22445,1,0,0:0:0:0:
192,192,22663,1,0,0:0:0:0:
320,192,22772,1,0,0:0:0:0:
192,192,22990,1,0,0:0:0:0:
448,192,23099,1,0,0:0:0:0:
320,192,23208,1,0,0:0:0:0:
192,192,23317,1,0,0:0:0:0:
448,192,23536,1,0,0:0:0:0:
320,192,23754,1,0,0:0:0:0:
192,192,23863,1,0,0:0:0:0:
320,192,24081,1,0,0:0:0:0:
64,192,24190,1,0,0:0:0:0:
320,192,24408,1,0,0:0:0:0:
192,192,24517,1,0,0:0:0:0:
320,192,24736,1,0,0:0:0:0:
64,192,24845,1,0,0:0:0:0:
192,192,24954,1,0,0:0:0:0:
320,192,25063,1,0,0:0:0:0:
448,192,25281,1,0,0:0:0:0:
320,192,25499,1,0,0:0:0:0:
192,192,25608,1,0,0:0:0:0:
320,192,25827,1,0,0:0:0:0:
64,192,25936,1,0,0:0:0:0:
320,192,26154,1,0,0:0:0:0:
192,192,26263,1,0,0:0:0:0:
320,192,26481,1,0,0:0:0:0:
64,192,26590,1,0,0:0:0:0:
192,192,26699,1,0,0:0:0:0:
320,192,26808,1,0,0:0:0:0:
448,192,26917,1,0,0:0:0:0:
192,192,27027,128,0,27245:0:0:0:0:
448,192,27245,1,0,0:0:0:0:
64,192,27245,1,0,0:0:0:0:
320,192,27463,1,0,0:0:0:0:
64,192,27681,1,0,0:0:0:0:
192,192,27790,1,0,0:0:0:0:
320,192,27899,1,0,0:0:0:0:
192,192,28063,1,0,0:0:0:0:
64,192,28227,1,0,0:0:0:0:
320,192,28336,1,0,0:0:0:0:
192,192,28554,1,0,0:0:0:0:
320,192,28663,1,0,0:0:0:0:
448,192,28772,1,0,0:0:0:0:
320,192,28881,1,0,0:0:0:0:
192,192,28990,1,0,0:0:0:0:
64,192,29099,1,0,0:0:0:0:
320,192,29208,1,0,0:0:0:0:
448,192,29372,1,0,0:0:0:0:
192,192,29536,1,0,0:0:0:0:
64,192,29645,1,0,0:0:0:0:
192,192,29863,1,0,0:0:0:0:
320,192,29972,1,0,0:0:0:0:
448,192,30081,1,0,0:0:0:0:
320,192,30245,1,0,0:0:0:0:
192,192,30408,1,0,0:0:0:0:
64,192,30517,1,0,0:0:0:0:
192,192,30736,1,0,0:0:0:0:
320,192,30845,1,0,0:0:0:0:
64,192,30954,1,0,0:0:0:0:
192,192,31117,1,0,0:0:0:0:
320,192,31281,1,0,0:0:0:0:
448,192,31390,1,0,0:0:0:0:
64,192,31608,1,0,0:0:0:0:
192,192,31717,1,0,0:0:0:0:
320,192,31827,1,0,0:0:0:0:
448,192,31936,1,0,0:0:0:0:
64,192,32045,1,0,0:0:0:0:
192,192,32154,1,0,0:0:0:0:
448,192,32263,1,0,0:0:0:0:
320,192,32372,1,0,0:0:0:0:
64,192,32590,1,0,0:0:0:0:
192,192,32699,1,0,0:0:0:0:
320,192,32917,1,0,0:0:0:0:
448,192,33027,1,0,0:0:0:0:
64,192,33245,1,0,0:0:0:0:
448,192,33354,1,0,0:0:0:0:
64,192,33463,1,0,0:0:0:0:
320,192,33572,1,0,0:0:0:0:
64,192,33681,1,0,0:0:0:0:
192,192,33790,1,0,0:0:0:0:
320,192,33899,1,0,0:0:0:0:
64,192,34008,128,0,34881:0:0:0:0:
192,192,34881,1,0,0:0:0:0:
320,192,35317,1,0,0:0:0:0:
192,192,35754,1,0,0:0:0:0:
448,192,36190,1,0,0:0:0:0:
320,192,36627,1,0,0:0:0:0:
192,192,37063,1,0,0:0:0:0:
64,192,37499,1,0,0:0:0:0:
192,192,38154,1,0,0:0:0:0:
320,192,38372,1,0,0:0:0:0:
64,192,38590,128,0,39245:0:0:0:0:
320,192,39245,1,0,0:0:0:0:
320,192,39572,1,0,0:0:0:0:
448,192,40336,1,0,0:0:0:0:
320,192,40554,1,0,0:0:0:0:
192,192,40772,1,0,0:0:0:0:
320,192,40990,1,0,0:0:0:0:
448,192,40990,1,0,0:0:0:0:
64,192,41208,128,0,41427:0:0:0:0:
192,192,41427,1,0,0:0:0:0:
448,192,41536,1,0,0:0:0:0:
64,192,41645,1,0,0:0:0:0:
320,192,41754,128,0,41972:0:0:0:0:
64,192,41972,1,0,0:0:0:0:
192,192,42081,128,0,42299:0:0:0:0:
448,192,42299,1,0,0:0:0:0:
320,192,42408,1,0,0:0:0:0:
64,192,42517,1,0,0:0:0:0:
192,192,42627,128,0,42845:0:0:0:0:
320,192,42845,1,0,0:0:0:0:
64,192,42954,1,0,0:0:0:0:
448,192,43063,1,0,0:0:0:0:
192,192,43172,1,0,0:0:0:0:
64,192,43281,1,0,0:0:0:0:
320,192,43390,1,0,0:0:0:0:
192,192,43608,1,0,0:0:0:0:
448,192,43717,1,0,0:0:0:0:
64,192,43827,1,0,0:0:0:0:
320,192,43936,1,0,0:0:0:0:
448,192,44045,1,0,0:0:0:0:
192,192,44154,1,0,0:0:0:0:
64,192,44263,1,0,0:0:0:0:
448,192,44481,128,0,45354:0:0:0:0:
192,192,44808,1,0,0:0:0:0:
192,192,45136,1,0,0:0:0:0:
64,192,45354,1,0,0:0:0:0:
192,192,45463,1,0,0:0:0:0:
320,192,45572,1,0,0:0:0:0:
192,192,45790,1,0,0:0:0:0:
320,192,45899,1,0,0:0:0:0:
448,192,46008,1,0,0:0:0:0:
320,192,46227,1,0,0:0:0:0:
448,192,46336,1,0,0:0:0:0:
192,192,46554,1,0,0:0:0:0:
64,192,46663,1,0,0:0:0:0:
320,192,46881,1,0,0:0:0:0:
448,192,46990,1,0,0:0:0:0:
320,192,47972,1,0,0:0:0:0:
64,192,47972,1,0,0:0:0:0:
192,192,48190,1,0,0:0:0:0:
448,192,48190,1,0,0:0:0:0:
320,192,48408,1,0,0:0:0:0:
64,192,48408,1,0,0:0:0:0:
448,192,48627,1,0,0:0:0:0:
192,192,48627,1,0,0:0:0:0:
64,192,48845,1,0,0:0:0:0:
192,192,48954,1,0,0:0:0:0:
64,192,49063,1,0,0:0:0:0:
448,192,49172,1,0,0:0:0:0:
320,192,49281,1,0,0:0:0:0:
448,192,49390,1,0,0:0:0:0:
64,192,49499,1,0,0:0:0:0:
320,192,49608,1,0,0:0:0:0:
192,192,49717,1,0,0:0:0:0:
448,192,49717,1,0,0:0:0:0:
64,192,49936,1,0,0:0:0:0:
320,192,49936,1,0,0:0:0:0:
448,192,50154,1,0,0:0:0:0:
192,192,50154,1,0,0:0:0:0:
64,192,50372,1,0,0:0:0:0:
320,192,50372,1,0,0:0:0:0:
448,192,50590,1,0,0:0:0:0:
320,192,50699,1,0,0:0:0:0:
448,192,50808,1,0,0:0:0:0:
64,192,50917,1,0,0:0:0:0:
192,192,51027,1,0,0:0:0:0:
64,192,51136,1,0,0:0:0:0:
448,192,51245,1,0,0:0:0:0:
192,192,51354,1,0,0:0:0:0:
448,192,51463,1,0,0:0:0:0:
64,192,51463,1,0,0:0:0:0:
320,192,51681,1,0,0:0:0:0:
192,192,51681,1,0,0:0:0:0:
448,192,51899,1,0,0:0:0:0:
64,192,51899,1,0,0:0:0:0:
320,192,52117,1,0,0:0:0:0:
192,192,52117,1,0,0:0:0:0:
64,192,52336,1,0,0:0:0:0:
192,192,52445,1,0,0:0:0:0:
64,192,52554,1,0,0:0:0:0:
448,192,52663,1,0,0:0:0:0:
320,192,52772,1,0,0:0:0:0:
448,192,52881,1,0,0:0:0:0:
64,192,52990,1,0,0:0:0:0:
192,192,53099,1,0,0:0:0:0:
320,192,53208,1,0,0:0:0:0:
448,192,53208,1,0,0:0:0:0:
64,192,53427,1,0,0:0:0:0:
192,192,53536,1,0,0:0:0:0:
448,192,53645,1,0,0:0:0:0:
320,192,53754,1,0,0:0:0:0:
192,192,53863,1,0,0:0:0:0:
64,192,53972,1,0,0:0:0:0:
320,192,54081,1,0,0:0:0:0:
448,192,54081,1,0,0:0:0:0:
64,192,54954,1,0,0:0:0:0:
448,192,55063,1,0,0:0:0:0:
64,192,55172,1,0,0:0:0:0:
320,192,55281,1,0,0:0:0:0:
192,192,55390,128,0,55608:0:0:0:0:
64,192,55608,1,0,0:0:0:0:
192,192,55717,1,0,0:0:0:0:
448,192,55827,1,0,0:0:0:0:
64,192,55936,1,0,0:0:0:0:
448,192,56045,1,0,0:0:0:0:
192,192,56154,1,0,0:0:0:0:
320,192,56263,128,0,56481:0:0:0:0:
448,192,56481,1,0,0:0:0:0:
320,192,56590,1,0,0:0:0:0:
64,192,56699,1,0,0:0:0:0:
192,192,56808,1,0,0:0:0:0:
448,192,56917,128,0,57136:0:0:0:0:
320,192,57136,1,0,0:0:0:0:
64,192,57245,128,0,57463:0:0:0:0:
192,192,57463,1,0,0:0:0:0:
448,192,57572,128,0,57790:0:0:0:0:
320,192,57790,128,0,58008:0:0:0:0:
192,192,58008,128,0,58227:0:0:0:0:
64,192,58227,128,0,58445:0:0:0:0:
448,192,58445,128,0,58663:0:0:0:0:
192,192,58663,1,0,0:0:0:0:
320,192,58772,128,0,58990:0:0:0:0:
192,192,58990,1,0,0:0:0:0:
64,192,59099,1,0,0:0:0:0:
192,192,59208,128,0,59536:0:0:0:0:
448,192,59317,1,0,0:0:0:0:
64,192,59536,128,0,59754:0:0:0:0:
192,192,59754,128,0,59972:0:0:0:0:
320,192,59972,128,0,60190:0:0:0:0:
448,192,60190,128,0,61063:0:0:0:0:
64,192,60408,1,0,0:0:0:0:
64,192,60627,1,0,0:0:0:0:
64,192,60845,1,0,0:0:0:0:
192,192,61063,1,0,0:0:0:0:
320,192,61172,1,0,0:0:0:0:
64,192,61281,1,0,0:0:0:0:
192,192,61390,1,0,0:0:0:0:
448,192,61499,1,0,0:0:0:0:
320,192,61608,1,0,0:0:0:0:
192,192,61717,1,0,0:0:0:0:
64,192,61936,1,0,0:0:0:0:
448,192,62045,1,0,0:0:0:0:
64,192,62154,1,0,0:0:0:0:
448,192,62263,1,0,0:0:0:0:
64,192,62372,1,0,0:0:0:0:
448,192,62481,1,0,0:0:0:0:
64,192,62590,1,0,0:0:0:0:
448,192,62699,1,0,0:0:0:0:
192,192,62808,1,0,0:0:0:0:
320,192,62917,1,0,0:0:0:0:
192,192,63027,1,0,0:0:0:0:
320,192,63136,1,0,0:0:0:0:
192,192,63245,1,0,0:0:0:0:
320,192,63354,1,0,0:0:0:0:
192,192,63463,1,0,0:0:0:0:
320,192,63572,1,0,0:0:0:0:
64,192,63681,1,0,0:0:0:0:
448,192,63681,1,0,0:0:0:0:
192,192,67063,128,0,67281:0:0:0:0:
320,192,67281,1,0,0:0:0:0:
448,192,67390,1,0,0:0:0:0:
64,192,67390,1,0,0:0:0:0:
192,192,67499,1,0,0:0:0:0:
320,192,67608,1,0,0:0:0:0:
192,192,67717,1,0,0:0:0:0:
320,192,67936,128,0,68154:0:0:0:0:
192,192,68154,1,0,0:0:0:0:
64,192,68263,1,0,0:0:0:0:
448,192,68372,1,0,0:0:0:0:
192,192,68481,1,0,0:0:0:0:
320,192,68590,1,0,0:0:0:0:
192,192,68808,128,0,69027:0:0:0:0:
320,192,69027,1,0,0:0:0:0:
448,192,69136,1,0,0:0:0:0:
64,192,69245,1,0,0:0:0:0:
320,192,69354,1,0,0:0:0:0:
192,192,69463,1,0,0:0:0:0:
64,192,69681,128,0,69899:0:0:0:0:
448,192,69899,1,0,0:0:0:0:
192,192,70008,128,0,70227:0:0:0:0:
448,192,70227,1,0,0:0:0:0:
320,192,70336,1,0,0:0:0:0:
64,192,70445,1,0,0:0:0:0:
448,192,70554,128,0,70772:0:0:0:0:
64,192,70772,1,0,0:0:0:0:
192,192,70881,128,0,71099:0:0:0:0:
64,192,71099,1,0,0:0:0:0:
320,192,71208,1,0,0:0:0:0:
448,192,71317,1,0,0:0:0:0:
320,192,71427,128,0,71645:0:0:0:0:
64,192,71645,1,0,0:0:0:0:
192,192,71754,1,0,0:0:0:0:
448,192,71863,1,0,0:0:0:0:
64,192,71972,1,0,0:0:0:0:
448,192,72081,1,0,0:0:0:0:
320,192,72190,128,0,72408:0:0:0:0:
448,192,72408,128,0,72627:0:0:0:0:
192,192,72627,1,0,0:0:0:0:
64,192,72736,1,0,0:0:0:0:
320,192,72845,1,0,0:0:0:0:
192,192,72954,1,0,0:0:0:0:
448,192,73063,1,0,0:0:0:0:
320,192,73172,1,0,0:0:0:0:
64,192,73390,1,0,0:0:0:0:
192,192,73499,128,0,73717:0:0:0:0:
320,192,73717,1,0,0:0:0:0:
64,192,73827,1,0,0:0:0:0:
448,192,73936,1,0,0:0:0:0:
192,192,74045,1,0,0:0:0:0:
320,192,74154,128,0,74372:0:0:0:0:
192,192,74372,1,0,0:0:0:0:
64,192,74481,1,0,0:0:0:0:
320,192,74590,1,0,0:0:0:0:
448,192,74699,1,0,0:0:0:0:
192,192,74808,1,0,0:0:0:0:
320,192,74917,128,0,75136:0:0:0:0:
64,192,75136,1,0,0:0:0:0:
192,192,75245,128,0,75463:0:0:0:0:
320,192,75463,1,0,0:0:0:0:
64,192,75572,1,0,0:0:0:0:
448,192,75681,1,0,0:0:0:0:
192,192,75790,1,0,0:0:0:0:
64,192,75899,1,0,0:0:0:0:
320,192,75899,128,0,76117:0:0:0:0:
192,192,76117,1,0,0:0:0:0:
64,192,76227,128,0,76445:0:0:0:0:
320,192,76445,1,0,0:0:0:0:
192,192,76663,128,0,76881:0:0:0:0:
448,192,76663,1,0,0:0:0:0:
320,192,76881,1,0,0:0:0:0:
64,192,76990,128,0,77208:0:0:0:0:
320,192,77208,1,0,0:0:0:0:
64,192,77317,1,0,0:0:0:0:
192,192,77427,1,0,0:0:0:0:
448,192,77536,1,0,0:0:0:0:
64,192,77645,128,0,77863:0:0:0:0:
320,192,77863,1,0,0:0:0:0:
192,192,77972,1,0,0:0:0:0:
448,192,77972,1,0,0:0:0:0:
192,192,78190,1,0,0:0:0:0:
64,192,78190,1,0,0:0:0:0:
448,192,78408,128,0,78627:0:0:0:0:
320,192,78408,1,0,0:0:0:0:
192,192,78627,1,0,0:0:0:0:
320,192,78736,1,0,0:0:0:0:
64,192,78845,1,0,0:0:0:0:
192,192,78954,1,0,0:0:0:0:
448,192,79063,1,0,0:0:0:0:
64,192,79172,1,0,0:0:0:0:
320,192,79281,1,0,0:0:0:0:
448,192,79390,1,0,0:0:0:0:
192,192,79390,128,0,80372:0:0:0:0:
448,192,79717,1,0,0:0:0:0:
448,192,80045,1,0,0:0:0:0:
320,192,80372,1,0,0:0:0:0:
448,192,80481,1,0,0:0:0:0:
64,192,80590,1,0,0:0:0:0:
320,192,80699,1,0,0:0:0:0:
192,192,80808,1,0,0:0:0:0:
64,192,80917,1,0,0:0:0:0:
320,192,81027,128,0,81245:0:0:0:0:
192,192,81245,1,0,0:0:0:0:
64,192,81354,1,0,0:0:0:0:
448,192,81354,1,0,0:0:0:0:
448,192,81572,1,0,0:0:0:0:
448,192,81790,1,0,0:0:0:0:
192,192,82008,1,0,0:0:0:0:
448,192,82117,1,0,0:0:0:0:
64,192,82227,1,0,0:0:0:0:
320,192,82336,128,0,82554:0:0:0:0:
64,192,82554,1,0,0:0:0:0:
448,192,82663,1,0,0:0:0:0:
192,192,82772,128,0,82990:0:0:0:0:
448,192,82990,1,0,0:0:0:0:
64,192,83099,1,0,0:0:0:0:
448,192,83208,1,0,0:0:0:0:
192,192,83317,1,0,0:0:0:0:
320,192,83427,1,0,0:0:0:0:
448,192,83536,1,0,0:0:0:0:
64,192,83645,128,0,83863:0:0:0:0:
192,192,83863,1,0,0:0:0:0:
448,192,83972,128,0,84190:0:0:0:0:
320,192,84190,1,0,0:0:0:0:
192,192,84299,1,0,0:0:0:0:
448,192,84408,1,0,0:0:0:0:
192,192,84517,128,0,84736:0:0:0:0:
320,192,84736,1,0,0:0:0:0:
448,192,84845,1,0,0:0:0:0:
64,192,85063,1,0,0:0:0:0:
192,192,85172,1,0,0:0:0:0:
320,192,85281,1,0,0:0:0:0:
64,192,85390,128,0,85717:0:0:0:0:
448,192,85608,1,0,0:0:0:0:
192,192,85717,1,0,0:0:0:0:
320,192,85827,1,0,0:0:0:0:
448,192,85936,1,0,0:0:0:0:
192,192,86045,1,0,0:0:0:0:
64,192,86154,1,0,0:0:0:0:
448,192,86263,1,0,0:0:0:0:
192,192,86372,1,0,0:0:0:0:
64,192,86481,1,0,0:0:0:0:
320,192,86590,1,0,0:0:0:0:
448,192,86699,128,0,87245:0:0:0:0:
192,192,86808,1,0,0:0:0:0:
64,192,87027,1,0,0:0:0:0:
320,192,87245,1,0,0:0:0:0:
64,192,87463,128,0,87681:0:0:0:0:
192,192,87681,128,0,87899:0:0:0:0:
448,192,87899,128,0,88117:0:0:0:0:
320,192,88117,128,0,88336:0:0:0:0:
192,192,88336,1,0,0:0:0:0:
64,192,88336,1,0,0:0:0:0:
320,192,88554,1,0,0:0:0:0:
448,192,88663,1,0,0:0:0:0:
192,192,88881,128,0,89099:0:0:0:0:
448,192,89099,1,0,0:0:0:0:
64,192,89208,1,0,0:0:0:0:
320,192,89317,1,0,0:0:0:0:
192,192,89427,1,0,0:0:0:0:
448,192,89536,1,0,0:0:0:0:
192,192,89645,1,0,0:0:0:0:
64,192,90008,1,0,0:0:0:0:
448,192,90154,1,0,0:0:0:0:
64,192,90299,1,0,0:0:0:0:
192,192,90445,1,0,0:0:0:0:
320,192,90590,1,0,0:0:0:0:
448,192,90736,128,0,91172:0:0:0:0:
64,192,90736,1,0,0:0:0:0:
320,192,91172,128,0,91390:0:0:0:0:
192,192,91390,128,0,91608:0:0:0:0:
448,192,91608,1,0,0:0:0:0:
64,192,91827,1,0,0:0:0:0:
192,192,91936,1,0,0:0:0:0:
64,192,92154,1,0,0:0:0:0:
320,192,92263,1,0,0:0:0:0:
192,192,92481,1,0,0:0:0:0:
320,192,92590,1,0,0:0:0:0:
192,192,92808,1,0,0:0:0:0:
448,192,92917,1,0,0:0:0:0:
320,192,93136,1,0,0:0:0:0:
448,192,93245,1,0,0:0:0:0:
64,192,93354,1,0,0:0:0:0:
64,192,94663,1,0,0:0:0:0:
192,192,94827,1,0,0:0:0:0:
448,192,94990,1,0,0:0:0:0:
64,192,95099,1,0,0:0:0:0:
320,192,95208,1,0,0:0:0:0:
64,192,95317,1,0,0:0:0:0:
320,192,95427,1,0,0:0:0:0:
64,192,95536,1,0,0:0:0:0:
320,192,95645,1,0,0:0:0:0:
64,192,95754,1,0,0:0:0:0:
448,192,95972,1,0,0:0:0:0:
192,192,96081,1,0,0:0:0:0:
448,192,96190,1,0,0:0:0:0:
192,192,96299,1,0,0:0:0:0:
448,192,96408,1,0,0:0:0:0:
192,192,96517,1,0,0:0:0:0:
448,192,96627,1,0,0:0:0:0:
64,192,96845,1,0,0:0:0:0:
448,192,98590,1,0,0:0:0:0:
64,192,98590,1,0,0:0:0:0:
320,192,98808,1,0,0:0:0:0:
192,192,98917,1,0,0:0:0:0:
448,192,99027,1,0,0:0:0:0:
192,192,99136,1,0,0:0:0:0:
320,192,99245,1,0,0:0:0:0:
192,192,99354,128,0,99572:0:0:0:0:
448,192,99572,1,0,0:0:0:0:
64,192,99681,1,0,0:0:0:0:
192,192,99899,1,0,0:0:0:0:
320,192,100008,1,0,0:0:0:0:
448,192,100117,1,0,0:0:0:0:
192,192,100336,1,0,0:0:0:0:
64,192,100336,1,0,0:0:0:0:
448,192,100445,1,0,0:0:0:0:
320,192,100554,1,0,0:0:0:0:
192,192,100663,1,0,0:0:0:0:
448,192,100772,1,0,0:0:0:0:
192,192,100881,1,0,0:0:0:0:
320,192,100990,1,0,0:0:0:0:
192,192,101099,128,0,101317:0:0:0:0:
448,192,101317,1,0,0:0:0:0:
64,192,101427,1,0,0:0:0:0:
192,192,101645,1,0,0:0:0:0:
320,192,101754,1,0,0:0:0:0:
448,192,101863,1,0,0:0:0:0:
320,192,102081,1,0,0:0:0:0:
64,192,102081,1,0,0:0:0:0:
192,192,102190,1,0,0:0:0:0:
448,192,102299,1,0,0:0:0:0:
192,192,102408,1,0,0:0:0:0:
320,192,102517,1,0,0:0:0:0:
64,192,102627,1,0,0:0:0:0:
448,192,102736,1,0,0:0:0:0:
320,192,102845,1,0,0:0:0:0:
192,192,102954,1,0,0:0:0:0:
64,192,103063,1,0,0:0:0:0:
320,192,103172,1,0,0:0:0:0:
192,192,103281,1,0,0:0:0:0:
448,192,103390,1,0,0:0:0:0:
320,192,103499,1,0,0:0:0:0:
192,192,103608,1,0,0:0:0:0:
64,192,103717,1,0,0:0:0:0:
448,192,103827,1,0,0:0:0:0:
320,192,103936,1,0,0:0:0:0:
448,192,104045,1,0,0:0:0:0:
64,192,104263,1,0,0:0:0:0:
192,192,104372,1,0,0:0:0:0:
64,192,104481,1,0,0:0:0:0:
320,192,104699,1,0,0:0:0:0:
448,192,104808,1,0,0:0:0:0:
192,192,104917,1,0,0:0:0:0:
320,192,105027,1,0,0:0:0:0:
64,192,105136,1,0,0:0:0:0:
192,192,105245,1,0,0:0:0:0:
320,192,105354,1,0,0:0:0:0:
448,192,105463,1,0,0:0:0:0:
64,192,105572,128,0,105790:0:0:0:0:
448,192,105790,1,0,0:0:0:0:
320,192,105899,1,0,0:0:0:0:
192,192,106008,128,0,106227:0:0:0:0:
320,192,106227,1,0,0:0:0:0:
448,192,106336,1,0,0:0:0:0:
64,192,106445,128,0,106663:0:0:0:0:
192,192,106663,1,0,0:0:0:0:
320,192,106772,1,0,0:0:0:0:
448,192,106881,128,0,107099:0:0:0:0:
320,192,107099,1,0,0:0:0:0:
192,192,107208,1,0,0:0:0:0:
64,192,107317,128,0,107536:0:0:0:0:
320,192,107536,1,0,0:0:0:0:
192,192,107645,1,0,0:0:0:0:
448,192,107754,128,0,107972:0:0:0:0:
192,192,107972,1,0,0:0:0:0:
320,192,108081,1,0,0:0:0:0:
64,192,108190,1,0,0:0:0:0:
448,192,108299,1,0,0:0:0:0:
320,192,108408,1,0,0:0:0:0:
192,192,108517,1,0,0:0:0:0:
64,192,108627,1,0,0:0:0:0:
320,192,108736,1,0,0:0:0:0:
192,192,108845,128,0,109063:0:0:0:0:
448,192,109063,1,0,0:0:0:0:
448,192,109281,1,0,0:0:0:0:
64,192,109499,1,0,0:0:0:0:
64,192,109717,1,0,0:0:0:0:
448,192,109936,1,0,0:0:0:0:
320,192,110045,1,0,0:0:0:0:
192,192,110154,1,0,0:0:0:0:
64,192,110372,1,0,0:0:0:0:
192,192,110481,1,0,0:0:0:0:
320,192,110590,1,0,0:0:0:0:
64,192,110808,1,0,0:0:0:0:
320,192,110917,1,0,0:0:0:0:
64,192,111027,1,0,0:0:0:0:
320,192,111136,1,0,0:0:0:0:
64,192,111245,1,0,0:0:0:0:
320,192,111354,1,0,0:0:0:0:
64,192,111463,1,0,0:0:0:0:
448,192,111681,1,0,0:0:0:0:
192,192,111790,1,0,0:0:0:0:
448,192,111899,1,0,0:0:0:0:
192,192,112008,1,0,0:0:0:0:
448,192,112117,1,0,0:0:0:0:
192,192,112227,1,0,0:0:0:0:
448,192,112336,1,0,0:0:0:0:
320,192,112554,1,0,0:0:0:0:
64,192,112554,128,0,114299:0:0:0:0:
320,192,114299,1,0,0:0:0:0:
192,192,114408,1,0,0:0:0:0:
320,192,114517,1,0,0:0:0:0:
192,192,114627,1,0,0:0:0:0:
320,192,114736,1,0,0:0:0:0:
192,192,114845,1,0,0:0:0:0:
320,192,114954,1,0,0:0:0:0:
192,192,115063,1,0,0:0:0:0:
448,192,115172,1,0,0:0:0:0:
64,192,115281,1,0,0:0:0:0:
448,192,115390,1,0,0:0:0:0:
64,192,115499,1,0,0:0:0:0:
320,192,115608,1,0,0:0:0:0:
448,192,115717,1,0,0:0:0:0:
192,192,115827,1,0,0:0:0:0:
320,192,115936,1,0,0:0:0:0:
