osu file format v14

[General]
AudioFilename: audio.ogg
AudioLeadIn: 0
PreviewTime: 65063
Countdown: 0
SampleSet: Soft
StackLeniency: 0.7
Mode: 3
LetterboxInBreaks: 0
SpecialStyle: 0
WidescreenStoryboard: 1

[Editor]
DistanceSpacing: 2
BeatDivisor: 4
GridSize: 32
TimelineZoom: 1.8

[Metadata]
Title:MarbleBlue.
TitleUnicode:MarbleBlue.
Artist:MisoilePunch
ArtistUnicode:MisoilePunch♪
Creator:Murumoo
Version:secXcscX's EXPERT
Source:オンゲキ bright MEMORY
Tags:Maxus DixonBlackwing DenYi Lami- secXcscX FAMoss video game electronic instrumental ongeki 日向 千夏 CHINATSU HINATA Summer Memory みそみぃる ポン恥♪ Misomyl Ponchi Ponchi♪ Marble Blue Chiptune Piano
BeatmapID:3550409
BeatmapSetID:1737067

[Difficulty]
HPDrainRate:8
CircleSize:4
OverallDifficulty:7.5
ApproachRate:5
SliderMultiplier:1.4
SliderTickRate:1

[Events]
//Background and Video events
0,0,"bg.png",0,0
//Break Periods
//Storyboard Layer 0 (Background)
//Storyboard Layer 1 (Fail)
//Storyboard Layer 2 (Pass)
//Storyboard Layer 3 (Foreground)
//Storyboard Layer 4 (Overlay)
//Storyboard Sound Samples
Sample,58177,0,"tom02.wav",70
Sample,58252,0,"tom03.wav",70
Sample,78684,0,"tick01.wav",70
Sample,87462,0,"clapwet.wav",70
Sample,142855,0,"tom01.wav",70
Sample,142931,0,"tom02.wav",70
Sample,143007,0,"tom03.wav",70

[TimingPoints]
1195,302.69397638987,4,2,1,40,1,0
9670,-100,4,2,1,50,0,0
19659,-103.092783505155,4,2,1,40,0,0
19962,-105.263157894737,4,2,1,40,0,0
20264,-107.52688172043,4,2,1,40,0,0
20567,-111.111111111111,4,2,1,40,0,0
29042,-109.89010989011,4,2,1,40,0,0
29194,-107.52688172043,4,2,1,40,0,0
29345,-106.382978723404,4,2,1,40,0,0
29496,-105.263157894737,4,2,1,40,0,0
29648,-104.166666666667,4,2,1,40,0,0
29799,-103.092783505155,4,2,1,40,0,0
29950,-102.040816326531,4,2,1,40,0,0
30102,-101.010101010101,4,2,1,40,0,0
30253,-100,4,2,1,50,0,0
62944,-102.040816326531,4,2,1,50,0,0
63549,-104.166666666667,4,2,1,50,0,0
64155,-106.382978723404,4,2,1,50,0,0
64760,-108.695652173913,4,2,1,50,0,0
65063,-108.695652173913,4,2,1,20,0,0
75052,-108.695652173913,4,2,1,40,0,0
78684,-108.695652173913,4,2,1,10,0,0
79290,-108.695652173913,4,2,1,20,0,0
79592,-108.695652173913,4,2,1,30,0,0
79895,-108.695652173913,4,2,1,20,0,0
82619,-106.382978723404,4,2,1,20,0,0
82922,-104.166666666667,4,2,1,20,0,0
83225,-102.040816326531,4,2,1,20,0,0
83527,-100,4,2,1,40,0,0
84738,-100,4,2,1,50,0,0
121061,-103.092783505155,4,2,1,40,0,0
124694,-103.092783505155,4,2,1,10,0,0
124845,-103.092783505155,4,2,1,20,0,0
124996,-103.092783505155,4,2,1,30,0,0
125299,-100,4,2,1,40,0,0
125904,-100,4,2,1,50,0,0
149061,-100,4,2,1,40,0,0

[HitObjects]
64,192,1195,5,0,0:0:0:0:
448,192,1195,128,0,1346:0:0:0:0:
192,192,1497,1,0,0:0:0:0:
448,192,1497,128,0,1649:0:0:0:0:
64,192,1800,128,0,1951:0:0:0:0:
320,192,1800,1,0,0:0:0:0:
64,192,2103,128,0,2254:0:0:0:0:
448,192,2103,1,0,0:0:0:0:
64,192,2405,1,4,0:0:0:0:
448,192,2405,128,0,3616:0:0:0:70:tick01.wav
192,192,2708,128,0,2859:0:0:0:0:
64,192,2859,1,0,0:0:0:0:
320,192,3011,1,0,0:0:0:70:tick02_edit.wav
192,192,3162,1,0,0:0:0:0:
192,192,3313,128,0,3465:0:0:0:0:
320,192,3465,1,0,0:0:0:0:
64,192,3616,1,0,0:0:0:70:tick01.wav
192,192,3616,1,0,0:0:0:0:
192,192,3919,1,0,0:0:0:0:
64,192,4070,1,0,0:0:0:0:
320,192,4221,1,0,0:0:0:70:tick02_edit.wav
192,192,4373,1,0,0:0:0:0:
192,192,4524,1,0,0:0:0:0:
320,192,4675,1,0,0:0:0:0:
64,192,4827,128,0,5886:0:0:0:70:tick01.wav
448,192,4827,1,0,0:0:0:0:
192,192,4978,128,0,5130:0:0:0:0:
320,192,5130,1,0,0:0:0:0:
448,192,5281,1,0,0:0:0:0:
192,192,5432,1,0,0:0:0:70:tick02_edit.wav
320,192,5584,1,0,0:0:0:0:
320,192,5735,128,0,5886:0:0:0:0:
192,192,5886,1,0,0:0:0:0:
64,192,6038,1,0,0:0:0:70:tick01.wav
448,192,6038,128,0,6189:0:0:0:0:
192,192,6340,1,0,0:0:0:0:
448,192,6340,128,0,6492:0:0:0:0:
64,192,6643,128,0,6794:0:0:0:70:tick02_edit.wav
320,192,6643,1,0,0:0:0:0:
64,192,6946,128,0,7097:0:0:0:0:
448,192,6946,1,0,0:0:0:0:
64,192,7248,1,0,0:0:0:70:tick01.wav
448,192,7248,128,0,8459:0:0:0:0:
320,192,7400,1,0,0:0:0:0:
192,192,7551,128,0,7702:0:0:0:0:
64,192,7702,1,0,0:0:0:0:
320,192,7854,1,0,0:0:0:70:tick02_edit.wav
192,192,8005,1,0,0:0:0:0:
192,192,8156,128,0,8308:0:0:0:0:
320,192,8308,1,0,0:0:0:0:
64,192,8459,1,0,0:0:0:70:tick01.wav
192,192,8459,1,0,0:0:0:0:
320,192,8611,1,0,0:0:0:0:
192,192,8762,1,0,0:0:0:0:
64,192,8913,1,0,0:0:0:0:
320,192,9065,1,0,0:0:0:70:tick02_edit.wav
192,192,9216,1,0,0:0:0:0:
192,192,9367,1,0,0:0:0:0:
320,192,9519,1,0,0:0:0:0:
64,192,9670,1,12,0:0:0:0:
448,192,9670,1,2,0:0:0:0:
192,192,9746,1,8,0:0:0:0:
320,192,9821,1,8,0:0:0:0:
448,192,9897,1,8,0:0:0:0:
64,192,9973,1,14,0:0:0:0:
192,192,10048,1,8,0:0:0:0:
320,192,10124,1,8,0:0:0:0:
64,192,10200,1,8,0:0:0:0:
448,192,10275,1,14,0:0:0:0:
320,192,10351,1,8,0:0:0:0:
192,192,10427,1,8,0:0:0:0:
64,192,10502,1,8,0:0:0:0:
448,192,10578,1,12,0:0:0:0:
320,192,10654,1,8,0:0:0:0:
64,192,10729,1,8,0:0:0:0:
192,192,10729,128,2,11486:0:0:0:0:
320,192,11183,128,0,11789:0:0:0:0:
64,192,11486,1,8,0:0:0:0:
448,192,11486,128,0,12091:0:0:0:0:
64,192,11637,1,0,0:0:0:70:tom01.wav
64,192,11789,128,8,12091:0:0:0:0:
192,192,11789,1,4,0:0:0:0:
192,192,12091,1,6,0:0:0:0:
320,192,12091,1,8,0:0:0:0:
64,192,12243,1,8,0:0:0:0:
448,192,12243,128,0,12470:0:0:0:0:
320,192,12319,128,8,12470:0:0:0:0:
192,192,12394,128,8,12470:0:0:0:0:
192,192,12546,1,10,0:0:0:0:
320,192,12546,1,4,0:0:0:0:
64,192,12697,128,8,13000:0:0:0:0:
448,192,12697,1,0,0:0:0:0:
192,192,12773,128,8,13000:0:0:0:0:
320,192,12848,128,8,13000:0:0:0:0:
448,192,13000,1,8,0:0:0:0:
320,192,13075,1,8,0:0:0:0:
64,192,13151,1,8,0:0:0:0:
192,192,13227,1,8,0:0:0:0:
320,192,13302,1,10,0:0:0:0:
448,192,13302,1,4,0:0:0:0:
64,192,13454,1,8,0:0:0:0:
192,192,13454,128,0,13681:0:0:0:0:
320,192,13529,128,8,13681:0:0:0:0:
448,192,13605,128,8,13681:0:0:0:0:
64,192,13756,1,10,0:0:0:0:
192,192,13756,1,4,0:0:0:0:
320,192,13908,128,8,14135:0:0:0:0:
448,192,13908,1,0,0:0:0:0:
192,192,13983,128,8,14135:0:0:0:0:
64,192,14059,128,8,14135:0:0:0:0:
320,192,14210,1,10,0:0:0:0:
448,192,14210,1,4,0:0:0:0:
64,192,14286,1,8,0:0:0:0:
448,192,14362,1,8,0:0:0:0:
64,192,14437,1,8,0:0:0:0:
192,192,14513,1,6,0:0:0:0:
320,192,14513,1,8,0:0:0:0:
64,192,14664,1,8,0:0:0:0:
448,192,14664,128,0,14891:0:0:0:0:
320,192,14740,128,8,14891:0:0:0:0:
192,192,14816,128,8,14891:0:0:0:0:
192,192,14967,1,12,0:0:0:0:
320,192,14967,1,2,0:0:0:0:
64,192,15118,128,8,15345:0:0:0:0:
448,192,15118,1,0,0:0:0:0:
192,192,15194,128,8,15345:0:0:0:0:
320,192,15270,128,8,15345:0:0:0:0:
320,192,15421,1,10,0:0:0:0:
448,192,15421,1,4,0:0:0:0:
64,192,15497,1,8,0:0:0:0:
448,192,15572,1,8,0:0:0:0:
64,192,15648,1,8,0:0:0:0:
320,192,15724,128,8,15875:0:0:0:0:
448,192,15724,128,0,15875:0:0:0:0:
192,192,15875,1,10,0:0:0:0:
448,192,15951,1,0,0:0:0:0:
64,192,16027,128,8,16178:0:0:0:0:
192,192,16027,128,4,16178:0:0:0:0:
320,192,16178,1,10,0:0:0:0:
64,192,16254,1,10,0:0:0:0:
320,192,16329,128,10,16481:0:0:0:0:
448,192,16329,128,4,16481:0:0:0:0:
192,192,16481,1,10,0:0:0:0:
448,192,16556,1,0,0:0:0:0:
64,192,16632,128,8,16935:0:0:0:0:
192,192,16632,128,4,16935:0:0:0:0:
320,192,16935,1,8,0:0:0:0:
448,192,16935,1,4,0:0:0:0:
64,192,17086,1,2,0:0:0:0:
448,192,17086,1,0,0:0:0:0:
64,192,17237,1,2,0:0:0:0:
448,192,17237,1,0,0:0:0:0:
192,192,17389,1,8,0:0:0:0:
320,192,17389,1,4,0:0:0:0:
64,192,17540,1,2,0:0:0:0:
192,192,17540,1,0,0:0:0:0:
64,192,17691,1,2,0:0:0:0:
192,192,17691,1,0,0:0:0:0:
320,192,17843,1,8,0:0:0:0:
448,192,17843,1,4,0:0:0:0:
64,192,17994,1,2,0:0:0:0:
448,192,17994,1,0,0:0:0:0:
192,192,18145,1,8,0:0:0:0:
320,192,18145,1,4,0:0:0:0:
320,192,18297,1,2,0:0:0:0:
448,192,18297,1,0,0:0:0:0:
64,192,18448,1,8,0:0:0:0:
192,192,18448,1,4,0:0:0:0:
192,192,18599,1,2,0:0:0:0:
320,192,18599,1,0,0:0:0:0:
64,192,18751,1,10,0:0:0:0:
448,192,18751,1,4,0:0:0:0:
192,192,18826,1,8,0:0:0:0:
320,192,18902,1,8,0:0:0:0:
448,192,18978,1,8,0:0:0:0:
64,192,19053,1,14,0:0:0:0:
192,192,19129,1,8,0:0:0:0:
320,192,19205,1,8,0:0:0:0:
448,192,19280,1,8,0:0:0:0:
64,192,19356,128,8,19507:0:0:0:0:
192,192,19356,1,4,0:0:0:0:
192,192,20567,1,0,0:0:0:70:tick02_edit.wav
320,192,20567,1,0,0:0:0:0:
64,192,21172,128,0,21324:0:0:0:70:tick01.wav
448,192,21172,1,0,0:0:0:0:
64,192,21475,128,0,21626:0:0:0:0:
320,192,21475,1,0,0:0:0:0:
64,192,21778,128,2,22686:0:0:0:0:
192,192,21778,1,0,0:0:0:0:
448,192,21929,1,0,0:0:0:0:
320,192,22080,1,0,0:0:0:0:
192,192,22232,1,0,0:0:0:0:
448,192,22383,1,0,0:0:0:0:
320,192,22534,1,0,0:0:0:0:
192,192,22686,1,0,0:0:0:0:
64,192,22837,1,0,0:0:0:0:
448,192,22837,128,0,23594:0:0:0:0:
64,192,23594,128,0,23695:0:0:0:0:
192,192,23594,1,0,0:0:0:0:
320,192,23796,1,0,0:0:0:0:
448,192,23796,128,0,23897:0:0:0:0:
64,192,23997,128,0,24098:0:0:0:0:
192,192,23997,1,0,0:0:0:0:
320,192,24199,1,0,0:0:0:0:
448,192,24199,128,0,25107:0:0:0:0:
64,192,24351,1,0,0:0:0:0:
192,192,24502,1,0,0:0:0:0:
320,192,24653,1,0,0:0:0:0:
64,192,24805,1,0,0:0:0:0:
192,192,24956,1,0,0:0:0:0:
320,192,25107,1,0,0:0:0:0:
64,192,25259,128,0,25713:0:0:0:0:
448,192,25259,1,0,0:0:0:0:
320,192,26015,128,0,26167:0:0:0:0:
448,192,26015,1,0,0:0:0:0:
192,192,26318,128,0,26469:0:0:0:0:
320,192,26318,1,0,0:0:0:0:
64,192,26621,128,0,27529:0:0:0:0:
192,192,26621,1,0,0:0:0:0:
448,192,26772,1,0,0:0:0:0:
320,192,26923,1,0,0:0:0:0:
192,192,27075,1,0,0:0:0:0:
448,192,27226,1,0,0:0:0:0:
320,192,27378,1,0,0:0:0:0:
192,192,27529,1,0,0:0:0:0:
64,192,27680,1,0,0:0:0:0:
448,192,27680,128,0,28134:0:0:0:0:
64,192,28134,1,0,0:0:0:0:
320,192,28134,128,0,28286:0:0:0:0:
64,192,28437,1,0,0:0:0:0:
192,192,28437,128,0,28588:0:0:0:0:
320,192,28740,1,0,0:0:0:0:
448,192,28740,1,0,0:0:0:0:
64,192,28841,1,0,0:0:0:0:
448,192,28941,1,0,0:0:0:0:
64,192,29042,128,0,29496:0:0:0:0:
192,192,29042,1,0,0:0:0:0:
448,192,29194,128,0,29496:0:0:0:0:
320,192,29345,128,0,29496:0:0:0:0:
192,192,29496,1,0,0:0:0:0:
64,192,29648,1,0,0:0:0:0:
448,192,29648,128,0,30102:0:0:0:0:
320,192,29799,128,0,30102:0:0:0:0:
192,192,29950,128,0,30102:0:0:0:0:
64,192,30102,1,0,0:0:0:0:
192,192,30253,1,10,0:0:0:0:
320,192,30253,1,4,0:0:0:0:
64,192,30329,1,8,0:0:0:0:
448,192,30404,1,8,0:0:0:0:
320,192,30480,1,8,0:0:0:0:
192,192,30556,1,12,0:0:0:0:
64,192,30631,1,8,0:0:0:0:
320,192,30707,1,8,0:0:0:0:
448,192,30783,1,8,0:0:0:0:
64,192,30859,1,12,0:0:0:0:
192,192,30934,1,8,0:0:0:0:
320,192,31010,1,10,0:0:0:0:
448,192,31086,1,10,0:0:0:0:
64,192,31161,128,8,31464:0:0:0:0:
192,192,31161,128,4,31313:0:0:0:0:
320,192,31464,128,2,31767:0:0:0:0:
448,192,31464,128,4,31615:0:0:0:0:
64,192,31767,1,8,0:0:0:0:
192,192,31767,1,0,0:0:0:0:
64,192,31918,128,2,32221:0:0:0:0:
448,192,31918,128,4,32069:0:0:0:0:
320,192,32221,1,8,0:0:0:0:
448,192,32221,1,0,0:0:0:0:
64,192,32372,1,2,0:0:0:0:
192,192,32372,1,4,0:0:0:0:
320,192,32523,1,0,0:0:0:0:
64,192,32675,1,8,0:0:0:0:
448,192,32675,1,0,0:0:0:0:
192,192,32826,1,2,0:0:0:0:
320,192,32826,1,4,0:0:0:0:
64,192,32977,1,0,0:0:0:0:
448,192,33129,1,8,0:0:0:0:
320,192,33204,1,8,0:0:0:0:
64,192,33280,1,8,0:0:0:0:
192,192,33280,1,0,0:0:0:0:
320,192,33431,1,4,0:0:0:0:
448,192,33431,1,2,0:0:0:0:
64,192,33583,1,8,0:0:0:0:
448,192,33583,1,0,0:0:0:0:
192,192,33734,1,2,0:0:0:0:
320,192,33734,1,4,0:0:0:0:
64,192,33885,128,2,34491:0:0:0:0:
448,192,33885,128,4,34188:0:0:0:0:
192,192,34188,1,8,0:0:0:0:
320,192,34188,1,0,0:0:0:0:
448,192,34339,1,6,0:0:0:0:
320,192,34491,128,0,34794:0:0:0:0:
64,192,34642,1,8,0:0:0:0:
448,192,34642,1,0,0:0:0:0:
192,192,34794,128,6,35096:0:0:0:0:
320,192,34945,1,0,0:0:0:0:
64,192,35096,128,8,35702:0:0:0:0:
448,192,35096,1,0,0:0:0:0:
192,192,35248,1,6,0:0:0:0:
320,192,35399,1,0,0:0:0:0:
192,192,35550,1,8,0:0:0:0:
320,192,35702,1,10,0:0:0:0:
448,192,35702,128,4,36004:0:0:0:0:
64,192,35853,1,8,0:0:0:0:
192,192,35929,1,0,0:0:0:0:
320,192,36004,1,8,0:0:0:0:
64,192,36080,1,8,0:0:0:0:
192,192,36156,1,8,0:0:0:0:
320,192,36231,1,8,0:0:0:0:
64,192,36307,1,4,0:0:0:0:
448,192,36307,1,2,0:0:0:0:
448,192,36458,1,0,0:0:0:0:
192,192,36610,1,8,0:0:0:0:
320,192,36610,1,0,0:0:0:0:
64,192,36761,1,2,0:0:0:0:
320,192,36761,1,4,0:0:0:0:
64,192,36912,1,8,0:0:0:0:
448,192,36912,1,0,0:0:0:0:
192,192,37064,1,2,0:0:0:0:
448,192,37064,1,4,0:0:0:0:
192,192,37215,1,8,0:0:0:0:
320,192,37215,1,0,0:0:0:0:
320,192,37366,1,2,0:0:0:0:
448,192,37366,1,0,0:0:0:0:
192,192,37442,1,2,0:0:0:0:
64,192,37518,1,10,0:0:0:0:
448,192,37518,1,4,0:0:0:0:
64,192,37669,1,0,0:0:0:0:
320,192,37820,1,8,0:0:0:0:
448,192,37820,1,0,0:0:0:0:
64,192,37972,1,2,0:0:0:0:
448,192,37972,1,0,0:0:0:0:
64,192,38123,1,8,0:0:0:0:
192,192,38123,1,4,0:0:0:0:
192,192,38275,1,8,0:0:0:0:
320,192,38275,1,0,0:0:0:0:
64,192,38426,1,8,0:0:0:0:
448,192,38426,1,2,0:0:0:0:
320,192,38502,1,8,0:0:0:0:
192,192,38577,1,8,0:0:0:0:
64,192,38653,1,8,0:0:0:0:
320,192,38729,1,12,0:0:0:0:
448,192,38729,128,2,39183:0:0:0:0:
192,192,38880,1,0,0:0:0:70:tom01.wav
320,192,39031,1,2,0:0:0:0:
64,192,39183,128,2,39334:0:0:0:0:
192,192,39183,128,4,39334:0:0:0:0:
192,192,39485,128,4,39637:0:0:0:0:
320,192,39485,128,2,39637:0:0:0:0:
64,192,39788,1,2,0:0:0:0:
320,192,39788,128,4,40393:0:0:0:0:
448,192,39788,128,0,40393:0:0:0:0:
64,192,40091,1,12,0:0:0:0:
192,192,40091,1,2,0:0:0:0:
64,192,40242,1,6,0:0:0:0:
192,192,40242,1,8,0:0:0:0:
64,192,40545,128,0,40696:0:0:0:0:
448,192,40545,1,0,0:0:0:0:
64,192,40847,128,0,40999:0:0:0:0:
320,192,40847,1,0,0:0:0:0:
64,192,41150,128,2,41453:0:0:0:0:
192,192,41150,128,4,41301:0:0:0:0:
448,192,41150,128,0,41604:0:0:0:70:clapwet.wav
320,192,41453,1,0,0:0:0:0:
192,192,41528,1,0,0:0:0:0:
64,192,41604,1,0,0:0:0:0:
320,192,41680,1,0,0:0:0:0:
64,192,41755,1,8,0:0:0:0:
448,192,41755,1,0,0:0:0:0:
192,192,41831,1,0,0:0:0:0:
320,192,41907,1,0,0:0:0:0:
64,192,41983,1,0,0:0:0:0:
448,192,42058,1,0,0:0:0:0:
320,192,42134,1,0,0:0:0:0:
64,192,42210,128,2,42512:0:0:0:0:
192,192,42210,128,4,42361:0:0:0:0:
192,192,42512,1,2,0:0:0:0:
448,192,42512,128,0,42815:0:0:0:0:
320,192,42664,128,0,42815:0:0:0:0:
64,192,42815,1,0,0:0:0:0:
192,192,42891,1,0,0:0:0:0:
320,192,42966,1,8,0:0:0:0:
448,192,42966,1,0,0:0:0:0:
64,192,43042,1,0,0:0:0:0:
448,192,43118,1,0,0:0:0:0:
320,192,43193,1,0,0:0:0:0:
64,192,43269,1,0,0:0:0:0:
192,192,43345,1,0,0:0:0:0:
320,192,43420,128,2,43723:0:0:0:0:
448,192,43420,128,4,43874:0:0:0:0:
192,192,43723,1,2,0:0:0:0:
64,192,43799,1,0,0:0:0:0:
320,192,43874,1,0,0:0:0:0:
192,192,43950,1,0,0:0:0:0:
320,192,44026,1,0,0:0:0:0:
448,192,44101,1,0,0:0:0:0:
64,192,44177,1,8,0:0:0:0:
192,192,44177,1,0,0:0:0:0:
320,192,44253,1,0,0:0:0:0:
64,192,44328,1,2,0:0:0:0:
448,192,44404,1,0,0:0:0:0:
192,192,44480,1,0,0:0:0:0:
320,192,44555,1,0,0:0:0:0:
64,192,44631,128,2,44934:0:0:0:0:
448,192,44631,128,4,44782:0:0:0:0:
320,192,44934,128,2,45236:0:0:0:0:
448,192,44934,1,0,0:0:0:0:
192,192,45085,128,0,45236:0:0:0:0:
64,192,45236,1,0,0:0:0:0:
448,192,45312,1,0,0:0:0:0:
64,192,45388,1,8,0:0:0:0:
192,192,45388,1,4,0:0:0:0:
448,192,45463,1,0,0:0:0:0:
192,192,45539,1,0,0:0:0:0:
320,192,45615,1,0,0:0:0:0:
64,192,45691,1,8,0:0:0:0:
448,192,45691,1,4,0:0:0:0:
192,192,45766,1,8,0:0:0:0:
320,192,45842,1,8,0:0:0:0:
448,192,45918,1,8,0:0:0:0:
64,192,45993,128,4,46447:0:0:0:0:
192,192,45993,128,2,46296:0:0:0:0:
320,192,45993,128,0,46145:0:0:0:0:
448,192,46296,1,0,0:0:0:0:
320,192,46372,1,0,0:0:0:0:
192,192,46447,1,0,0:0:0:0:
64,192,46523,1,0,0:0:0:0:
320,192,46599,1,8,0:0:0:0:
448,192,46599,1,0,0:0:0:0:
320,192,46750,128,0,46901:0:0:0:0:
448,192,46750,128,0,47053:0:0:0:0:
64,192,47053,128,2,47507:0:0:0:0:
192,192,47053,128,4,47355:0:0:0:0:
320,192,47204,1,0,0:0:0:0:
448,192,47355,1,2,0:0:0:0:
320,192,47431,1,0,0:0:0:0:
192,192,47507,1,0,0:0:0:0:
448,192,47582,1,0,0:0:0:0:
64,192,47658,1,0,0:0:0:0:
192,192,47734,1,0,0:0:0:0:
320,192,47809,128,8,48036:0:0:0:0:
448,192,47809,128,0,48112:0:0:0:0:
64,192,48036,1,0,0:0:0:0:
192,192,48112,1,8,0:0:0:0:
320,192,48188,1,8,0:0:0:0:
448,192,48263,1,8,0:0:0:0:
64,192,48339,1,8,0:0:0:0:
192,192,48415,128,2,48717:0:0:0:0:
320,192,48415,128,4,48566:0:0:0:0:
448,192,48566,1,0,0:0:0:70:tom01.wav
64,192,48717,1,0,0:0:0:0:
320,192,48869,128,2,49020:0:0:0:0:
448,192,48869,128,0,49171:0:0:0:0:
192,192,49171,128,2,49323:0:0:0:0:
320,192,49171,128,0,49474:0:0:0:0:
64,192,49474,128,2,49626:0:0:0:0:
192,192,49474,128,0,49777:0:0:0:0:
448,192,49777,1,8,0:0:0:0:
320,192,49853,1,8,0:0:0:0:
64,192,49928,1,10,0:0:0:0:
192,192,49928,1,4,0:0:0:0:
192,192,50080,1,8,0:0:0:0:
320,192,50080,1,0,0:0:0:0:
320,192,50231,1,8,0:0:0:0:
448,192,50231,1,4,0:0:0:0:
64,192,50382,1,8,0:0:0:0:
192,192,50382,1,0,0:0:0:0:
448,192,50458,1,8,0:0:0:0:
64,192,50534,1,14,0:0:0:0:
320,192,50609,1,8,0:0:0:0:
192,192,50685,1,0,0:0:0:70:tom01.wav
320,192,50761,1,0,0:0:0:70:tom02.wav
64,192,50836,1,6,0:0:0:0:
448,192,50836,1,8,0:0:0:0:
64,192,50988,1,6,0:0:0:0:
448,192,50988,1,8,0:0:0:0:
64,192,51139,1,12,0:0:0:0:
448,192,51139,1,2,0:0:0:0:
64,192,51290,128,6,51442:0:0:0:0:
448,192,51290,1,8,0:0:0:0:
192,192,51366,1,0,0:0:0:0:
320,192,51442,128,0,51593:0:0:0:0:
448,192,51517,1,0,0:0:0:0:
192,192,51593,128,0,51744:0:0:0:0:
64,192,51669,1,0,0:0:0:0:
448,192,51744,128,0,51896:0:0:0:0:
320,192,51820,1,0,0:0:0:0:
64,192,51896,128,0,52047:0:0:0:0:
192,192,51971,1,0,0:0:0:0:
320,192,52047,128,0,52198:0:0:0:0:
448,192,52123,1,0,0:0:0:0:
192,192,52198,128,0,52350:0:0:0:0:
64,192,52274,1,0,0:0:0:0:
448,192,52350,128,0,52501:0:0:0:0:
320,192,52425,1,0,0:0:0:0:
64,192,52501,128,0,52652:0:0:0:0:
192,192,52577,1,0,0:0:0:0:
320,192,52652,128,12,52804:0:0:0:0:
448,192,52652,128,2,52804:0:0:0:0:
64,192,52879,128,4,53031:0:0:0:0:
192,192,52879,128,0,53031:0:0:0:70:tom01.wav
64,192,53107,128,4,53258:0:0:0:0:
448,192,53107,128,0,53258:0:0:0:70:tom02.wav
192,192,53258,1,6,0:0:0:0:
320,192,53258,1,8,0:0:0:0:
192,192,53409,1,12,0:0:0:0:
320,192,53409,1,2,0:0:0:0:
192,192,53561,1,6,0:0:0:0:
320,192,53561,1,8,0:0:0:0:
192,192,53712,128,12,53863:0:0:0:0:
320,192,53712,1,2,0:0:0:0:
64,192,53788,1,0,0:0:0:0:
448,192,53863,128,0,54015:0:0:0:0:
320,192,53939,1,0,0:0:0:0:
64,192,54015,128,8,54166:0:0:0:0:
192,192,54090,1,0,0:0:0:0:
320,192,54166,128,2,54317:0:0:0:0:
448,192,54242,1,2,0:0:0:0:
192,192,54317,128,2,54469:0:0:0:0:
64,192,54393,1,0,0:0:0:0:
320,192,54469,1,2,0:0:0:0:
448,192,54469,1,4,0:0:0:0:
192,192,54670,1,2,0:0:0:0:
320,192,54670,1,4,0:0:0:0:
64,192,54872,1,2,0:0:0:0:
192,192,54872,1,4,0:0:0:0:
320,192,55074,1,6,0:0:0:0:
448,192,55074,1,8,0:0:0:0:
192,192,55276,1,12,0:0:0:0:
320,192,55276,1,2,0:0:0:0:
64,192,55478,1,10,0:0:0:0:
192,192,55478,1,4,0:0:0:0:
64,192,55679,1,2,0:0:0:0:
320,192,55679,1,4,0:0:0:0:
448,192,55679,1,0,0:0:0:0:
192,192,55831,128,8,56058:0:0:0:0:
64,192,55831,1,0,0:0:0:0:
320,192,55906,128,8,56058:0:0:0:0:
448,192,55982,128,8,56058:0:0:0:0:
64,192,56133,1,2,0:0:0:0:
448,192,56133,1,4,0:0:0:0:
192,192,56285,128,8,56512:0:0:0:0:
64,192,56285,1,0,0:0:0:0:
320,192,56360,128,8,56512:0:0:0:0:
448,192,56436,128,8,56512:0:0:0:0:
64,192,56587,1,2,0:0:0:0:
448,192,56587,1,4,0:0:0:0:
192,192,56739,128,8,56966:0:0:0:0:
64,192,56739,1,0,0:0:0:0:
320,192,56815,128,8,56966:0:0:0:0:
448,192,56890,128,8,56966:0:0:0:0:
64,192,57042,1,2,0:0:0:0:
448,192,57042,1,4,0:0:0:0:
192,192,57193,128,8,57420:0:0:0:0:
64,192,57193,1,0,0:0:0:0:
320,192,57269,128,8,57420:0:0:0:0:
448,192,57344,128,8,57420:0:0:0:0:
64,192,57496,1,2,0:0:0:0:
448,192,57496,1,4,0:0:0:0:
448,192,57647,1,8,0:0:0:0:
320,192,57647,128,0,57874:0:0:0:0:
192,192,57723,128,8,57874:0:0:0:0:
64,192,57798,128,8,57874:0:0:0:0:
64,192,57950,1,2,0:0:0:0:
448,192,57950,1,4,0:0:0:0:
448,192,58101,1,8,0:0:0:0:
320,192,58101,128,0,58328:0:0:0:70:tom01.wav
192,192,58177,128,8,58328:0:0:0:0:
64,192,58252,128,8,58328:0:0:0:0:
64,192,58404,1,2,0:0:0:0:
448,192,58404,1,4,0:0:0:0:
448,192,58555,1,8,0:0:0:0:
320,192,58555,128,0,58782:0:0:0:0:
192,192,58631,128,0,58782:0:0:0:0:
64,192,58706,128,8,58782:0:0:0:0:
64,192,58858,1,2,0:0:0:0:
448,192,58858,1,4,0:0:0:0:
448,192,59009,1,8,0:0:0:0:
320,192,59009,128,0,59236:0:0:0:0:
192,192,59085,128,0,59236:0:0:0:0:
64,192,59160,128,8,59236:0:0:0:0:
192,192,59312,1,2,0:0:0:0:
448,192,59312,1,4,0:0:0:0:
320,192,59387,1,0,0:0:0:0:
64,192,59463,1,0,0:0:0:0:
192,192,59539,1,6,0:0:0:0:
448,192,59614,1,0,0:0:0:0:
320,192,59690,1,0,0:0:0:0:
192,192,59766,1,6,0:0:0:0:
64,192,59841,1,0,0:0:0:0:
448,192,59917,1,0,0:0:0:0:
320,192,59993,1,6,0:0:0:0:
192,192,60068,1,0,0:0:0:0:
448,192,60144,1,0,0:0:0:0:
64,192,60220,1,6,0:0:0:0:
192,192,60295,1,0,0:0:0:0:
320,192,60371,1,0,0:0:0:0:
448,192,60447,1,6,0:0:0:0:
64,192,60523,1,0,0:0:0:0:
320,192,60598,1,0,0:0:0:0:
192,192,60674,1,6,0:0:0:0:
64,192,60750,1,0,0:0:0:0:
320,192,60825,1,0,0:0:0:0:
192,192,60901,1,6,0:0:0:0:
448,192,60977,1,0,0:0:0:0:
64,192,61052,1,0,0:0:0:0:
320,192,61128,1,6,0:0:0:0:
192,192,61204,1,0,0:0:0:0:
320,192,61279,1,0,0:0:0:0:
64,192,61355,1,6,0:0:0:0:
448,192,61431,1,0,0:0:0:0:
320,192,61506,1,0,0:0:0:0:
192,192,61582,1,6,0:0:0:0:
64,192,61658,1,0,0:0:0:0:
448,192,61733,1,10,0:0:0:0:
192,192,61809,1,8,0:0:0:0:
448,192,61885,1,8,0:0:0:0:
192,192,61960,1,8,0:0:0:0:
448,192,62036,1,8,0:0:0:0:
192,192,62112,1,8,0:0:0:0:
448,192,62187,1,8,0:0:0:0:
192,192,62263,1,8,0:0:0:0:
448,192,62339,1,8,0:0:0:0:
192,192,62414,1,8,0:0:0:0:
448,192,62490,1,8,0:0:0:0:
192,192,62566,1,8,0:0:0:0:
448,192,62641,1,8,0:0:0:0:
192,192,62717,1,8,0:0:0:0:
448,192,62793,1,8,0:0:0:0:
192,192,62868,1,8,0:0:0:0:
320,192,62944,128,10,63549:0:0:0:0:
448,192,62944,128,4,64155:0:0:0:0:
320,192,65063,128,0,65214:0:0:0:0:
64,192,65366,1,0,0:0:0:0:
192,192,65403,128,0,65555:0:0:0:0:
448,192,65820,1,0,0:0:0:0:
448,192,65971,128,0,66122:0:0:0:0:
192,192,66425,1,0,0:0:0:0:
192,192,66576,128,0,66728:0:0:0:0:
320,192,67030,1,0,0:0:0:0:
320,192,67182,128,0,67333:0:0:0:0:
64,192,67636,1,0,0:0:0:0:
448,192,67787,1,0,0:0:0:0:
192,192,67825,128,0,67976:0:0:0:0:
320,192,68241,1,0,0:0:0:0:
320,192,68393,128,0,68544:0:0:0:0:
448,192,68847,1,0,0:0:0:0:
192,192,68884,1,0,0:0:0:0:
320,192,68998,1,0,0:0:0:0:
64,192,69036,128,0,69187:0:0:0:0:
448,192,69603,1,0,0:0:0:0:
192,192,69906,128,0,70057:0:0:0:0:
448,192,70209,1,0,0:0:0:0:
320,192,70247,128,0,70398:0:0:0:0:
64,192,70663,1,0,0:0:0:0:
64,192,70814,128,0,70965:0:0:0:0:
320,192,71268,1,0,0:0:0:0:
320,192,71420,128,0,71571:0:0:0:0:
448,192,71874,1,0,0:0:0:0:
448,192,72025,128,0,72176:0:0:0:0:
192,192,72441,1,0,0:0:0:0:
448,192,72479,1,0,0:0:0:0:
64,192,72630,1,0,0:0:0:0:
320,192,72668,128,0,72819:0:0:0:0:
192,192,73084,1,0,0:0:0:0:
192,192,73236,128,0,73387:0:0:0:0:
64,192,73690,1,0,0:0:0:0:
448,192,73841,128,0,73992:0:0:0:0:
192,192,73879,1,0,0:0:0:0:
320,192,74446,128,0,74598:0:0:0:0:
64,192,74749,128,0,74900:0:0:0:0:
192,192,75052,1,4,0:0:0:0:
448,192,75052,128,0,75203:0:0:0:70:tick01.wav
320,192,75355,1,0,0:0:0:0:
192,192,75657,1,0,0:0:0:70:tick02_edit.wav
448,192,75809,128,0,75960:0:0:0:0:
64,192,75960,128,0,76111:0:0:0:0:
192,192,76111,128,0,76263:0:0:0:0:
448,192,76263,1,0,0:0:0:70:tick01.wav
320,192,76300,128,0,76452:0:0:0:0:
64,192,76565,1,0,0:0:0:0:
192,192,76868,128,0,77019:0:0:0:70:tick02_edit.wav
192,192,77171,1,0,0:0:0:0:
448,192,77473,1,0,0:0:0:70:tick01.wav
320,192,77511,128,0,77663:0:0:0:0:
64,192,77776,1,0,0:0:0:0:
192,192,77927,1,0,0:0:0:0:
320,192,78079,1,0,0:0:0:70:tick02_edit.wav
64,192,78230,1,0,0:0:0:0:
448,192,78533,1,0,0:0:0:0:
192,192,78684,1,2,0:0:0:0:
448,192,78722,128,0,78873:0:0:0:0:
64,192,78987,1,2,0:0:0:0:
192,192,79290,1,2,0:0:0:0:
448,192,79290,128,0,79390:0:0:0:70:tick02_edit.wav
64,192,79441,1,2,0:0:0:0:
320,192,79491,128,0,79592:0:0:0:0:
448,192,79668,1,2,0:0:0:0:
192,192,79693,128,0,79794:0:0:0:0:
320,192,79819,1,2,0:0:0:0:
448,192,79895,1,0,0:0:0:0:
64,192,79933,128,0,80084:0:0:0:0:
320,192,80198,1,0,0:0:0:0:
192,192,80500,128,0,80652:0:0:0:0:
64,192,80803,1,0,0:0:0:0:
448,192,81106,128,0,81257:0:0:0:0:
192,192,81144,1,0,0:0:0:0:
64,192,81711,1,0,0:0:0:0:
320,192,82014,128,0,82165:0:0:0:0:
192,192,82279,1,0,0:0:0:0:
64,192,82316,128,0,83679:0:0:0:0:
448,192,82316,128,0,82468:0:0:0:0:
192,192,82619,128,0,83679:0:0:0:0:
320,192,82922,128,0,83679:0:0:0:0:
448,192,83225,128,0,83679:0:0:0:0:
320,192,83830,1,0,0:0:0:0:
320,192,83981,1,0,0:0:0:0:
64,192,84133,1,0,0:0:0:0:
192,192,84208,1,0,0:0:0:0:
64,192,84284,1,0,0:0:0:0:
448,192,84360,1,0,0:0:0:0:
320,192,84435,1,0,0:0:0:0:
448,192,84511,1,0,0:0:0:0:
64,192,84587,1,0,0:0:0:0:
192,192,84662,1,0,0:0:0:0:
64,192,84738,1,12,0:0:0:0:
448,192,84738,1,2,0:0:0:0:
320,192,84839,1,8,0:0:0:0:
192,192,84940,1,8,0:0:0:0:
64,192,85041,1,8,0:0:0:0:
448,192,85041,1,4,0:0:0:0:
320,192,85142,1,8,0:0:0:0:
192,192,85243,1,8,0:0:0:0:
64,192,85343,1,8,0:0:0:0:
448,192,85343,1,4,0:0:0:0:
320,192,85444,1,8,0:0:0:0:
192,192,85545,1,8,0:0:0:0:
64,192,85646,1,8,0:0:0:0:
448,192,85646,1,4,0:0:0:0:
320,192,85747,1,8,0:0:0:0:
192,192,85848,1,8,0:0:0:0:
320,192,85949,1,12,0:0:0:0:
448,192,85949,1,2,0:0:0:0:
64,192,86050,1,8,0:0:0:0:
192,192,86151,1,8,0:0:0:0:
320,192,86252,1,8,0:0:0:0:
448,192,86252,1,4,0:0:0:0:
64,192,86352,1,8,0:0:0:0:
192,192,86453,1,8,0:0:0:0:
320,192,86554,1,12,0:0:0:0:
448,192,86554,1,2,0:0:0:0:
192,192,86756,1,10,0:0:0:0:
320,192,86756,1,4,0:0:0:0:
64,192,86958,1,10,0:0:0:0:
192,192,86958,1,4,0:0:0:0:
64,192,87160,1,0,0:0:0:0:
448,192,87160,128,0,87462:0:0:0:0:
320,192,87311,128,2,87614:0:0:0:0:
192,192,87387,128,2,87614:0:0:0:0:
64,192,87462,128,12,87614:0:0:0:0:
448,192,87614,1,0,0:0:0:0:
64,192,87765,128,0,88068:0:0:0:0:
448,192,87765,1,0,0:0:0:0:
192,192,87916,128,2,88219:0:0:0:0:
320,192,88068,128,0,88219:0:0:0:0:
448,192,88068,1,8,0:0:0:0:
64,192,88219,1,0,0:0:0:0:
64,192,88370,1,2,0:0:0:0:
448,192,88370,128,0,88673:0:0:0:0:
320,192,88522,128,0,88824:0:0:0:0:
192,192,88673,128,8,88824:0:0:0:0:
64,192,88673,1,0,0:0:0:0:
448,192,88824,1,0,0:0:0:0:
64,192,88976,128,0,89127:0:0:0:0:
448,192,88976,1,0,0:0:0:0:
320,192,89127,1,2,0:0:0:0:
192,192,89203,128,0,89354:0:0:0:0:
64,192,89278,1,8,0:0:0:0:
448,192,89278,1,0,0:0:0:0:
320,192,89430,128,0,89581:0:0:0:0:
64,192,89581,128,2,90035:0:0:0:0:
448,192,89581,1,0,0:0:0:0:
448,192,89732,1,0,0:0:0:0:
192,192,89884,128,8,90035:0:0:0:0:
320,192,89884,1,0,0:0:0:0:
448,192,90035,128,0,90489:0:0:0:0:
64,192,90338,1,2,0:0:0:0:
320,192,90338,128,0,90489:0:0:0:0:
64,192,90489,1,8,0:0:0:0:
192,192,90489,1,0,0:0:0:0:
192,192,90641,128,2,90943:0:0:0:0:
448,192,90641,1,4,0:0:0:0:
64,192,90943,1,2,0:0:0:0:
448,192,91019,1,0,0:0:0:0:
320,192,91095,1,8,0:0:0:0:
192,192,91170,1,0,0:0:0:0:
64,192,91246,1,0,0:0:0:0:
448,192,91322,1,0,0:0:0:0:
320,192,91397,1,0,0:0:0:0:
64,192,91473,1,0,0:0:0:0:
192,192,91549,1,2,0:0:0:0:
448,192,91624,1,2,0:0:0:0:
320,192,91700,1,8,0:0:0:0:
64,192,91776,1,0,0:0:0:0:
192,192,91851,1,0,0:0:0:0:
320,192,91927,1,0,0:0:0:0:
64,192,92003,128,4,92078:0:0:0:0:
448,192,92003,1,2,0:0:0:0:
320,192,92154,128,0,92381:0:0:0:0:
192,192,92230,128,0,92381:0:0:0:0:
64,192,92305,128,8,92381:0:0:0:0:
448,192,92381,128,0,92608:0:0:0:0:
320,192,92457,128,0,92608:0:0:0:0:
192,192,92532,128,0,92608:0:0:0:0:
64,192,92608,128,0,92684:0:0:0:0:
320,192,92759,1,2,0:0:0:0:
192,192,92835,128,0,92911:0:0:0:0:
64,192,92911,1,8,0:0:0:0:
448,192,92911,1,0,0:0:0:0:
320,192,93062,128,0,93138:0:0:0:0:
64,192,93213,1,0,0:0:0:0:
448,192,93213,128,0,93289:0:0:0:0:
192,192,93365,128,2,93592:0:0:0:0:
320,192,93440,128,0,93592:0:0:0:0:
448,192,93516,128,8,93592:0:0:0:0:
64,192,93592,128,0,93819:0:0:0:0:
192,192,93668,128,0,93819:0:0:0:0:
320,192,93743,128,0,93819:0:0:0:0:
448,192,93819,128,0,93895:0:0:0:0:
64,192,93970,1,2,0:0:0:0:
192,192,93970,1,0,0:0:0:0:
320,192,94046,128,2,94122:0:0:0:0:
64,192,94122,1,8,0:0:0:0:
448,192,94122,1,4,0:0:0:0:
192,192,94273,128,0,94349:0:0:0:0:
64,192,94424,128,2,94576:0:0:0:0:
448,192,94424,128,4,94727:0:0:0:0:
192,192,94576,1,8,0:0:0:0:
320,192,94651,1,8,0:0:0:0:
192,192,94727,1,8,0:0:0:0:
320,192,94803,1,8,0:0:0:0:
64,192,94878,128,10,95181:0:0:0:0:
448,192,94878,128,4,95030:0:0:0:0:
320,192,95030,1,0,0:0:0:70:tom01.wav
192,192,95105,1,0,0:0:0:70:tom02.wav
320,192,95181,1,0,0:0:0:70:tom03.wav
192,192,95257,1,0,0:0:0:70:tom04.wav
64,192,95332,128,2,95484:0:0:0:0:
448,192,95332,128,4,95635:0:0:0:0:
192,192,95484,1,12,0:0:0:0:
320,192,95559,1,0,0:0:0:0:
192,192,95635,1,0,0:0:0:0:
320,192,95711,1,0,0:0:0:70:tom01.wav
64,192,95786,128,2,96089:0:0:0:0:
448,192,95786,128,4,95938:0:0:0:0:
320,192,95938,1,8,0:0:0:0:
192,192,96013,1,8,0:0:0:0:
320,192,96089,1,8,0:0:0:0:
192,192,96165,1,8,0:0:0:0:
64,192,96240,128,12,96392:0:0:0:0:
448,192,96240,128,2,96543:0:0:0:0:
320,192,96392,128,0,96694:0:0:0:0:
64,192,96543,128,6,96846:0:0:0:0:
192,192,96694,128,0,96846:0:0:0:0:
320,192,96846,1,2,0:0:0:0:
448,192,96846,128,4,97148:0:0:0:0:
64,192,97148,1,4,0:0:0:0:
192,192,97148,1,8,0:0:0:0:
320,192,97249,1,0,0:0:0:0:
192,192,97350,1,0,0:0:0:0:
64,192,97451,1,0,0:0:0:0:
320,192,97552,1,0,0:0:0:0:
192,192,97653,1,0,0:0:0:0:
64,192,97754,1,8,0:0:0:0:
448,192,97754,1,0,0:0:0:0:
320,192,97855,1,0,0:0:0:0:
192,192,97956,1,0,0:0:0:0:
64,192,98057,128,2,98359:0:0:0:0:
448,192,98057,1,0,0:0:0:0:
320,192,98359,128,8,98662:0:0:0:0:
448,192,98359,1,0,0:0:0:0:
192,192,98460,128,0,98662:0:0:0:0:
64,192,98561,128,0,98662:0:0:0:0:
448,192,98662,128,0,98889:0:0:0:0:
64,192,98813,1,2,0:0:0:0:
192,192,98889,128,0,99116:0:0:0:0:
320,192,98965,1,8,0:0:0:0:
448,192,98965,1,0,0:0:0:0:
320,192,99116,128,0,99267:0:0:0:0:
64,192,99267,128,2,99570:0:0:0:0:
448,192,99267,1,4,0:0:0:0:
320,192,99570,1,8,0:0:0:0:
448,192,99570,1,0,0:0:0:0:
192,192,99671,1,0,0:0:0:0:
64,192,99772,1,0,0:0:0:0:
320,192,99873,1,0,0:0:0:0:
192,192,99974,1,0,0:0:0:0:
448,192,100075,1,0,0:0:0:0:
64,192,100175,1,8,0:0:0:0:
320,192,100175,1,0,0:0:0:0:
192,192,100276,1,0,0:0:0:0:
64,192,100377,1,0,0:0:0:0:
448,192,100478,1,0,0:0:0:0:
320,192,100579,1,0,0:0:0:0:
192,192,100680,1,0,0:0:0:0:
64,192,100781,1,8,0:0:0:0:
448,192,100781,1,0,0:0:0:0:
320,192,100882,1,0,0:0:0:0:
192,192,100983,1,0,0:0:0:0:
64,192,101084,1,0,0:0:0:70:tom01.wav
192,192,101159,1,0,0:0:0:70:tom02.wav
320,192,101235,1,2,0:0:0:0:
448,192,101311,1,2,0:0:0:0:
64,192,101386,1,8,0:0:0:0:
192,192,101386,1,4,0:0:0:0:
192,192,101538,1,2,0:0:0:0:
64,192,101689,1,8,0:0:0:0:
320,192,101689,1,4,0:0:0:0:
448,192,101689,1,0,0:0:0:0:
192,192,101992,1,8,0:0:0:0:
448,192,101992,1,0,0:0:0:0:
192,192,102143,1,2,0:0:0:0:
64,192,102294,1,8,0:0:0:0:
448,192,102294,1,0,0:0:0:0:
448,192,102446,1,2,0:0:0:0:
192,192,102597,1,8,0:0:0:0:
320,192,102597,1,0,0:0:0:0:
64,192,102748,1,2,0:0:0:0:
192,192,102824,1,2,0:0:0:0:
320,192,102900,1,8,0:0:0:0:
448,192,102900,1,4,0:0:0:0:
64,192,103051,1,8,0:0:0:0:
192,192,103127,1,8,0:0:0:0:
448,192,103202,1,2,0:0:0:0:
320,192,103278,1,2,0:0:0:0:
192,192,103354,1,0,0:0:0:70:tom01.wav
64,192,103429,1,8,0:0:0:0:
320,192,103505,128,8,103656:0:0:0:0:
448,192,103505,128,4,103656:0:0:0:0:
192,192,103732,128,2,103883:0:0:0:0:
320,192,103732,128,4,103883:0:0:0:0:
64,192,103959,128,6,104110:0:0:0:0:
192,192,103959,128,8,104110:0:0:0:0:
320,192,104110,1,2,0:0:0:0:
448,192,104110,128,4,105321:0:0:0:0:
64,192,104262,1,8,0:0:0:0:
192,192,104337,1,8,0:0:0:0:
320,192,104413,1,8,0:0:0:0:
64,192,104489,1,8,0:0:0:0:
192,192,104564,1,14,0:0:0:0:
320,192,104640,1,8,0:0:0:0:
64,192,104716,1,8,0:0:0:0:
192,192,104792,1,8,0:0:0:0:
320,192,104867,1,8,0:0:0:0:
64,192,104943,1,10,0:0:0:0:
192,192,105019,1,12,0:0:0:0:
320,192,105094,1,8,0:0:0:0:
64,192,105170,1,8,0:0:0:0:
192,192,105246,1,8,0:0:0:0:
320,192,105321,128,6,105927:0:0:0:0:
192,192,105624,128,0,105927:0:0:0:0:
64,192,105927,1,4,0:0:0:0:
448,192,105927,1,8,0:0:0:0:
320,192,106002,1,8,0:0:0:0:
64,192,106078,1,8,0:0:0:0:
320,192,106154,1,8,0:0:0:0:
64,192,106229,1,8,0:0:0:0:
320,192,106305,1,8,0:0:0:0:
64,192,106381,1,8,0:0:0:0:
320,192,106456,1,8,0:0:0:0:
64,192,106532,128,6,108272:0:0:0:0:
448,192,106532,1,8,0:0:0:0:
320,192,106608,1,0,0:0:0:0:
192,192,106683,128,0,106910:0:0:0:0:
320,192,106759,128,0,106910:0:0:0:0:
448,192,106835,128,0,106910:0:0:0:0:
192,192,106986,1,6,0:0:0:0:
320,192,107062,1,0,0:0:0:0:
448,192,107137,128,0,107364:0:0:0:0:
320,192,107213,128,0,107364:0:0:0:0:
192,192,107289,128,0,107364:0:0:0:0:
448,192,107440,1,6,0:0:0:0:
320,192,107516,1,0,0:0:0:0:
192,192,107591,128,0,107818:0:0:0:0:
320,192,107667,128,0,107818:0:0:0:0:
448,192,107743,128,0,107818:0:0:0:0:
192,192,107894,1,6,0:0:0:0:
320,192,107970,1,0,0:0:0:0:
448,192,108045,128,0,108272:0:0:0:0:
320,192,108121,128,0,108272:0:0:0:0:
192,192,108197,128,0,108272:0:0:0:0:
64,192,108348,1,4,0:0:0:0:
448,192,108348,1,2,0:0:0:0:
320,192,108500,1,8,0:0:0:0:
64,192,108575,1,8,0:0:0:0:
448,192,108651,1,8,0:0:0:0:
192,192,108727,1,8,0:0:0:0:
448,192,108802,1,8,0:0:0:0:
192,192,108878,1,8,0:0:0:0:
64,192,108954,1,6,0:0:0:0:
320,192,109029,1,2,0:0:0:0:
64,192,109105,1,2,0:0:0:0:
320,192,109181,1,2,0:0:0:0:
192,192,109256,1,12,0:0:0:0:
448,192,109332,1,0,0:0:0:0:
192,192,109408,1,2,0:0:0:0:
448,192,109483,1,0,0:0:0:0:
320,192,109559,1,12,0:0:0:0:
64,192,109635,1,0,0:0:0:0:
320,192,109710,1,0,0:0:0:70:tom01.wav
64,192,109786,1,0,0:0:0:0:
448,192,109862,1,0,0:0:0:70:tom02.wav
192,192,109937,1,0,0:0:0:0:
448,192,110013,1,12,0:0:0:0:
192,192,110089,1,0,0:0:0:0:
448,192,110164,1,0,0:0:0:0:
64,192,110316,1,2,0:0:0:0:
192,192,110391,1,2,0:0:0:0:
320,192,110467,1,8,0:0:0:0:
448,192,110467,1,4,0:0:0:0:
64,192,110543,1,0,0:0:0:0:
192,192,110618,1,8,0:0:0:0:
320,192,110694,1,8,0:0:0:0:
64,192,110770,128,4,110997:0:0:0:0:
448,192,110770,128,0,110997:0:0:0:70:tom01.wav
192,192,110997,128,4,111224:0:0:0:0:
320,192,110997,128,0,111224:0:0:0:70:tom02.wav
64,192,111224,128,4,111451:0:0:0:0:
448,192,111224,128,0,111451:0:0:0:70:tom01.wav
320,192,111526,1,2,0:0:0:0:
192,192,111602,1,2,0:0:0:0:
64,192,111678,1,8,0:0:0:0:
320,192,111678,1,4,0:0:0:0:
448,192,111678,128,0,112586:0:0:0:70:clapwet.wav
64,192,112132,1,2,0:0:0:0:
192,192,112132,1,0,0:0:0:0:
64,192,112283,1,8,0:0:0:0:
192,192,112283,1,0,0:0:0:0:
64,192,112586,1,2,0:0:0:0:
320,192,112662,1,0,0:0:0:0:
192,192,112737,1,0,0:0:0:0:
64,192,112813,1,0,0:0:0:0:
448,192,112889,1,8,0:0:0:0:
320,192,112964,1,0,0:0:0:0:
192,192,113040,1,0,0:0:0:0:
64,192,113116,1,0,0:0:0:0:
448,192,113191,128,0,113343:0:0:0:0:
192,192,113267,1,0,0:0:0:0:
320,192,113343,1,2,0:0:0:0:
448,192,113418,1,0,0:0:0:0:
64,192,113494,1,8,0:0:0:0:
192,192,113570,1,0,0:0:0:0:
320,192,113645,1,0,0:0:0:0:
448,192,113721,1,0,0:0:0:0:
64,192,113797,128,2,113948:0:0:0:0:
192,192,113797,128,4,113948:0:0:0:0:
448,192,113948,128,0,114099:0:0:0:0:
320,192,114024,128,0,114099:0:0:0:0:
64,192,114099,1,8,0:0:0:0:
192,192,114099,1,0,0:0:0:0:
448,192,114251,1,0,0:0:0:0:
192,192,114326,1,0,0:0:0:0:
64,192,114402,128,0,114553:0:0:0:0:
192,192,114478,128,0,114553:0:0:0:0:
448,192,114553,128,2,114705:0:0:0:0:
320,192,114629,128,0,114705:0:0:0:0:
64,192,114705,1,8,0:0:0:0:
192,192,114705,1,0,0:0:0:0:
320,192,114856,1,2,0:0:0:0:
64,192,114932,1,2,0:0:0:0:
192,192,115007,128,2,115159:0:0:0:0:
448,192,115007,1,4,0:0:0:0:
448,192,115159,1,8,0:0:0:0:
320,192,115234,1,8,0:0:0:0:
192,192,115310,1,0,0:0:0:70:tom01.wav
448,192,115386,1,0,0:0:0:70:tom02.wav
64,192,115461,1,2,0:0:0:0:
320,192,115461,128,0,115613:0:0:0:0:
64,192,115613,1,8,0:0:0:0:
192,192,115688,1,0,0:0:0:0:
320,192,115764,1,2,0:0:0:0:
64,192,115840,1,2,0:0:0:0:
192,192,115916,128,8,116067:0:0:0:0:
448,192,115916,1,4,0:0:0:0:
448,192,116067,1,2,0:0:0:0:
320,192,116143,1,2,0:0:0:0:
64,192,116218,128,2,116521:0:0:0:0:
192,192,116218,128,4,116521:0:0:0:0:
448,192,116521,1,8,0:0:0:0:
320,192,116597,1,0,0:0:0:0:
192,192,116672,1,0,0:0:0:0:
64,192,116748,1,0,0:0:0:0:
320,192,116824,128,0,116975:0:0:0:0:
448,192,116975,1,2,0:0:0:0:
64,192,117051,1,0,0:0:0:0:
192,192,117126,1,8,0:0:0:0:
320,192,117202,1,0,0:0:0:0:
448,192,117278,1,0,0:0:0:0:
64,192,117353,1,0,0:0:0:0:
192,192,117429,128,2,117580:0:0:0:0:
320,192,117429,1,4,0:0:0:0:
448,192,117580,1,0,0:0:0:0:
320,192,117656,1,0,0:0:0:0:
64,192,117732,128,8,117883:0:0:0:0:
448,192,117883,128,0,118034:0:0:0:0:
192,192,118034,1,0,0:0:0:0:
64,192,118110,1,0,0:0:0:0:
320,192,118186,1,2,0:0:0:0:
192,192,118261,1,2,0:0:0:0:
448,192,118337,1,8,0:0:0:0:
64,192,118413,1,0,0:0:0:0:
192,192,118488,1,0,0:0:0:0:
320,192,118564,1,0,0:0:0:0:
64,192,118842,1,2,0:0:0:0:
192,192,118842,1,4,0:0:0:0:
448,192,118842,1,0,0:0:0:0:
192,192,119043,1,4,0:0:0:0:
320,192,119043,1,2,0:0:0:0:
320,192,119245,1,4,0:0:0:0:
448,192,119245,1,2,0:0:0:0:
64,192,119447,1,4,0:0:0:0:
192,192,119447,1,2,0:0:0:0:
192,192,119649,1,2,0:0:0:0:
320,192,119649,1,4,0:0:0:0:
64,192,119851,1,6,0:0:0:0:
448,192,119851,1,8,0:0:0:0:
320,192,119951,1,8,0:0:0:0:
192,192,120052,1,8,0:0:0:0:
64,192,120153,1,4,0:0:0:0:
448,192,120153,1,0,0:0:0:70:tom01.wav
320,192,120254,1,0,0:0:0:70:tom02.wav
192,192,120355,1,0,0:0:0:0:
64,192,120456,1,8,0:0:0:0:
448,192,120456,1,4,0:0:0:0:
192,192,120557,1,8,0:0:0:0:
320,192,120658,1,0,0:0:0:0:
64,192,120759,1,8,0:0:0:0:
448,192,120759,1,4,0:0:0:0:
192,192,120910,1,0,0:0:0:0:
320,192,121061,128,4,121213:0:0:0:0:
448,192,121061,1,0,0:0:0:0:
64,192,121515,1,0,0:0:0:0:
64,192,121667,128,0,121818:0:0:0:0:
192,192,122575,128,0,122726:0:0:0:0:
320,192,122877,128,0,123029:0:0:0:0:
448,192,123180,128,0,123332:0:0:0:0:
64,192,123483,128,0,123634:0:0:0:0:
192,192,123483,1,0,0:0:0:0:
448,192,123634,1,0,0:0:0:0:
320,192,123786,1,0,0:0:0:0:
192,192,123937,1,0,0:0:0:0:
192,192,124088,128,0,124240:0:0:0:0:
448,192,124240,1,0,0:0:0:0:
320,192,124391,1,0,0:0:0:0:
192,192,124542,1,0,0:0:0:0:
64,192,124694,1,2,0:0:0:0:
448,192,124694,128,0,124845:0:0:0:0:
320,192,124845,1,2,0:0:0:0:
192,192,124996,1,2,0:0:0:0:
320,192,125148,1,2,0:0:0:0:
64,192,125299,128,2,125904:0:0:0:0:
448,192,125299,1,0,0:0:0:0:
320,192,125526,1,2,0:0:0:0:
192,192,125753,1,0,0:0:0:0:
320,192,125904,128,12,126207:0:0:0:0:
448,192,125904,128,2,126207:0:0:0:0:
64,192,126207,1,8,0:0:0:0:
192,192,126207,1,4,0:0:0:0:
320,192,126358,1,0,0:0:0:0:
192,192,126510,128,0,126813:0:0:0:0:
320,192,126510,128,0,126813:0:0:0:0:
64,192,126661,1,2,0:0:0:0:
448,192,126661,1,8,0:0:0:0:
64,192,126964,1,2,0:0:0:0:
448,192,126964,1,0,0:0:0:0:
320,192,127040,1,2,0:0:0:0:
64,192,127115,128,12,127418:0:0:0:0:
192,192,127115,128,2,127418:0:0:0:0:
320,192,127418,1,8,0:0:0:0:
448,192,127418,1,4,0:0:0:0:
192,192,127569,1,0,0:0:0:0:
64,192,127721,128,0,128023:0:0:0:0:
448,192,127721,128,0,128023:0:0:0:0:
192,192,127872,1,8,0:0:0:0:
320,192,127872,1,0,0:0:0:0:
320,192,128023,1,0,0:0:0:0:
192,192,128175,1,8,0:0:0:0:
320,192,128250,1,8,0:0:0:0:
64,192,128326,1,10,0:0:0:0:
448,192,128326,1,4,0:0:0:0:
192,192,128402,1,0,0:0:0:0:
320,192,128477,1,8,0:0:0:0:
64,192,128553,1,8,0:0:0:0:
448,192,128629,1,8,0:0:0:0:
320,192,128704,1,8,0:0:0:0:
64,192,128780,1,10,0:0:0:0:
192,192,128780,1,4,0:0:0:0:
320,192,128856,1,8,0:0:0:0:
448,192,128931,1,8,0:0:0:0:
64,192,129007,1,8,0:0:0:0:
192,192,129083,1,10,0:0:0:0:
320,192,129158,1,10,0:0:0:0:
64,192,129234,1,4,0:0:0:0:
448,192,129234,128,8,129385:0:0:0:0:
192,192,129537,1,2,0:0:0:0:
448,192,129537,128,4,129839:0:0:0:0:
64,192,129991,128,0,130445:0:0:0:0:
448,192,129991,1,0,0:0:0:0:
192,192,130445,1,0,0:0:0:70:tom01.wav
320,192,130445,1,0,0:0:0:0:
64,192,130748,1,2,0:0:0:0:
320,192,130748,1,4,0:0:0:0:
448,192,130748,128,0,131050:0:0:0:70:clapwet.wav
192,192,130899,1,0,0:0:0:0:
64,192,131050,1,4,0:0:0:0:
320,192,131050,1,8,0:0:0:0:
448,192,131202,1,0,0:0:0:0:
64,192,131353,128,0,131580:0:0:0:0:
192,192,131429,128,0,131580:0:0:0:0:
320,192,131504,128,2,131580:0:0:0:0:
448,192,131580,1,0,0:0:0:0:
320,192,131656,1,8,0:0:0:0:
64,192,131731,1,0,0:0:0:0:
192,192,131807,1,0,0:0:0:0:
320,192,131883,1,0,0:0:0:0:
64,192,131958,128,0,132261:0:0:0:0:
448,192,131958,1,0,0:0:0:0:
320,192,132110,1,2,0:0:0:0:
192,192,132261,1,8,0:0:0:0:
448,192,132261,1,0,0:0:0:0:
64,192,132412,1,0,0:0:0:0:
448,192,132564,128,0,132791:0:0:0:0:
320,192,132639,128,0,132791:0:0:0:0:
192,192,132715,128,2,132791:0:0:0:0:
64,192,132791,1,0,0:0:0:0:
192,192,132866,1,8,0:0:0:0:
448,192,132942,1,0,0:0:0:0:
320,192,133018,1,0,0:0:0:0:
192,192,133093,1,0,0:0:0:0:
64,192,133169,1,2,0:0:0:0:
448,192,133169,128,4,133472:0:0:0:0:
64,192,133320,1,0,0:0:0:0:
192,192,133472,1,8,0:0:0:0:
320,192,133472,1,0,0:0:0:0:
320,192,133623,1,0,0:0:0:0:
64,192,133774,128,0,134001:0:0:0:0:
192,192,133850,128,0,134001:0:0:0:0:
320,192,133926,128,2,134001:0:0:0:0:
448,192,134001,1,0,0:0:0:0:
320,192,134077,1,8,0:0:0:0:
64,192,134153,1,0,0:0:0:0:
192,192,134229,1,0,0:0:0:0:
320,192,134304,1,0,0:0:0:0:
64,192,134380,1,0,0:0:0:0:
448,192,134380,128,0,134683:0:0:0:0:
320,192,134481,128,0,134683:0:0:0:0:
192,192,134582,128,0,134683:0:0:0:0:
64,192,134683,128,8,134985:0:0:0:0:
192,192,134783,128,0,134985:0:0:0:0:
320,192,134884,128,0,134985:0:0:0:0:
448,192,134985,128,0,135288:0:0:0:0:
320,192,135086,128,0,135288:0:0:0:0:
192,192,135187,128,0,135288:0:0:0:0:
64,192,135288,1,12,0:0:0:0:
320,192,135389,1,0,0:0:0:0:
192,192,135490,1,0,0:0:0:0:
64,192,135591,1,4,0:0:0:0:
448,192,135591,128,2,135893:0:0:0:0:
320,192,135742,1,0,0:0:0:0:
64,192,135893,1,8,0:0:0:0:
192,192,135893,1,0,0:0:0:0:
448,192,136045,1,0,0:0:0:0:
320,192,136120,1,0,0:0:0:0:
64,192,136196,128,0,136423:0:0:0:0:
192,192,136272,128,0,136423:0:0:0:0:
320,192,136347,128,2,136423:0:0:0:0:
448,192,136423,1,0,0:0:0:0:
320,192,136499,1,8,0:0:0:0:
64,192,136574,1,0,0:0:0:0:
192,192,136650,1,0,0:0:0:0:
320,192,136726,1,0,0:0:0:0:
64,192,136801,128,0,137104:0:0:0:0:
448,192,136801,1,0,0:0:0:0:
192,192,136953,1,2,0:0:0:0:
320,192,137104,1,8,0:0:0:0:
448,192,137104,1,0,0:0:0:0:
192,192,137180,1,8,0:0:0:0:
64,192,137255,1,0,0:0:0:0:
448,192,137407,1,0,0:0:0:70:tom01.wav
64,192,137482,1,0,0:0:0:70:tom02.wav
320,192,137558,1,2,0:0:0:0:
64,192,137709,1,8,0:0:0:0:
192,192,137709,1,4,0:0:0:0:
448,192,137785,1,0,0:0:0:0:
320,192,137861,1,0,0:0:0:0:
192,192,137937,1,0,0:0:0:0:
64,192,138012,1,2,0:0:0:0:
448,192,138012,128,4,138239:0:0:0:0:
320,192,138088,128,0,138239:0:0:0:0:
192,192,138164,128,0,138239:0:0:0:0:
64,192,138239,128,0,138391:0:0:0:0:
192,192,138315,128,0,138391:0:0:0:0:
64,192,138466,128,2,138693:0:0:0:0:
448,192,138466,1,4,0:0:0:0:
192,192,138542,128,0,138693:0:0:0:0:
320,192,138618,128,0,138693:0:0:0:0:
448,192,138693,128,0,138845:0:0:0:0:
320,192,138769,128,0,138845:0:0:0:0:
64,192,138920,1,4,0:0:0:0:
448,192,138920,128,2,139147:0:0:0:0:
320,192,138996,128,0,139147:0:0:0:0:
192,192,139072,128,0,139147:0:0:0:0:
64,192,139147,128,0,139299:0:0:0:0:
192,192,139223,128,0,139299:0:0:0:0:
64,192,139374,128,2,139601:0:0:0:0:
448,192,139374,1,4,0:0:0:0:
192,192,139450,128,0,139601:0:0:0:0:
320,192,139526,128,0,139601:0:0:0:0:
448,192,139601,128,0,139753:0:0:0:0:
320,192,139677,128,0,139753:0:0:0:0:
64,192,139828,1,4,0:0:0:0:
448,192,139828,128,2,140055:0:0:0:0:
192,192,139904,128,0,140055:0:0:0:0:
64,192,139980,128,0,140055:0:0:0:0:
320,192,140055,1,0,0:0:0:0:
64,192,140131,128,2,140358:0:0:0:0:
448,192,140131,1,4,0:0:0:0:
320,192,140207,128,0,140358:0:0:0:0:
448,192,140282,128,0,140358:0:0:0:0:
192,192,140358,1,0,0:0:0:0:
64,192,140434,1,2,0:0:0:0:
448,192,140434,1,4,0:0:0:0:
320,192,140509,1,0,0:0:0:0:
192,192,140585,1,8,0:0:0:0:
64,192,140661,1,8,0:0:0:0:
320,192,140736,128,8,140888:0:0:0:0:
64,192,140888,1,2,0:0:0:0:
448,192,140888,1,4,0:0:0:0:
192,192,140963,1,0,0:0:0:0:
320,192,141039,1,8,0:0:0:0:
448,192,141115,1,8,0:0:0:0:
192,192,141190,128,8,141342:0:0:0:0:
64,192,141342,1,2,0:0:0:0:
448,192,141342,1,4,0:0:0:0:
320,192,141417,1,0,0:0:0:0:
192,192,141493,1,8,0:0:0:0:
64,192,141569,1,8,0:0:0:0:
320,192,141645,128,8,141796:0:0:0:0:
64,192,141796,1,2,0:0:0:0:
448,192,141796,1,4,0:0:0:0:
192,192,141872,1,0,0:0:0:0:
320,192,141947,1,8,0:0:0:0:
448,192,142023,1,8,0:0:0:0:
64,192,142099,128,8,142250:0:0:0:0:
320,192,142250,1,2,0:0:0:0:
448,192,142250,1,4,0:0:0:0:
192,192,142326,1,0,0:0:0:0:
64,192,142401,1,8,0:0:0:0:
448,192,142477,128,8,142704:0:0:0:0:
320,192,142553,128,8,142704:0:0:0:0:
64,192,142704,1,2,0:0:0:0:
192,192,142704,1,4,0:0:0:0:
320,192,142780,1,0,0:0:0:0:
448,192,142855,1,8,0:0:0:0:
64,192,142931,128,8,143158:0:0:0:0:
192,192,143007,128,8,143158:0:0:0:0:
320,192,143158,1,2,0:0:0:0:
448,192,143158,1,4,0:0:0:0:
192,192,143234,1,0,0:0:0:0:
64,192,143309,1,8,0:0:0:0:
448,192,143385,128,0,143612:0:0:0:0:
320,192,143461,128,8,143612:0:0:0:0:
64,192,143612,1,2,0:0:0:0:
192,192,143612,1,4,0:0:0:0:
320,192,143688,1,0,0:0:0:0:
448,192,143763,1,8,0:0:0:0:
64,192,143839,128,0,144066:0:0:0:0:
192,192,143915,128,8,144066:0:0:0:0:
320,192,144066,1,2,0:0:0:0:
448,192,144066,1,4,0:0:0:0:
192,192,144142,1,0,0:0:0:0:
320,192,144217,1,0,0:0:0:0:
64,192,144293,1,6,0:0:0:0:
320,192,144369,1,0,0:0:0:0:
192,192,144444,1,0,0:0:0:0:
448,192,144520,1,6,0:0:0:0:
192,192,144596,1,0,0:0:0:0:
320,192,144671,1,0,0:0:0:0:
64,192,144747,1,6,0:0:0:0:
320,192,144823,1,0,0:0:0:0:
192,192,144898,1,0,0:0:0:0:
448,192,144974,1,6,0:0:0:0:
320,192,145050,1,0,0:0:0:0:
192,192,145125,1,0,0:0:0:0:
448,192,145201,1,6,0:0:0:0:
320,192,145277,1,0,0:0:0:0:
192,192,145353,1,0,0:0:0:0:
448,192,145428,1,6,0:0:0:0:
320,192,145504,1,0,0:0:0:0:
192,192,145580,1,0,0:0:0:0:
64,192,145655,1,6,0:0:0:0:
192,192,145731,1,0,0:0:0:0:
320,192,145807,1,0,0:0:0:0:
64,192,145882,1,6,0:0:0:0:
192,192,145958,1,0,0:0:0:0:
320,192,146034,1,0,0:0:0:0:
448,192,146109,1,6,0:0:0:0:
64,192,146185,1,0,0:0:0:0:
192,192,146261,1,0,0:0:0:0:
320,192,146336,1,6,0:0:0:0:
448,192,146412,1,0,0:0:0:0:
64,192,146488,1,10,0:0:0:0:
192,192,146488,1,4,0:0:0:0:
320,192,146563,1,8,0:0:0:0:
192,192,146639,1,8,0:0:0:0:
320,192,146715,1,8,0:0:0:0:
192,192,146790,1,8,0:0:0:0:
320,192,146866,1,8,0:0:0:0:
192,192,146942,1,14,0:0:0:0:
320,192,147017,1,8,0:0:0:0:
192,192,147093,1,8,0:0:0:0:
320,192,147169,1,8,0:0:0:0:
192,192,147244,1,8,0:0:0:0:
320,192,147320,1,8,0:0:0:0:
192,192,147396,1,14,0:0:0:0:
320,192,147471,1,8,0:0:0:0:
192,192,147547,1,8,0:0:0:0:
320,192,147623,1,8,0:0:0:0:
64,192,147698,1,14,0:0:0:0:
448,192,147774,1,8,0:0:0:0:
64,192,147850,1,8,0:0:0:0:
448,192,147925,1,8,0:0:0:0:
64,192,148001,1,14,0:0:0:0:
448,192,148077,1,8,0:0:0:0:
64,192,148152,1,8,0:0:0:0:
448,192,148228,1,8,0:0:0:0:
64,192,148304,1,14,0:0:0:0:
192,192,148354,1,8,0:0:0:0:
320,192,148405,1,8,0:0:0:0:
448,192,148455,1,8,0:0:0:0:
64,192,148506,1,8,0:0:0:0:
192,192,148556,1,8,0:0:0:0:
320,192,148606,1,14,0:0:0:0:
448,192,148657,1,8,0:0:0:0:
64,192,148707,1,8,0:0:0:0:
192,192,148758,1,8,0:0:0:0:
320,192,148808,1,8,0:0:0:0:
448,192,148859,1,8,0:0:0:0:
64,192,148909,128,6,149212:0:0:0:0:
192,192,148909,128,8,149212:0:0:0:0:
320,192,149363,1,0,0:0:0:0:
320,192,149515,1,0,0:0:0:70:tick02_edit.wav
192,192,149969,1,0,0:0:0:0:
192,192,150120,1,0,0:0:0:70:tick01.wav
64,192,150574,1,0,0:0:0:0:
64,192,150725,1,0,0:0:0:70:tick02_edit.wav
320,192,151179,1,0,0:0:0:0:
320,192,151331,128,0,151482:0:0:0:70:tick01.wav
192,192,151785,1,0,0:0:0:0:
192,192,151936,128,0,152087:0:0:0:70:tick02_edit.wav
64,192,152390,1,0,0:0:0:0:
64,192,152541,128,0,152693:0:0:0:70:tick01.wav
320,192,152996,1,0,0:0:0:0:
320,192,153147,128,0,153450:0:0:0:70:tick02_edit.wav
64,192,153450,128,0,153752:0:0:0:0:
192,192,153601,128,0,153752:0:0:0:0:
