osu file format v14

[General]
AudioFilename: audio.ogg
AudioLeadIn: 0
PreviewTime: 65063
Countdown: 0
SampleSet: Soft
StackLeniency: 0.7
Mode: 3
LetterboxInBreaks: 0
SpecialStyle: 0
WidescreenStoryboard: 1

[Editor]
DistanceSpacing: 2
BeatDivisor: 4
GridSize: 32
TimelineZoom: 1.8

[Metadata]
Title:MarbleBlue.
TitleUnicode:MarbleBlue.
Artist:MisoilePunch
ArtistUnicode:MisoilePunch♪
Creator:Murumoo
Version:NORMAL
Source:オンゲキ bright MEMORY
Tags:Maxus DixonBlackwing DenYi Lami- secXcscX FAMoss video game electronic instrumental ongeki 日向 千夏 CHINATSU HINATA Summer Memory みそみぃる ポン恥♪ Misomyl Ponchi Ponchi♪ Marble Blue Chiptune Piano
BeatmapID:3576354
BeatmapSetID:1737067

[Difficulty]
HPDrainRate:7
CircleSize:4
OverallDifficulty:7
ApproachRate:5
SliderMultiplier:1.4
SliderTickRate:1

[Events]
//Background and Video events
0,0,"bg.png",0,0
//Break Periods
//Storyboard Layer 0 (Background)
//Storyboard Layer 1 (Fail)
//Storyboard Layer 2 (Pass)
//Storyboard Layer 3 (Foreground)
//Storyboard Layer 4 (Overlay)
//Storyboard Sound Samples
Sample,58252,0,"tom03.wav",70
Sample,75052,0,"tick01.wav",70
Sample,78684,0,"tick01.wav",70
Sample,79290,0,"tick02_edit.wav",70
Sample,143007,0,"tom03.wav",70

[TimingPoints]
1195,302.69397638987,4,2,1,40,1,0
9670,-100,4,2,1,50,0,0
19659,-100,4,2,1,40,0,0
30253,-100,4,2,1,50,0,0
65063,-100,4,2,1,20,0,0
75052,-100,4,2,1,40,0,0
78684,-100,4,2,1,10,0,0
79290,-100,4,2,1,20,0,0
79592,-100,4,2,1,30,0,0
79895,-100,4,2,1,20,0,0
83527,-100,4,2,1,40,0,0
84738,-100,4,2,1,50,0,0
121061,-100,4,2,1,40,0,0
124694,-100,4,2,1,10,0,0
124845,-100,4,2,1,20,0,0
124996,-100,4,2,1,30,0,0
125299,-100,4,2,1,40,0,0
125904,-100,4,2,1,50,0,0
149061,-100,4,2,1,40,0,0

[HitObjects]
448,192,1195,5,0,0:0:0:0:
320,192,1497,1,0,0:0:0:0:
192,192,1800,1,0,0:0:0:0:
64,192,2103,1,0,0:0:0:0:
320,192,2405,1,4,0:0:0:0:
448,192,2405,1,0,0:0:0:70:tick01.wav
192,192,2708,1,0,0:0:0:0:
320,192,2859,1,0,0:0:0:0:
64,192,3011,1,0,0:0:0:70:tick02_edit.wav
192,192,3162,1,0,0:0:0:0:
320,192,3313,1,0,0:0:0:0:
448,192,3465,1,0,0:0:0:0:
64,192,3616,1,0,0:0:0:70:tick01.wav
448,192,3919,1,0,0:0:0:0:
320,192,4070,1,0,0:0:0:0:
64,192,4221,1,0,0:0:0:70:tick02_edit.wav
192,192,4373,1,0,0:0:0:0:
320,192,4524,1,0,0:0:0:0:
448,192,4675,1,0,0:0:0:0:
64,192,4827,1,0,0:0:0:70:tick01.wav
320,192,5130,1,0,0:0:0:0:
192,192,5281,1,0,0:0:0:0:
448,192,5432,1,0,0:0:0:70:tick02_edit.wav
320,192,5584,1,0,0:0:0:0:
192,192,5735,1,0,0:0:0:0:
64,192,5886,1,0,0:0:0:0:
448,192,6038,1,0,0:0:0:70:tick01.wav
320,192,6340,1,0,0:0:0:0:
192,192,6643,1,0,0:0:0:70:tick02_edit.wav
64,192,6946,1,0,0:0:0:0:
448,192,7248,1,0,0:0:0:70:tick01.wav
192,192,7551,1,0,0:0:0:0:
320,192,7702,1,0,0:0:0:0:
64,192,7854,1,0,0:0:0:70:tick02_edit.wav
192,192,8005,1,0,0:0:0:0:
320,192,8156,1,0,0:0:0:0:
448,192,8308,1,0,0:0:0:0:
64,192,8459,1,0,0:0:0:70:tick01.wav
320,192,8762,1,0,0:0:0:0:
192,192,8913,1,0,0:0:0:0:
448,192,9065,1,0,0:0:0:70:tick02_edit.wav
320,192,9216,1,0,0:0:0:0:
192,192,9367,1,0,0:0:0:0:
64,192,9519,1,0,0:0:0:0:
320,192,9670,1,12,0:0:0:0:
448,192,9670,1,2,0:0:0:0:
64,192,9973,1,12,0:0:0:0:
192,192,9973,1,2,0:0:0:0:
320,192,10275,1,12,0:0:0:0:
448,192,10275,1,2,0:0:0:0:
192,192,10578,1,12,0:0:0:0:
64,192,10729,1,8,0:0:0:0:
448,192,10729,1,2,0:0:0:0:
320,192,11183,1,0,0:0:0:0:
192,192,11486,1,8,0:0:0:0:
320,192,11637,1,0,0:0:0:70:tom01.wav
64,192,11789,1,12,0:0:0:0:
320,192,12091,1,6,0:0:0:0:
448,192,12091,1,8,0:0:0:0:
320,192,12394,1,8,0:0:0:0:
64,192,12546,1,10,0:0:0:0:
192,192,12546,1,4,0:0:0:0:
448,192,12697,1,8,0:0:0:0:
192,192,12848,1,8,0:0:0:0:
320,192,13000,1,8,0:0:0:0:
448,192,13151,1,8,0:0:0:0:
64,192,13302,1,10,0:0:0:0:
192,192,13302,1,4,0:0:0:0:
192,192,13605,1,8,0:0:0:0:
320,192,13756,1,10,0:0:0:0:
448,192,13756,1,4,0:0:0:0:
64,192,13908,1,8,0:0:0:0:
320,192,14059,1,8,0:0:0:0:
192,192,14210,1,10,0:0:0:0:
448,192,14210,1,4,0:0:0:0:
64,192,14362,1,8,0:0:0:0:
320,192,14513,1,6,0:0:0:0:
448,192,14513,1,8,0:0:0:0:
320,192,14816,1,8,0:0:0:0:
64,192,14967,1,12,0:0:0:0:
192,192,14967,1,2,0:0:0:0:
448,192,15118,1,8,0:0:0:0:
192,192,15270,1,8,0:0:0:0:
64,192,15421,1,10,0:0:0:0:
320,192,15421,1,4,0:0:0:0:
448,192,15572,1,8,0:0:0:0:
64,192,15724,1,8,0:0:0:0:
192,192,15724,128,0,16027:0:0:0:0:
320,192,16027,1,8,0:0:0:0:
448,192,16027,128,4,16329:0:0:0:0:
64,192,16329,128,10,16632:0:0:0:0:
192,192,16329,1,4,0:0:0:0:
320,192,16632,128,8,16935:0:0:0:0:
448,192,16632,1,4,0:0:0:0:
64,192,16935,1,8,0:0:0:0:
192,192,16935,1,4,0:0:0:0:
320,192,17086,1,2,0:0:0:0:
192,192,17237,1,2,0:0:0:0:
64,192,17389,1,8,0:0:0:0:
448,192,17389,1,4,0:0:0:0:
320,192,17540,1,2,0:0:0:0:
192,192,17691,1,2,0:0:0:0:
320,192,17843,1,8,0:0:0:0:
448,192,17843,1,4,0:0:0:0:
64,192,18145,1,8,0:0:0:0:
192,192,18145,1,4,0:0:0:0:
320,192,18297,1,2,0:0:0:0:
64,192,18448,1,8,0:0:0:0:
448,192,18448,1,4,0:0:0:0:
192,192,18599,1,2,0:0:0:0:
320,192,18751,1,10,0:0:0:0:
448,192,18751,1,4,0:0:0:0:
192,192,18902,1,8,0:0:0:0:
64,192,19053,1,10,0:0:0:0:
448,192,19053,1,4,0:0:0:0:
320,192,19205,1,8,0:0:0:0:
192,192,19356,1,12,0:0:0:0:
192,192,20567,1,0,0:0:0:70:tick02_edit.wav
448,192,21172,1,0,0:0:0:70:tick01.wav
320,192,21475,1,0,0:0:0:0:
64,192,21778,128,2,22686:0:0:0:0:
192,192,21778,1,0,0:0:0:0:
320,192,22080,1,0,0:0:0:0:
448,192,22383,1,0,0:0:0:0:
192,192,22686,1,0,0:0:0:0:
320,192,22837,128,0,23594:0:0:0:0:
64,192,23594,1,0,0:0:0:0:
192,192,23796,1,0,0:0:0:0:
320,192,23997,1,0,0:0:0:0:
448,192,24199,128,0,25107:0:0:0:0:
192,192,24502,1,0,0:0:0:0:
64,192,24805,1,0,0:0:0:0:
320,192,25107,1,0,0:0:0:0:
64,192,25259,128,0,26015:0:0:0:0:
320,192,26015,1,0,0:0:0:0:
192,192,26318,1,0,0:0:0:0:
448,192,26621,128,0,27529:0:0:0:0:
64,192,26923,1,0,0:0:0:0:
192,192,27226,1,0,0:0:0:0:
320,192,27529,1,0,0:0:0:0:
192,192,27680,128,0,28134:0:0:0:0:
448,192,28134,1,0,0:0:0:0:
320,192,28437,1,0,0:0:0:0:
64,192,28740,128,0,29042:0:0:0:0:
448,192,29042,1,0,0:0:0:0:
320,192,29194,1,0,0:0:0:0:
192,192,29345,1,0,0:0:0:0:
64,192,29496,1,0,0:0:0:0:
448,192,29648,128,0,29950:0:0:0:0:
320,192,29950,128,0,30253:0:0:0:0:
64,192,30253,1,10,0:0:0:0:
192,192,30253,1,4,0:0:0:0:
320,192,30404,1,8,0:0:0:0:
448,192,30556,1,12,0:0:0:0:
192,192,30707,1,8,0:0:0:0:
64,192,30859,1,12,0:0:0:0:
320,192,31010,1,10,0:0:0:0:
192,192,31161,1,8,0:0:0:0:
448,192,31161,128,4,31464:0:0:0:0:
64,192,31464,128,2,31767:0:0:0:0:
192,192,31464,1,4,0:0:0:0:
448,192,31767,1,8,0:0:0:0:
192,192,31918,128,2,32221:0:0:0:0:
320,192,31918,1,4,0:0:0:0:
448,192,32221,1,8,0:0:0:0:
64,192,32372,1,2,0:0:0:0:
320,192,32372,1,4,0:0:0:0:
192,192,32675,1,8,0:0:0:0:
320,192,32826,1,2,0:0:0:0:
448,192,32826,1,4,0:0:0:0:
64,192,32977,1,0,0:0:0:0:
192,192,33129,1,8,0:0:0:0:
320,192,33280,1,8,0:0:0:0:
64,192,33431,1,6,0:0:0:0:
448,192,33583,1,8,0:0:0:0:
320,192,33734,1,6,0:0:0:0:
64,192,33885,1,2,0:0:0:0:
192,192,33885,128,4,34188:0:0:0:0:
448,192,34188,1,8,0:0:0:0:
64,192,34339,1,2,0:0:0:0:
192,192,34339,1,4,0:0:0:0:
320,192,34491,128,0,34794:0:0:0:0:
64,192,34794,1,2,0:0:0:0:
448,192,34794,128,4,35096:0:0:0:0:
192,192,35096,1,8,0:0:0:0:
64,192,35248,1,2,0:0:0:0:
320,192,35248,1,4,0:0:0:0:
448,192,35550,1,8,0:0:0:0:
64,192,35702,1,10,0:0:0:0:
192,192,35702,1,4,0:0:0:0:
448,192,35853,1,8,0:0:0:0:
320,192,36004,1,8,0:0:0:0:
192,192,36156,1,8,0:0:0:0:
64,192,36307,1,4,0:0:0:0:
448,192,36307,1,2,0:0:0:0:
320,192,36610,1,8,0:0:0:0:
64,192,36761,1,2,0:0:0:0:
192,192,36761,1,4,0:0:0:0:
448,192,36912,1,8,0:0:0:0:
64,192,37064,1,2,0:0:0:0:
320,192,37064,1,4,0:0:0:0:
192,192,37215,1,8,0:0:0:0:
320,192,37366,1,2,0:0:0:0:
64,192,37518,1,10,0:0:0:0:
448,192,37518,1,4,0:0:0:0:
320,192,37820,1,8,0:0:0:0:
192,192,37972,1,2,0:0:0:0:
64,192,38123,1,8,0:0:0:0:
448,192,38123,1,4,0:0:0:0:
320,192,38275,1,8,0:0:0:0:
192,192,38426,1,10,0:0:0:0:
64,192,38577,1,8,0:0:0:0:
320,192,38729,1,12,0:0:0:0:
448,192,38729,1,2,0:0:0:0:
192,192,38880,1,0,0:0:0:70:tom01.wav
320,192,39031,1,2,0:0:0:0:
64,192,39183,1,2,0:0:0:0:
192,192,39183,1,4,0:0:0:0:
320,192,39485,1,4,0:0:0:0:
448,192,39485,1,2,0:0:0:0:
64,192,39788,1,2,0:0:0:0:
192,192,39788,1,4,0:0:0:0:
64,192,40091,1,12,0:0:0:0:
448,192,40091,1,2,0:0:0:0:
64,192,40242,1,6,0:0:0:0:
448,192,40242,1,8,0:0:0:0:
320,192,40545,1,0,0:0:0:0:
192,192,40847,1,0,0:0:0:0:
64,192,41150,1,6,0:0:0:0:
448,192,41150,1,0,0:0:0:70:clapwet.wav
320,192,41301,1,0,0:0:0:0:
192,192,41453,1,0,0:0:0:0:
64,192,41604,1,0,0:0:0:0:
320,192,41755,1,8,0:0:0:0:
448,192,41755,1,0,0:0:0:0:
192,192,41907,1,0,0:0:0:0:
320,192,42058,1,0,0:0:0:0:
64,192,42210,128,2,42512:0:0:0:0:
192,192,42210,1,4,0:0:0:0:
448,192,42512,1,2,0:0:0:0:
320,192,42664,1,0,0:0:0:0:
192,192,42815,1,0,0:0:0:0:
64,192,42966,1,8,0:0:0:0:
448,192,42966,1,0,0:0:0:0:
192,192,43118,1,0,0:0:0:0:
320,192,43269,1,0,0:0:0:0:
192,192,43420,1,2,0:0:0:0:
448,192,43420,128,4,43723:0:0:0:0:
64,192,43723,1,2,0:0:0:0:
192,192,43874,1,0,0:0:0:0:
320,192,44026,1,0,0:0:0:0:
64,192,44177,1,8,0:0:0:0:
448,192,44177,1,0,0:0:0:0:
320,192,44328,1,2,0:0:0:0:
192,192,44480,1,0,0:0:0:0:
64,192,44631,128,2,44934:0:0:0:0:
320,192,44631,1,4,0:0:0:0:
448,192,44934,1,2,0:0:0:0:
320,192,45085,1,0,0:0:0:0:
192,192,45236,1,0,0:0:0:0:
64,192,45388,1,8,0:0:0:0:
448,192,45388,1,4,0:0:0:0:
320,192,45539,1,0,0:0:0:0:
64,192,45691,1,8,0:0:0:0:
192,192,45691,1,4,0:0:0:0:
320,192,45842,1,8,0:0:0:0:
64,192,45993,1,4,0:0:0:0:
448,192,45993,128,2,46296:0:0:0:0:
192,192,46296,1,0,0:0:0:0:
320,192,46447,1,0,0:0:0:0:
64,192,46599,1,8,0:0:0:0:
448,192,46599,1,0,0:0:0:0:
192,192,46750,1,0,0:0:0:0:
64,192,46901,1,0,0:0:0:0:
320,192,47053,1,2,0:0:0:0:
448,192,47053,128,4,47355:0:0:0:0:
64,192,47355,1,2,0:0:0:0:
192,192,47507,1,0,0:0:0:0:
320,192,47658,1,0,0:0:0:0:
64,192,47809,1,8,0:0:0:0:
448,192,47809,1,0,0:0:0:0:
192,192,48036,1,0,0:0:0:0:
320,192,48263,1,8,0:0:0:0:
64,192,48415,1,2,0:0:0:0:
448,192,48415,1,4,0:0:0:0:
192,192,48566,1,0,0:0:0:70:tom01.wav
320,192,48717,1,0,0:0:0:0:
64,192,48869,1,2,0:0:0:0:
192,192,48869,1,0,0:0:0:0:
320,192,49171,1,2,0:0:0:0:
448,192,49171,1,0,0:0:0:0:
64,192,49474,128,2,49777:0:0:0:0:
192,192,49474,1,0,0:0:0:0:
320,192,49777,1,8,0:0:0:0:
192,192,49928,1,10,0:0:0:0:
448,192,49928,1,4,0:0:0:0:
64,192,50080,1,8,0:0:0:0:
320,192,50231,1,12,0:0:0:0:
192,192,50382,1,8,0:0:0:0:
448,192,50534,1,14,0:0:0:0:
320,192,50685,1,0,0:0:0:70:tom01.wav
64,192,50836,1,6,0:0:0:0:
192,192,50836,1,8,0:0:0:0:
320,192,50988,1,14,0:0:0:0:
192,192,51139,1,14,0:0:0:0:
320,192,51290,1,6,0:0:0:0:
448,192,51290,1,8,0:0:0:0:
320,192,52652,1,12,0:0:0:0:
448,192,52652,1,2,0:0:0:0:
192,192,52879,1,4,0:0:0:0:
320,192,52879,1,0,0:0:0:70:tom01.wav
64,192,53107,1,4,0:0:0:0:
192,192,53107,1,0,0:0:0:70:tom02.wav
320,192,53258,1,6,0:0:0:0:
448,192,53258,1,8,0:0:0:0:
192,192,53409,1,14,0:0:0:0:
320,192,53561,1,14,0:0:0:0:
64,192,53712,1,12,0:0:0:0:
192,192,53712,1,2,0:0:0:0:
448,192,54015,1,8,0:0:0:0:
320,192,54166,1,2,0:0:0:0:
192,192,54317,1,2,0:0:0:0:
64,192,54469,1,2,0:0:0:0:
448,192,54469,1,4,0:0:0:0:
320,192,54670,1,6,0:0:0:0:
192,192,54872,1,6,0:0:0:0:
64,192,55074,1,6,0:0:0:0:
448,192,55074,1,8,0:0:0:0:
192,192,55276,1,14,0:0:0:0:
320,192,55478,1,14,0:0:0:0:
64,192,55679,128,2,55982:0:0:0:0:
448,192,55679,1,4,0:0:0:0:
320,192,55982,1,8,0:0:0:0:
64,192,56133,1,2,0:0:0:0:
192,192,56133,128,4,56436:0:0:0:0:
320,192,56436,1,8,0:0:0:0:
192,192,56587,1,2,0:0:0:0:
448,192,56587,128,4,56890:0:0:0:0:
320,192,56890,1,8,0:0:0:0:
64,192,57042,128,2,57344:0:0:0:0:
192,192,57042,1,4,0:0:0:0:
320,192,57344,1,8,0:0:0:0:
192,192,57496,1,2,0:0:0:0:
448,192,57496,128,4,57798:0:0:0:0:
64,192,57798,1,8,0:0:0:0:
192,192,57950,128,2,58252:0:0:0:0:
320,192,57950,1,4,0:0:0:0:
448,192,58252,1,8,0:0:0:0:
64,192,58404,128,2,58706:0:0:0:0:
320,192,58404,1,4,0:0:0:0:
192,192,58706,1,8,0:0:0:0:
320,192,58858,128,2,59160:0:0:0:0:
448,192,58858,1,4,0:0:0:0:
64,192,59160,1,8,0:0:0:0:
192,192,59312,1,2,0:0:0:0:
448,192,59312,1,4,0:0:0:0:
320,192,59539,1,6,0:0:0:0:
64,192,59766,1,2,0:0:0:0:
192,192,59766,1,4,0:0:0:0:
320,192,59993,1,6,0:0:0:0:
64,192,60220,1,2,0:0:0:0:
448,192,60220,1,4,0:0:0:0:
192,192,60447,1,6,0:0:0:0:
320,192,60674,1,2,0:0:0:0:
448,192,60674,1,4,0:0:0:0:
192,192,60901,1,6,0:0:0:0:
64,192,61128,1,2,0:0:0:0:
448,192,61128,1,4,0:0:0:0:
320,192,61355,1,6,0:0:0:0:
192,192,61582,1,6,0:0:0:0:
64,192,61733,1,8,0:0:0:0:
448,192,61733,1,2,0:0:0:0:
320,192,61885,1,8,0:0:0:0:
192,192,62036,1,8,0:0:0:0:
64,192,62187,1,8,0:0:0:0:
448,192,62339,1,8,0:0:0:0:
320,192,62490,1,8,0:0:0:0:
192,192,62641,1,8,0:0:0:0:
320,192,62793,1,8,0:0:0:0:
64,192,62944,1,10,0:0:0:0:
448,192,62944,1,4,0:0:0:0:
448,192,65063,1,0,0:0:0:0:
448,192,65366,1,0,0:0:0:0:
192,192,65820,1,0,0:0:0:0:
320,192,65971,1,0,0:0:0:0:
64,192,66425,1,0,0:0:0:0:
192,192,66576,1,0,0:0:0:0:
320,192,67030,1,0,0:0:0:0:
64,192,67182,1,0,0:0:0:0:
448,192,67636,1,0,0:0:0:0:
192,192,67787,1,0,0:0:0:0:
320,192,68241,1,0,0:0:0:0:
192,192,68393,1,0,0:0:0:0:
64,192,68847,1,0,0:0:0:0:
320,192,68998,1,0,0:0:0:0:
192,192,69603,1,0,0:0:0:0:
320,192,69906,1,0,0:0:0:0:
320,192,70209,1,0,0:0:0:0:
192,192,70663,1,0,0:0:0:0:
320,192,70814,1,0,0:0:0:0:
64,192,71268,1,0,0:0:0:0:
448,192,71420,1,0,0:0:0:0:
192,192,71874,1,0,0:0:0:0:
448,192,72025,1,0,0:0:0:0:
320,192,72479,1,0,0:0:0:0:
64,192,72630,1,0,0:0:0:0:
320,192,73084,1,0,0:0:0:0:
192,192,73236,1,0,0:0:0:0:
448,192,73690,1,0,0:0:0:0:
64,192,73841,1,0,0:0:0:0:
192,192,74446,1,0,0:0:0:0:
320,192,74749,1,0,0:0:0:0:
448,192,75052,1,4,0:0:0:0:
64,192,75809,1,0,0:0:0:0:
192,192,75960,1,0,0:0:0:0:
320,192,76111,1,0,0:0:0:0:
448,192,76263,1,0,0:0:0:70:tick01.wav
192,192,76565,1,0,0:0:0:0:
320,192,76868,1,0,0:0:0:70:tick02_edit.wav
64,192,77473,1,0,0:0:0:70:tick01.wav
448,192,77776,1,0,0:0:0:0:
320,192,78079,1,0,0:0:0:70:tick02_edit.wav
192,192,78230,1,0,0:0:0:0:
448,192,78533,1,0,0:0:0:0:
64,192,78684,1,2,0:0:0:0:
320,192,78987,1,2,0:0:0:0:
64,192,79290,1,2,0:0:0:0:
192,192,79491,1,0,0:0:0:0:
320,192,79693,1,0,0:0:0:0:
448,192,79895,1,0,0:0:0:0:
192,192,80500,1,0,0:0:0:0:
320,192,80803,1,0,0:0:0:0:
64,192,81106,1,0,0:0:0:0:
448,192,81711,1,0,0:0:0:0:
192,192,82014,1,0,0:0:0:0:
320,192,82316,128,0,83830:0:0:0:0:
64,192,83830,1,0,0:0:0:0:
448,192,84133,128,0,84435:0:0:0:0:
320,192,84435,128,0,84738:0:0:0:0:
64,192,84738,128,12,85041:0:0:0:0:
192,192,84738,1,2,0:0:0:0:
448,192,85041,128,12,85343:0:0:0:0:
320,192,85343,128,12,85646:0:0:0:0:
192,192,85646,128,12,85949:0:0:0:0:
64,192,85949,128,12,86252:0:0:0:0:
448,192,85949,1,2,0:0:0:0:
320,192,86252,128,12,86554:0:0:0:0:
64,192,86554,1,12,0:0:0:0:
192,192,86554,1,2,0:0:0:0:
320,192,86756,1,10,0:0:0:0:
448,192,86756,1,4,0:0:0:0:
64,192,86958,1,10,0:0:0:0:
192,192,86958,1,4,0:0:0:0:
192,192,87160,128,0,87462:0:0:0:0:
320,192,87462,1,12,0:0:0:0:
448,192,87462,1,0,0:0:0:70:clapwet.wav
192,192,87614,1,0,0:0:0:0:
64,192,87765,128,0,88068:0:0:0:0:
192,192,88068,1,8,0:0:0:0:
448,192,88068,1,0,0:0:0:0:
320,192,88219,1,0,0:0:0:0:
448,192,88370,128,2,88673:0:0:0:0:
64,192,88673,1,8,0:0:0:0:
192,192,88673,1,0,0:0:0:0:
320,192,88824,1,0,0:0:0:0:
64,192,88976,1,0,0:0:0:0:
192,192,89127,1,2,0:0:0:0:
320,192,89278,1,8,0:0:0:0:
448,192,89278,1,0,0:0:0:0:
192,192,89430,1,0,0:0:0:0:
64,192,89581,128,2,89884:0:0:0:0:
320,192,89884,1,8,0:0:0:0:
448,192,89884,1,0,0:0:0:0:
192,192,90035,128,0,90338:0:0:0:0:
320,192,90338,1,2,0:0:0:0:
192,192,90489,1,8,0:0:0:0:
64,192,90641,1,2,0:0:0:0:
448,192,90641,128,4,90943:0:0:0:0:
64,192,90943,1,2,0:0:0:0:
192,192,91095,128,8,91397:0:0:0:0:
320,192,91095,1,0,0:0:0:0:
448,192,91397,1,0,0:0:0:0:
320,192,91549,1,2,0:0:0:0:
64,192,91700,1,8,0:0:0:0:
192,192,91700,1,0,0:0:0:0:
320,192,92003,1,4,0:0:0:0:
448,192,92003,128,2,92305:0:0:0:0:
64,192,92305,1,8,0:0:0:0:
192,192,92305,128,0,92608:0:0:0:0:
448,192,92608,1,0,0:0:0:0:
320,192,92759,1,2,0:0:0:0:
64,192,92911,128,8,93213:0:0:0:0:
192,192,92911,1,0,0:0:0:0:
320,192,93213,1,0,0:0:0:0:
192,192,93365,1,2,0:0:0:0:
64,192,93516,1,8,0:0:0:0:
448,192,93516,128,0,93819:0:0:0:0:
192,192,93819,1,0,0:0:0:0:
320,192,93970,1,2,0:0:0:0:
64,192,94122,128,8,94424:0:0:0:0:
448,192,94122,1,4,0:0:0:0:
320,192,94424,1,2,0:0:0:0:
448,192,94424,1,4,0:0:0:0:
192,192,94576,1,8,0:0:0:0:
320,192,94727,1,8,0:0:0:0:
64,192,94878,1,10,0:0:0:0:
448,192,94878,1,4,0:0:0:0:
192,192,95030,1,0,0:0:0:70:tom01.wav
320,192,95181,1,0,0:0:0:70:tom03.wav
64,192,95332,1,2,0:0:0:0:
192,192,95332,1,4,0:0:0:0:
448,192,95484,1,12,0:0:0:0:
64,192,95635,1,0,0:0:0:0:
192,192,95786,1,2,0:0:0:0:
320,192,95786,1,4,0:0:0:0:
448,192,95938,1,8,0:0:0:0:
64,192,96089,1,8,0:0:0:0:
320,192,96240,1,12,0:0:0:0:
448,192,96240,1,2,0:0:0:0:
192,192,96392,1,0,0:0:0:0:
64,192,96543,1,2,0:0:0:0:
448,192,96543,1,4,0:0:0:0:
320,192,96694,1,0,0:0:0:0:
192,192,96846,1,2,0:0:0:0:
448,192,96846,128,4,97148:0:0:0:0:
64,192,97148,128,4,97451:0:0:0:0:
320,192,97148,1,8,0:0:0:0:
192,192,97451,128,0,97754:0:0:0:0:
320,192,97754,128,8,98057:0:0:0:0:
448,192,97754,1,0,0:0:0:0:
64,192,98057,1,2,0:0:0:0:
192,192,98057,1,0,0:0:0:0:
448,192,98359,1,8,0:0:0:0:
320,192,98460,1,0,0:0:0:0:
192,192,98561,1,0,0:0:0:0:
64,192,98662,1,0,0:0:0:0:
192,192,98889,1,0,0:0:0:0:
320,192,99116,1,0,0:0:0:0:
64,192,99267,128,2,99570:0:0:0:0:
448,192,99267,1,4,0:0:0:0:
192,192,99570,1,8,0:0:0:0:
448,192,99570,128,0,99873:0:0:0:0:
320,192,99873,128,0,100175:0:0:0:0:
192,192,100175,128,8,100478:0:0:0:0:
448,192,100175,1,0,0:0:0:0:
64,192,100478,128,0,100781:0:0:0:0:
320,192,100781,128,8,101084:0:0:0:0:
448,192,100781,1,0,0:0:0:0:
192,192,101084,128,0,101386:0:0:0:70:tom01.wav
64,192,101386,1,8,0:0:0:0:
448,192,101386,128,4,101689:0:0:0:0:
64,192,101689,1,8,0:0:0:0:
192,192,101689,1,4,0:0:0:0:
64,192,101992,1,8,0:0:0:0:
448,192,101992,1,0,0:0:0:0:
320,192,102143,1,2,0:0:0:0:
64,192,102294,1,8,0:0:0:0:
192,192,102294,1,0,0:0:0:0:
320,192,102446,1,2,0:0:0:0:
192,192,102597,1,8,0:0:0:0:
448,192,102597,1,0,0:0:0:0:
320,192,102748,1,2,0:0:0:0:
64,192,102900,1,8,0:0:0:0:
448,192,102900,1,4,0:0:0:0:
192,192,103051,1,8,0:0:0:0:
320,192,103202,1,2,0:0:0:0:
448,192,103354,1,0,0:0:0:70:tom01.wav
64,192,103505,1,8,0:0:0:0:
192,192,103505,1,4,0:0:0:0:
320,192,103732,1,2,0:0:0:0:
448,192,103732,1,4,0:0:0:0:
192,192,103959,1,6,0:0:0:0:
320,192,103959,1,8,0:0:0:0:
64,192,104110,1,2,0:0:0:0:
448,192,104110,1,4,0:0:0:0:
320,192,104262,1,8,0:0:0:0:
192,192,104413,1,8,0:0:0:0:
64,192,104564,1,14,0:0:0:0:
448,192,104716,1,8,0:0:0:0:
320,192,104867,1,8,0:0:0:0:
192,192,105019,1,12,0:0:0:0:
320,192,105170,1,8,0:0:0:0:
64,192,105321,128,4,105624:0:0:0:0:
448,192,105321,1,2,0:0:0:0:
320,192,105624,128,0,105927:0:0:0:0:
64,192,105927,1,4,0:0:0:0:
192,192,105927,128,8,106229:0:0:0:0:
448,192,106229,128,8,106532:0:0:0:0:
64,192,106532,128,6,106835:0:0:0:0:
192,192,106532,1,8,0:0:0:0:
192,192,106835,1,0,0:0:0:0:
320,192,106986,1,2,0:0:0:0:
448,192,106986,128,4,107289:0:0:0:0:
320,192,107289,1,0,0:0:0:0:
64,192,107440,1,4,0:0:0:0:
192,192,107440,128,2,107743:0:0:0:0:
448,192,107743,1,0,0:0:0:0:
64,192,107894,1,2,0:0:0:0:
320,192,107894,128,4,108197:0:0:0:0:
192,192,108197,1,0,0:0:0:0:
320,192,108348,1,4,0:0:0:0:
448,192,108348,1,2,0:0:0:0:
64,192,108500,1,8,0:0:0:0:
192,192,108651,1,8,0:0:0:0:
320,192,108802,1,8,0:0:0:0:
64,192,108954,128,4,109256:0:0:0:0:
448,192,108954,1,2,0:0:0:0:
320,192,109256,1,8,0:0:0:0:
448,192,109256,128,4,109559:0:0:0:0:
64,192,109559,1,12,0:0:0:0:
192,192,109710,1,0,0:0:0:70:tom01.wav
320,192,109862,1,0,0:0:0:70:tom02.wav
448,192,110013,1,12,0:0:0:0:
192,192,110164,1,0,0:0:0:0:
320,192,110316,1,2,0:0:0:0:
64,192,110467,1,8,0:0:0:0:
448,192,110467,1,4,0:0:0:0:
192,192,110618,1,8,0:0:0:0:
320,192,110770,1,4,0:0:0:0:
448,192,110770,1,0,0:0:0:70:tom01.wav
64,192,110997,1,4,0:0:0:0:
192,192,110997,1,0,0:0:0:70:tom02.wav
320,192,111224,1,4,0:0:0:0:
448,192,111224,1,0,0:0:0:70:tom01.wav
320,192,111526,1,2,0:0:0:0:
64,192,111678,128,12,112586:0:0:0:0:
192,192,111678,1,0,0:0:0:70:clapwet.wav
448,192,112132,1,2,0:0:0:0:
192,192,112283,1,8,0:0:0:0:
448,192,112586,128,2,112889:0:0:0:0:
64,192,112889,1,8,0:0:0:0:
320,192,112889,128,0,113191:0:0:0:0:
192,192,113191,128,0,113494:0:0:0:0:
64,192,113494,128,8,113797:0:0:0:0:
448,192,113494,1,0,0:0:0:0:
320,192,113797,1,2,0:0:0:0:
448,192,113797,128,4,114099:0:0:0:0:
64,192,114099,128,8,114402:0:0:0:0:
192,192,114099,1,0,0:0:0:0:
320,192,114402,128,0,114705:0:0:0:0:
64,192,114705,1,8,0:0:0:0:
448,192,114705,1,0,0:0:0:0:
192,192,114856,1,2,0:0:0:0:
320,192,115007,1,2,0:0:0:0:
448,192,115007,1,4,0:0:0:0:
192,192,115234,1,8,0:0:0:0:
64,192,115461,1,2,0:0:0:0:
448,192,115461,1,0,0:0:0:0:
320,192,115688,1,0,0:0:0:0:
64,192,115916,1,8,0:0:0:0:
192,192,115916,1,4,0:0:0:0:
320,192,116067,1,2,0:0:0:0:
64,192,116218,1,2,0:0:0:0:
448,192,116218,128,4,117429:0:0:0:0:
192,192,116521,1,8,0:0:0:0:
320,192,116975,1,2,0:0:0:0:
64,192,117126,1,8,0:0:0:0:
64,192,117429,128,2,117732:0:0:0:0:
192,192,117429,1,4,0:0:0:0:
320,192,117732,128,8,118034:0:0:0:0:
448,192,117732,1,0,0:0:0:0:
64,192,118034,1,0,0:0:0:0:
192,192,118186,1,2,0:0:0:0:
64,192,118337,1,8,0:0:0:0:
320,192,118337,1,0,0:0:0:0:
448,192,118488,1,0,0:0:0:0:
64,192,118842,1,2,0:0:0:0:
448,192,118842,1,4,0:0:0:0:
320,192,119043,1,6,0:0:0:0:
192,192,119245,1,6,0:0:0:0:
64,192,119447,1,6,0:0:0:0:
320,192,119649,1,6,0:0:0:0:
192,192,119851,1,6,0:0:0:0:
448,192,119851,128,8,120153:0:0:0:0:
64,192,120153,1,4,0:0:0:0:
320,192,120153,128,0,120456:0:0:0:70:tom01.wav
192,192,120456,128,12,120759:0:0:0:0:
64,192,120759,128,8,121061:0:0:0:0:
448,192,120759,1,4,0:0:0:0:
320,192,121061,1,4,0:0:0:0:
448,192,121061,1,0,0:0:0:0:
192,192,121515,1,0,0:0:0:0:
320,192,121667,1,0,0:0:0:0:
64,192,122575,1,0,0:0:0:0:
192,192,122877,1,0,0:0:0:0:
320,192,123180,1,0,0:0:0:0:
448,192,123483,1,0,0:0:0:0:
320,192,123937,1,0,0:0:0:0:
192,192,124088,1,0,0:0:0:0:
448,192,124694,128,2,125299:0:0:0:0:
64,192,125299,1,2,0:0:0:0:
192,192,125526,1,2,0:0:0:0:
320,192,125753,1,0,0:0:0:0:
64,192,125904,128,12,126358:0:0:0:0:
448,192,125904,1,2,0:0:0:0:
320,192,126358,1,0,0:0:0:0:
192,192,126510,128,0,126964:0:0:0:0:
64,192,126964,1,2,0:0:0:0:
320,192,127115,128,12,127418:0:0:0:0:
448,192,127115,1,2,0:0:0:0:
64,192,127418,1,8,0:0:0:0:
192,192,127418,128,4,127721:0:0:0:0:
64,192,127721,128,0,128023:0:0:0:0:
448,192,128023,128,0,128326:0:0:0:0:
64,192,128326,1,10,0:0:0:0:
192,192,128326,1,4,0:0:0:0:
320,192,128477,1,8,0:0:0:0:
192,192,128629,1,8,0:0:0:0:
64,192,128780,1,10,0:0:0:0:
448,192,128780,1,4,0:0:0:0:
320,192,128931,1,8,0:0:0:0:
192,192,129083,1,10,0:0:0:0:
320,192,129234,1,4,0:0:0:0:
448,192,129234,128,8,129537:0:0:0:0:
64,192,129537,1,2,0:0:0:0:
192,192,129537,1,4,0:0:0:0:
320,192,129991,128,0,130445:0:0:0:0:
64,192,130445,1,0,0:0:0:70:tom01.wav
320,192,130748,1,6,0:0:0:0:
448,192,130748,128,0,131050:0:0:0:70:clapwet.wav
64,192,131050,1,4,0:0:0:0:
192,192,131050,128,8,131353:0:0:0:0:
448,192,131353,1,0,0:0:0:0:
320,192,131504,1,2,0:0:0:0:
64,192,131656,1,8,0:0:0:0:
192,192,131656,1,0,0:0:0:0:
320,192,131807,1,0,0:0:0:0:
448,192,131958,128,0,132261:0:0:0:0:
64,192,132261,1,8,0:0:0:0:
192,192,132261,128,0,132564:0:0:0:0:
64,192,132564,128,0,132866:0:0:0:0:
320,192,132866,1,8,0:0:0:0:
448,192,132866,128,0,133169:0:0:0:0:
64,192,133169,128,2,133472:0:0:0:0:
192,192,133169,1,4,0:0:0:0:
320,192,133472,128,8,133774:0:0:0:0:
448,192,133472,1,0,0:0:0:0:
64,192,133774,1,0,0:0:0:0:
192,192,133926,1,2,0:0:0:0:
320,192,134077,1,8,0:0:0:0:
448,192,134077,1,0,0:0:0:0:
192,192,134229,1,0,0:0:0:0:
64,192,134380,128,0,134683:0:0:0:0:
320,192,134683,128,8,134985:0:0:0:0:
448,192,134683,1,0,0:0:0:0:
448,192,134985,128,0,135288:0:0:0:0:
64,192,135288,1,8,0:0:0:0:
192,192,135288,128,4,135591:0:0:0:0:
320,192,135591,1,4,0:0:0:0:
448,192,135591,128,2,135893:0:0:0:0:
64,192,135893,128,8,136196:0:0:0:0:
192,192,135893,1,0,0:0:0:0:
320,192,136196,1,0,0:0:0:0:
192,192,136347,1,2,0:0:0:0:
64,192,136499,1,8,0:0:0:0:
448,192,136499,1,0,0:0:0:0:
320,192,136650,1,0,0:0:0:0:
192,192,136801,128,0,137104:0:0:0:0:
320,192,137104,128,8,137407:0:0:0:0:
448,192,137104,1,0,0:0:0:0:
64,192,137407,128,0,137709:0:0:0:70:tom01.wav
320,192,137709,1,8,0:0:0:0:
448,192,137709,128,4,138012:0:0:0:0:
64,192,138012,128,2,138315:0:0:0:0:
192,192,138012,1,4,0:0:0:0:
320,192,138315,1,0,0:0:0:0:
192,192,138466,128,2,138769:0:0:0:0:
448,192,138466,1,4,0:0:0:0:
320,192,138769,1,0,0:0:0:0:
64,192,138920,1,4,0:0:0:0:
448,192,138920,128,2,139223:0:0:0:0:
192,192,139223,1,0,0:0:0:0:
320,192,139374,128,2,139677:0:0:0:0:
448,192,139374,1,4,0:0:0:0:
64,192,139677,1,0,0:0:0:0:
192,192,139828,128,4,140131:0:0:0:0:
448,192,139828,1,2,0:0:0:0:
64,192,140131,1,2,0:0:0:0:
320,192,140131,128,4,140434:0:0:0:0:
64,192,140434,1,2,0:0:0:0:
448,192,140434,128,4,140736:0:0:0:0:
192,192,140736,1,8,0:0:0:0:
320,192,140888,128,2,141190:0:0:0:0:
448,192,140888,1,4,0:0:0:0:
192,192,141190,1,8,0:0:0:0:
64,192,141342,128,2,141645:0:0:0:0:
320,192,141342,1,4,0:0:0:0:
192,192,141645,1,8,0:0:0:0:
320,192,141796,1,2,0:0:0:0:
448,192,141796,128,4,142099:0:0:0:0:
192,192,142099,1,8,0:0:0:0:
64,192,142250,128,2,142553:0:0:0:0:
320,192,142250,1,4,0:0:0:0:
448,192,142553,1,8,0:0:0:0:
192,192,142704,1,2,0:0:0:0:
320,192,142704,128,4,143007:0:0:0:0:
64,192,143007,1,8,0:0:0:0:
192,192,143158,1,2,0:0:0:0:
448,192,143158,128,4,143461:0:0:0:0:
320,192,143461,1,8,0:0:0:0:
64,192,143612,1,2,0:0:0:0:
192,192,143612,128,4,143915:0:0:0:0:
448,192,143915,1,8,0:0:0:0:
64,192,144066,1,2,0:0:0:0:
320,192,144066,1,4,0:0:0:0:
192,192,144293,1,6,0:0:0:0:
320,192,144520,1,2,0:0:0:0:
448,192,144520,1,4,0:0:0:0:
192,192,144747,1,6,0:0:0:0:
64,192,144974,1,2,0:0:0:0:
448,192,144974,1,4,0:0:0:0:
320,192,145201,1,6,0:0:0:0:
64,192,145428,1,2,0:0:0:0:
192,192,145428,1,4,0:0:0:0:
320,192,145655,1,6,0:0:0:0:
64,192,145882,1,2,0:0:0:0:
448,192,145882,1,4,0:0:0:0:
192,192,146109,1,6,0:0:0:0:
320,192,146336,1,6,0:0:0:0:
64,192,146488,1,10,0:0:0:0:
448,192,146488,1,4,0:0:0:0:
192,192,146639,1,8,0:0:0:0:
320,192,146790,1,8,0:0:0:0:
448,192,146942,1,14,0:0:0:0:
64,192,147093,1,8,0:0:0:0:
192,192,147244,1,8,0:0:0:0:
320,192,147396,1,14,0:0:0:0:
192,192,147547,1,8,0:0:0:0:
64,192,147698,1,6,0:0:0:0:
448,192,147698,1,8,0:0:0:0:
320,192,147850,1,8,0:0:0:0:
192,192,148001,1,14,0:0:0:0:
64,192,148152,1,8,0:0:0:0:
448,192,148304,1,14,0:0:0:0:
320,192,148405,1,8,0:0:0:0:
192,192,148506,1,8,0:0:0:0:
64,192,148606,1,14,0:0:0:0:
448,192,148707,1,8,0:0:0:0:
320,192,148808,1,8,0:0:0:0:
64,192,148909,1,6,0:0:0:0:
192,192,148909,1,8,0:0:0:0:
320,192,149363,1,0,0:0:0:0:
192,192,149515,1,0,0:0:0:70:tick02_edit.wav
448,192,149969,1,0,0:0:0:0:
64,192,150120,1,0,0:0:0:70:tick01.wav
192,192,150574,1,0,0:0:0:0:
320,192,150725,1,0,0:0:0:70:tick02_edit.wav
64,192,151179,1,0,0:0:0:0:
320,192,151331,1,0,0:0:0:70:tick01.wav
192,192,151785,1,0,0:0:0:0:
448,192,151936,1,0,0:0:0:70:tick02_edit.wav
320,192,152390,1,0,0:0:0:0:
64,192,152541,1,0,0:0:0:70:tick01.wav
448,192,152996,1,0,0:0:0:0:
192,192,153147,1,0,0:0:0:70:tick02_edit.wav
64,192,153450,1,0,0:0:0:0:
448,192,153601,1,0,0:0:0:0:
