osu file format v14

[General]
AudioFilename: audio.ogg
AudioLeadIn: 0
PreviewTime: 65063
Countdown: 0
SampleSet: Soft
StackLeniency: 0.7
Mode: 3
LetterboxInBreaks: 0
SpecialStyle: 0
WidescreenStoryboard: 0

[Editor]
DistanceSpacing: 2
BeatDivisor: 4
GridSize: 32
TimelineZoom: 2.799999

[Metadata]
Title:MarbleBlue.
TitleUnicode:MarbleBlue.
Artist:MisoilePunch
ArtistUnicode:MisoilePunch♪
Creator:Murumoo
Version:Maxus' MASTER
Source:オンゲキ bright MEMORY
Tags:Maxus DixonBlackwing DenYi Lami- secXcscX FAMoss video game electronic instrumental ongeki 日向 千夏 CHINATSU HINATA Summer Memory みそみぃる ポン恥♪ Misomyl Ponchi Ponchi♪ Marble Blue Chiptune Piano
BeatmapID:3550411
BeatmapSetID:1737067

[Difficulty]
HPDrainRate:8.2
CircleSize:4
OverallDifficulty:7.5
ApproachRate:5
SliderMultiplier:1.4
SliderTickRate:1

[Events]
//Background and Video events
0,0,"bg.png",0,0
//Break Periods
//Storyboard Layer 0 (Background)
//Storyboard Layer 1 (Fail)
//Storyboard Layer 2 (Pass)
//Storyboard Layer 3 (Foreground)
//Storyboard Layer 4 (Overlay)
//Storyboard Sound Samples
Sample,78684,0,"tick01.wav",70
Sample,79290,0,"tick02_edit.wav",70

[TimingPoints]
1195,302.69397638987,4,2,1,40,1,0
9670,-100,4,2,1,50,0,0
19659,-100,4,2,1,40,0,0
30253,-100,4,2,1,50,0,0
65063,-100,4,2,1,20,0,0
75052,-100,4,2,1,40,0,0
78684,-100,4,2,1,10,0,0
79290,-100,4,2,1,20,0,0
79592,-100,4,2,1,30,0,0
79895,-100,4,2,1,20,0,0
83527,-100,4,2,1,40,0,0
84738,-100,4,2,1,50,0,0
121061,-100,4,2,1,40,0,0
124694,-100,4,2,1,10,0,0
124845,-100,4,2,1,20,0,0
124996,-100,4,2,1,30,0,0
125299,-100,4,2,1,40,0,0
125904,-100,4,2,1,50,0,0
149061,-100,4,2,1,40,0,0

[HitObjects]
64,192,1195,128,0,1800:0:0:0:0:
192,192,1195,1,0,0:0:0:0:
320,192,1497,1,0,0:0:0:0:
448,192,1497,128,0,1800:0:0:0:0:
192,192,1800,1,0,0:0:0:0:
320,192,1800,128,0,2405:0:0:0:0:
192,192,2103,128,0,2405:0:0:0:0:
448,192,2103,1,0,0:0:0:0:
64,192,2405,128,4,2481:0:0:0:0:
448,192,2405,128,0,3616:0:0:0:70:tick01.wav
192,192,2708,128,0,2784:0:0:0:0:
64,192,2859,128,0,2935:0:0:0:0:
320,192,3011,128,0,3086:0:0:0:70:tick02_edit.wav
64,192,3162,128,0,3238:0:0:0:0:
192,192,3313,128,0,3389:0:0:0:0:
320,192,3465,128,0,3540:0:0:0:0:
64,192,3616,128,0,3692:0:0:0:70:tick01.wav
192,192,3616,1,0,0:0:0:0:
320,192,3767,128,0,3843:0:0:0:0:
192,192,3919,128,0,3994:0:0:0:0:
448,192,4070,128,0,4146:0:0:0:0:
192,192,4221,128,0,4297:0:0:0:70:tick02_edit.wav
64,192,4373,128,0,4448:0:0:0:0:
320,192,4524,128,0,4600:0:0:0:0:
448,192,4675,128,0,4751:0:0:0:0:
64,192,4827,128,0,4903:0:0:0:70:tick01.wav
192,192,4827,128,0,6038:0:0:0:0:
320,192,4978,128,0,5054:0:0:0:0:
448,192,5130,128,0,5205:0:0:0:0:
320,192,5281,128,0,5357:0:0:0:0:
64,192,5432,128,0,5508:0:0:0:70:tick02_edit.wav
320,192,5584,128,0,5659:0:0:0:0:
448,192,5735,128,0,5811:0:0:0:0:
64,192,5886,128,0,5962:0:0:0:0:
320,192,6038,128,0,6113:0:0:0:70:tick01.wav
448,192,6038,128,0,6340:0:0:0:0:
192,192,6189,128,0,6265:0:0:0:0:
64,192,6340,128,0,6416:0:0:0:0:
320,192,6340,128,0,6643:0:0:0:0:
448,192,6492,128,0,6567:0:0:0:0:
64,192,6643,128,0,6946:0:0:0:70:tick02_edit.wav
192,192,6643,128,0,6719:0:0:0:0:
320,192,6794,128,0,6870:0:0:0:0:
192,192,6946,128,0,7248:0:0:0:0:
448,192,6946,128,0,7021:0:0:0:0:
64,192,7097,128,0,7173:0:0:0:0:
320,192,7248,128,0,7324:0:0:0:70:tick01.wav
448,192,7248,128,0,8459:0:0:0:0:
64,192,7400,128,0,7475:0:0:0:0:
192,192,7551,128,0,7627:0:0:0:0:
320,192,7702,128,0,7778:0:0:0:0:
64,192,7854,128,0,7929:0:0:0:70:tick02_edit.wav
320,192,8005,128,0,8081:0:0:0:0:
192,192,8156,128,0,8232:0:0:0:0:
64,192,8308,128,0,8383:0:0:0:0:
192,192,8459,128,0,8535:0:0:0:70:tick01.wav
320,192,8459,1,0,0:0:0:0:
320,192,8611,128,0,8686:0:0:0:0:
64,192,8762,128,0,8838:0:0:0:0:
448,192,8913,128,0,8989:0:0:0:0:
320,192,9065,128,0,9140:0:0:0:70:tick02_edit.wav
64,192,9216,128,0,9292:0:0:0:0:
192,192,9367,128,0,9443:0:0:0:0:
448,192,9519,128,0,9594:0:0:0:0:
64,192,9670,1,12,0:0:0:0:
192,192,9670,1,2,0:0:0:0:
320,192,9746,1,8,0:0:0:0:
64,192,9821,1,8,0:0:0:0:
448,192,9897,1,8,0:0:0:0:
192,192,9973,1,12,0:0:0:0:
320,192,9973,1,2,0:0:0:0:
64,192,10048,1,8,0:0:0:0:
448,192,10124,1,8,0:0:0:0:
192,192,10200,1,8,0:0:0:0:
320,192,10275,1,12,0:0:0:0:
448,192,10275,1,2,0:0:0:0:
64,192,10351,1,8,0:0:0:0:
448,192,10427,1,8,0:0:0:0:
320,192,10502,1,8,0:0:0:0:
64,192,10578,1,12,0:0:0:0:
192,192,10654,1,8,0:0:0:0:
320,192,10729,128,8,11108:0:0:0:0:
448,192,10729,128,2,11108:0:0:0:0:
192,192,11183,128,0,11410:0:0:0:0:
320,192,11183,128,0,11410:0:0:0:0:
64,192,11486,1,8,0:0:0:0:
192,192,11486,128,0,11637:0:0:0:0:
320,192,11637,128,0,11789:0:0:0:70:tom01.wav
448,192,11637,1,0,0:0:0:0:
64,192,11789,128,8,12016:0:0:0:0:
448,192,11789,128,4,12016:0:0:0:0:
64,192,12091,128,2,14059:0:0:0:0:
192,192,12091,1,4,0:0:0:0:
320,192,12091,1,8,0:0:0:0:
448,192,12243,1,8,0:0:0:0:
192,192,12319,1,8,0:0:0:0:
320,192,12394,1,8,0:0:0:0:
448,192,12394,1,0,0:0:0:0:
192,192,12546,1,10,0:0:0:0:
320,192,12546,1,4,0:0:0:0:
192,192,12697,1,8,0:0:0:0:
320,192,12773,1,8,0:0:0:0:
192,192,12848,1,8,0:0:0:0:
448,192,12848,1,0,0:0:0:0:
320,192,13000,1,8,0:0:0:0:
448,192,13000,1,0,0:0:0:0:
192,192,13075,1,8,0:0:0:0:
320,192,13151,1,8,0:0:0:0:
448,192,13227,1,8,0:0:0:0:
192,192,13302,1,10,0:0:0:0:
320,192,13302,1,4,0:0:0:0:
448,192,13454,1,8,0:0:0:0:
192,192,13529,1,8,0:0:0:0:
320,192,13605,1,8,0:0:0:0:
448,192,13605,1,0,0:0:0:0:
192,192,13756,1,10,0:0:0:0:
320,192,13756,1,4,0:0:0:0:
448,192,13908,1,8,0:0:0:0:
320,192,13983,1,8,0:0:0:0:
192,192,14059,1,8,0:0:0:0:
448,192,14059,1,0,0:0:0:0:
320,192,14210,1,10,0:0:0:0:
448,192,14210,1,4,0:0:0:0:
64,192,14362,1,8,0:0:0:0:
192,192,14362,1,0,0:0:0:0:
320,192,14437,1,8,0:0:0:0:
64,192,14513,1,6,0:0:0:0:
448,192,14513,1,8,0:0:0:0:
64,192,14664,1,8,0:0:0:0:
448,192,14664,1,0,0:0:0:0:
192,192,14740,1,8,0:0:0:0:
320,192,14816,1,8,0:0:0:0:
448,192,14816,1,0,0:0:0:0:
64,192,14967,1,12,0:0:0:0:
192,192,14967,1,2,0:0:0:0:
320,192,15118,128,8,15194:0:0:0:0:
448,192,15118,1,0,0:0:0:0:
192,192,15194,128,8,15270:0:0:0:0:
64,192,15270,128,8,15345:0:0:0:0:
448,192,15270,1,0,0:0:0:0:
320,192,15345,128,0,15421:0:0:0:0:
64,192,15421,1,10,0:0:0:0:
192,192,15421,128,4,15497:0:0:0:0:
448,192,15497,128,8,15572:0:0:0:0:
64,192,15572,1,8,0:0:0:0:
320,192,15572,128,0,15648:0:0:0:0:
192,192,15648,128,8,15724:0:0:0:0:
64,192,15724,128,8,15875:0:0:0:0:
448,192,15724,1,0,0:0:0:0:
448,192,15875,1,10,0:0:0:0:
320,192,15926,1,10,0:0:0:0:
192,192,15976,1,10,0:0:0:0:
64,192,16027,1,8,0:0:0:0:
448,192,16027,128,4,16178:0:0:0:0:
192,192,16102,1,8,0:0:0:0:
320,192,16178,1,10,0:0:0:0:
448,192,16254,1,10,0:0:0:0:
64,192,16329,128,10,16481:0:0:0:0:
192,192,16329,1,4,0:0:0:0:
448,192,16481,1,10,0:0:0:0:
320,192,16531,1,10,0:0:0:0:
192,192,16581,1,10,0:0:0:0:
64,192,16632,1,8,0:0:0:0:
448,192,16632,128,4,16783:0:0:0:0:
192,192,16708,1,0,0:0:0:0:
320,192,16783,1,0,0:0:0:0:
448,192,16859,1,0,0:0:0:0:
64,192,16935,128,8,17010:0:0:0:0:
192,192,16935,128,4,17010:0:0:0:0:
320,192,17010,128,0,17086:0:0:0:0:
448,192,17086,128,2,17162:0:0:0:0:
192,192,17162,128,0,17237:0:0:0:0:
320,192,17237,128,2,17313:0:0:0:0:
64,192,17389,128,8,17464:0:0:0:0:
448,192,17389,128,4,17464:0:0:0:0:
192,192,17464,128,0,17540:0:0:0:0:
320,192,17540,128,2,17616:0:0:0:0:
192,192,17616,128,0,17691:0:0:0:0:
64,192,17691,128,2,17767:0:0:0:0:
320,192,17843,128,8,17918:0:0:0:0:
448,192,17843,128,4,17918:0:0:0:0:
192,192,17918,128,0,17994:0:0:0:0:
448,192,17994,128,2,18070:0:0:0:0:
320,192,18070,128,2,18145:0:0:0:0:
64,192,18145,128,8,18221:0:0:0:0:
192,192,18145,128,4,18221:0:0:0:0:
320,192,18297,128,2,18372:0:0:0:0:
192,192,18372,128,2,18448:0:0:0:0:
64,192,18448,128,8,18524:0:0:0:0:
448,192,18448,128,4,18524:0:0:0:0:
320,192,18524,128,0,18599:0:0:0:0:
192,192,18599,128,2,18675:0:0:0:0:
448,192,18675,128,0,18751:0:0:0:0:
64,192,18751,128,10,18826:0:0:0:0:
192,192,18751,128,4,18826:0:0:0:0:
320,192,18826,128,8,18902:0:0:0:0:
64,192,18902,128,8,18978:0:0:0:0:
448,192,18902,128,0,18978:0:0:0:0:
192,192,18978,128,8,19053:0:0:0:0:
320,192,19053,128,10,19129:0:0:0:0:
448,192,19053,128,4,19129:0:0:0:0:
64,192,19129,128,8,19205:0:0:0:0:
192,192,19205,128,8,19280:0:0:0:0:
320,192,19205,128,0,19280:0:0:0:0:
448,192,19280,128,8,19356:0:0:0:0:
64,192,19356,128,8,19432:0:0:0:0:
192,192,19356,128,4,19432:0:0:0:0:
64,192,20567,1,0,0:0:0:70:tick02_edit.wav
192,192,20567,1,0,0:0:0:0:
320,192,21172,1,0,0:0:0:70:tick01.wav
448,192,21172,128,0,21778:0:0:0:0:
64,192,21475,128,0,21778:0:0:0:0:
320,192,21778,128,2,21929:0:0:0:0:
192,192,21929,128,0,22080:0:0:0:0:
64,192,22080,128,0,22232:0:0:0:0:
448,192,22232,128,0,22383:0:0:0:0:
192,192,22383,128,0,22534:0:0:0:0:
320,192,22534,128,0,22686:0:0:0:0:
448,192,22686,128,0,23594:0:0:0:0:
64,192,22837,128,0,23594:0:0:0:0:
192,192,23594,128,0,23796:0:0:0:0:
448,192,23796,128,0,23997:0:0:0:0:
64,192,23997,128,0,24199:0:0:0:0:
320,192,24199,128,0,24351:0:0:0:0:
192,192,24351,128,0,24502:0:0:0:0:
448,192,24502,128,0,24653:0:0:0:0:
64,192,24653,128,0,24805:0:0:0:0:
320,192,24805,128,0,24956:0:0:0:0:
192,192,24956,128,0,25107:0:0:0:0:
448,192,25107,128,0,26015:0:0:0:0:
320,192,25259,128,0,26015:0:0:0:0:
64,192,26015,128,0,26318:0:0:0:0:
448,192,26318,128,0,26621:0:0:0:0:
192,192,26621,128,0,26772:0:0:0:0:
320,192,26772,128,0,26923:0:0:0:0:
448,192,26923,128,0,27075:0:0:0:0:
64,192,27075,128,0,27226:0:0:0:0:
192,192,27226,128,0,27378:0:0:0:0:
320,192,27378,128,0,27529:0:0:0:0:
448,192,27529,128,0,28134:0:0:0:0:
64,192,27680,128,0,28134:0:0:0:0:
320,192,28134,128,0,28437:0:0:0:0:
192,192,28437,128,0,28740:0:0:0:0:
448,192,28740,1,0,0:0:0:0:
320,192,28790,1,0,0:0:0:0:
64,192,28841,1,0,0:0:0:0:
192,192,28891,1,0,0:0:0:0:
448,192,28941,1,0,0:0:0:0:
320,192,28992,1,0,0:0:0:0:
64,192,29042,128,0,29496:0:0:0:0:
192,192,29042,1,0,0:0:0:0:
320,192,29194,1,0,0:0:0:0:
448,192,29194,1,0,0:0:0:0:
192,192,29345,1,0,0:0:0:0:
320,192,29345,1,0,0:0:0:0:
192,192,29496,1,0,0:0:0:0:
448,192,29496,128,0,30253:0:0:0:0:
64,192,29648,1,0,0:0:0:0:
320,192,29648,1,0,0:0:0:0:
64,192,29799,1,0,0:0:0:0:
192,192,29799,1,0,0:0:0:0:
320,192,29950,1,0,0:0:0:0:
192,192,30001,1,0,0:0:0:0:
64,192,30051,1,0,0:0:0:0:
320,192,30102,1,0,0:0:0:0:
64,192,30253,1,10,0:0:0:0:
192,192,30253,1,4,0:0:0:0:
320,192,30329,1,8,0:0:0:0:
448,192,30404,1,8,0:0:0:0:
64,192,30480,1,8,0:0:0:0:
192,192,30556,1,8,0:0:0:0:
448,192,30556,1,4,0:0:0:0:
320,192,30631,1,8,0:0:0:0:
192,192,30707,1,8,0:0:0:0:
64,192,30783,1,8,0:0:0:0:
320,192,30859,1,8,0:0:0:0:
448,192,30859,1,4,0:0:0:0:
192,192,30934,1,8,0:0:0:0:
64,192,31010,1,8,0:0:0:0:
448,192,31010,1,2,0:0:0:0:
192,192,31086,1,10,0:0:0:0:
320,192,31161,1,8,0:0:0:0:
448,192,31161,128,4,31691:0:0:0:0:
64,192,31464,128,2,31691:0:0:0:0:
192,192,31464,128,4,31691:0:0:0:0:
64,192,31767,1,8,0:0:0:0:
192,192,31767,1,0,0:0:0:0:
448,192,31767,1,0,0:0:0:0:
64,192,31918,128,2,32675:0:0:0:0:
320,192,31918,128,4,32145:0:0:0:0:
448,192,31918,128,0,32145:0:0:0:0:
320,192,32221,1,8,0:0:0:0:
448,192,32221,1,0,0:0:0:0:
192,192,32372,1,2,0:0:0:0:
448,192,32372,1,4,0:0:0:0:
320,192,32523,1,0,0:0:0:0:
192,192,32599,1,0,0:0:0:0:
320,192,32675,1,8,0:0:0:0:
448,192,32675,1,0,0:0:0:0:
192,192,32750,1,0,0:0:0:0:
64,192,32826,1,2,0:0:0:0:
448,192,32826,1,4,0:0:0:0:
192,192,32977,128,0,33129:0:0:0:0:
320,192,33129,128,8,33204:0:0:0:0:
448,192,33129,1,0,0:0:0:0:
64,192,33204,128,8,33280:0:0:0:0:
192,192,33204,1,0,0:0:0:0:
320,192,33280,1,8,0:0:0:0:
448,192,33280,128,0,33356:0:0:0:0:
64,192,33356,128,0,33431:0:0:0:0:
192,192,33431,1,4,0:0:0:0:
320,192,33431,128,2,33507:0:0:0:0:
448,192,33507,128,0,33583:0:0:0:0:
64,192,33583,1,8,0:0:0:0:
192,192,33583,128,0,33658:0:0:0:0:
320,192,33658,128,8,33734:0:0:0:0:
448,192,33658,1,0,0:0:0:0:
64,192,33734,128,2,33810:0:0:0:0:
192,192,33734,1,4,0:0:0:0:
320,192,33810,128,0,33885:0:0:0:0:
192,192,33885,1,2,0:0:0:0:
448,192,33885,128,4,34491:0:0:0:0:
64,192,34037,1,0,0:0:0:0:
64,192,34188,1,8,0:0:0:0:
320,192,34188,1,0,0:0:0:0:
192,192,34339,1,2,0:0:0:0:
320,192,34339,1,4,0:0:0:0:
192,192,34491,128,0,34794:0:0:0:0:
320,192,34642,1,8,0:0:0:0:
448,192,34642,1,0,0:0:0:0:
64,192,34794,1,2,0:0:0:0:
320,192,34794,128,4,35096:0:0:0:0:
192,192,34945,1,0,0:0:0:0:
64,192,35096,128,8,35702:0:0:0:0:
448,192,35096,1,0,0:0:0:0:
192,192,35248,1,2,0:0:0:0:
320,192,35248,1,4,0:0:0:0:
448,192,35399,1,0,0:0:0:0:
320,192,35550,1,8,0:0:0:0:
192,192,35626,1,8,0:0:0:0:
320,192,35702,1,10,0:0:0:0:
448,192,35702,128,4,36307:0:0:0:0:
64,192,35853,1,8,0:0:0:0:
192,192,35929,1,0,0:0:0:0:
320,192,36004,1,8,0:0:0:0:
64,192,36080,1,8,0:0:0:0:
320,192,36156,1,8,0:0:0:0:
192,192,36231,1,8,0:0:0:0:
64,192,36307,128,4,37215:0:0:0:0:
320,192,36307,1,2,0:0:0:0:
448,192,36383,1,0,0:0:0:0:
192,192,36458,1,0,0:0:0:0:
320,192,36534,1,0,0:0:0:0:
192,192,36610,1,8,0:0:0:0:
448,192,36685,1,0,0:0:0:0:
192,192,36761,1,2,0:0:0:0:
320,192,36761,1,4,0:0:0:0:
448,192,36837,1,0,0:0:0:0:
320,192,36912,1,8,0:0:0:0:
192,192,36988,1,0,0:0:0:0:
320,192,37064,1,2,0:0:0:0:
448,192,37064,1,4,0:0:0:0:
192,192,37139,1,0,0:0:0:0:
320,192,37215,1,8,0:0:0:0:
448,192,37291,1,0,0:0:0:0:
64,192,37366,1,2,0:0:0:0:
192,192,37366,1,0,0:0:0:0:
320,192,37442,1,2,0:0:0:0:
64,192,37518,1,10,0:0:0:0:
448,192,37518,128,4,37820:0:0:0:0:
192,192,37593,1,0,0:0:0:0:
320,192,37669,1,0,0:0:0:0:
64,192,37745,1,0,0:0:0:0:
192,192,37820,1,8,0:0:0:0:
320,192,37820,128,0,38123:0:0:0:0:
64,192,37896,1,0,0:0:0:0:
448,192,37972,1,2,0:0:0:0:
64,192,38047,1,2,0:0:0:0:
192,192,38123,128,8,38350:0:0:0:0:
448,192,38123,1,4,0:0:0:0:
320,192,38199,1,0,0:0:0:0:
448,192,38275,1,8,0:0:0:0:
64,192,38350,128,8,38502:0:0:0:0:
320,192,38350,1,0,0:0:0:0:
192,192,38426,1,10,0:0:0:0:
320,192,38502,1,8,0:0:0:0:
448,192,38502,128,0,38729:0:0:0:0:
192,192,38577,1,8,0:0:0:0:
64,192,38653,1,8,0:0:0:0:
192,192,38729,1,12,0:0:0:0:
320,192,38729,128,2,38880:0:0:0:0:
192,192,38880,1,0,0:0:0:70:tom01.wav
320,192,38956,1,0,0:0:0:70:tom02.wav
64,192,39031,1,2,0:0:0:0:
448,192,39031,1,0,0:0:0:0:
64,192,39183,128,2,39410:0:0:0:0:
320,192,39183,128,4,39637:0:0:0:0:
448,192,39183,128,0,39637:0:0:0:0:
64,192,39485,128,4,39637:0:0:0:0:
192,192,39485,128,2,39637:0:0:0:0:
64,192,39788,128,2,40242:0:0:0:0:
192,192,39788,128,4,40015:0:0:0:0:
320,192,39788,128,0,40015:0:0:0:0:
448,192,39788,128,0,40242:0:0:0:0:
192,192,40091,1,12,0:0:0:0:
320,192,40091,1,2,0:0:0:0:
192,192,40242,1,6,0:0:0:0:
320,192,40242,1,8,0:0:0:0:
64,192,40545,128,0,40999:0:0:0:0:
192,192,40545,128,0,40999:0:0:0:0:
320,192,40847,128,0,40999:0:0:0:0:
448,192,40847,128,0,40999:0:0:0:0:
64,192,41150,1,6,0:0:0:0:
192,192,41150,1,0,0:0:0:70:clapwet.wav
320,192,41226,1,0,0:0:0:0:
192,192,41301,1,0,0:0:0:0:
448,192,41377,1,0,0:0:0:0:
192,192,41453,1,0,0:0:0:0:
320,192,41528,1,0,0:0:0:0:
64,192,41604,1,0,0:0:0:0:
192,192,41680,1,0,0:0:0:0:
320,192,41755,1,8,0:0:0:0:
448,192,41755,1,0,0:0:0:0:
192,192,41831,1,0,0:0:0:0:
64,192,41907,1,0,0:0:0:0:
320,192,41983,1,0,0:0:0:0:
192,192,42058,1,0,0:0:0:0:
448,192,42134,1,0,0:0:0:0:
64,192,42210,1,2,0:0:0:0:
320,192,42210,1,4,0:0:0:0:
192,192,42285,1,0,0:0:0:0:
448,192,42361,1,0,0:0:0:0:
64,192,42437,1,0,0:0:0:0:
320,192,42512,1,2,0:0:0:0:
192,192,42588,1,0,0:0:0:0:
448,192,42664,1,0,0:0:0:0:
320,192,42739,1,0,0:0:0:0:
64,192,42815,1,0,0:0:0:0:
192,192,42891,1,0,0:0:0:0:
320,192,42966,1,8,0:0:0:0:
448,192,42966,1,0,0:0:0:0:
64,192,43042,1,0,0:0:0:0:
320,192,43118,1,0,0:0:0:0:
192,192,43193,1,0,0:0:0:0:
64,192,43269,1,0,0:0:0:0:
448,192,43345,1,0,0:0:0:0:
64,192,43420,1,2,0:0:0:0:
192,192,43420,1,4,0:0:0:0:
320,192,43496,1,0,0:0:0:0:
448,192,43572,1,0,0:0:0:0:
192,192,43647,1,0,0:0:0:0:
320,192,43723,1,2,0:0:0:0:
64,192,43799,1,0,0:0:0:0:
192,192,43874,1,0,0:0:0:0:
448,192,43950,1,0,0:0:0:0:
320,192,44026,1,0,0:0:0:0:
192,192,44101,1,0,0:0:0:0:
64,192,44177,1,8,0:0:0:0:
448,192,44177,1,0,0:0:0:0:
192,192,44253,1,0,0:0:0:0:
320,192,44328,1,2,0:0:0:0:
448,192,44404,1,0,0:0:0:0:
192,192,44480,1,0,0:0:0:0:
64,192,44555,1,0,0:0:0:0:
320,192,44631,1,2,0:0:0:0:
448,192,44631,1,4,0:0:0:0:
192,192,44707,1,0,0:0:0:0:
448,192,44782,1,0,0:0:0:0:
64,192,44858,1,0,0:0:0:0:
320,192,44934,1,2,0:0:0:0:
192,192,45009,1,0,0:0:0:0:
320,192,45085,1,0,0:0:0:0:
64,192,45161,1,0,0:0:0:0:
448,192,45236,1,0,0:0:0:0:
320,192,45312,1,0,0:0:0:0:
64,192,45388,1,8,0:0:0:0:
192,192,45388,1,4,0:0:0:0:
320,192,45463,1,0,0:0:0:0:
192,192,45539,1,0,0:0:0:0:
448,192,45615,1,0,0:0:0:0:
64,192,45691,1,8,0:0:0:0:
192,192,45691,1,4,0:0:0:0:
320,192,45766,1,8,0:0:0:0:
64,192,45842,1,8,0:0:0:0:
448,192,45842,1,0,0:0:0:0:
192,192,45918,1,8,0:0:0:0:
320,192,45993,1,4,0:0:0:0:
448,192,45993,1,2,0:0:0:0:
64,192,46069,1,0,0:0:0:0:
192,192,46145,1,0,0:0:0:0:
320,192,46220,1,0,0:0:0:0:
64,192,46296,1,0,0:0:0:0:
448,192,46372,1,0,0:0:0:0:
320,192,46447,1,0,0:0:0:0:
192,192,46523,1,0,0:0:0:0:
64,192,46599,1,8,0:0:0:0:
448,192,46599,1,0,0:0:0:0:
320,192,46674,1,0,0:0:0:0:
192,192,46750,1,0,0:0:0:0:
448,192,46826,1,0,0:0:0:0:
192,192,46901,1,0,0:0:0:0:
320,192,46977,1,0,0:0:0:0:
64,192,47053,1,2,0:0:0:0:
448,192,47053,1,4,0:0:0:0:
192,192,47128,1,0,0:0:0:0:
320,192,47204,1,0,0:0:0:0:
64,192,47280,1,0,0:0:0:0:
448,192,47355,1,2,0:0:0:0:
192,192,47431,1,0,0:0:0:0:
320,192,47507,1,0,0:0:0:0:
64,192,47582,1,0,0:0:0:0:
448,192,47658,1,0,0:0:0:0:
320,192,47734,1,0,0:0:0:0:
64,192,47809,1,8,0:0:0:0:
192,192,47809,1,0,0:0:0:0:
448,192,47885,1,0,0:0:0:0:
192,192,47961,1,0,0:0:0:0:
320,192,48036,1,0,0:0:0:0:
64,192,48112,1,8,0:0:0:0:
448,192,48112,1,0,0:0:0:0:
192,192,48188,1,8,0:0:0:0:
320,192,48263,1,8,0:0:0:0:
448,192,48263,1,0,0:0:0:0:
64,192,48339,1,8,0:0:0:0:
320,192,48415,128,2,48566:0:0:0:0:
448,192,48415,128,4,49323:0:0:0:0:
192,192,48566,1,0,0:0:0:70:tom01.wav
320,192,48642,1,0,0:0:0:0:
64,192,48717,1,0,0:0:0:0:
192,192,48793,1,0,0:0:0:0:
64,192,48869,128,2,49020:0:0:0:0:
320,192,48869,1,0,0:0:0:0:
320,192,49020,1,0,0:0:0:0:
192,192,49096,1,0,0:0:0:0:
64,192,49171,1,2,0:0:0:0:
320,192,49171,128,0,49323:0:0:0:0:
192,192,49323,1,0,0:0:0:0:
320,192,49399,1,0,0:0:0:0:
64,192,49474,128,2,49777:0:0:0:0:
448,192,49474,128,0,49777:0:0:0:0:
320,192,49777,1,8,0:0:0:0:
192,192,49853,1,8,0:0:0:0:
64,192,49928,1,10,0:0:0:0:
448,192,49928,1,4,0:0:0:0:
320,192,50004,1,8,0:0:0:0:
192,192,50080,1,8,0:0:0:0:
448,192,50155,1,0,0:0:0:0:
64,192,50231,1,8,0:0:0:0:
320,192,50231,1,4,0:0:0:0:
192,192,50307,1,0,0:0:0:0:
448,192,50382,1,8,0:0:0:0:
64,192,50458,1,8,0:0:0:0:
192,192,50534,1,10,0:0:0:0:
320,192,50534,1,4,0:0:0:0:
448,192,50609,1,8,0:0:0:0:
64,192,50685,1,0,0:0:0:70:tom01.wav
192,192,50761,1,0,0:0:0:70:tom02.wav
64,192,50836,1,2,0:0:0:0:
320,192,50836,1,4,0:0:0:0:
448,192,50836,1,8,0:0:0:0:
64,192,50988,1,2,0:0:0:0:
320,192,50988,1,4,0:0:0:0:
448,192,50988,1,8,0:0:0:0:
64,192,51139,1,8,0:0:0:0:
320,192,51139,1,4,0:0:0:0:
448,192,51139,1,2,0:0:0:0:
64,192,51290,128,2,51442:0:0:0:0:
320,192,51290,1,4,0:0:0:0:
448,192,51290,1,8,0:0:0:0:
192,192,51366,128,0,51517:0:0:0:0:
320,192,51442,128,0,51593:0:0:0:0:
448,192,51517,128,0,51669:0:0:0:0:
64,192,51593,128,0,51744:0:0:0:0:
320,192,51669,128,0,51820:0:0:0:0:
192,192,51744,128,0,51896:0:0:0:0:
64,192,51820,128,0,51971:0:0:0:0:
448,192,51896,128,0,52047:0:0:0:0:
320,192,51971,128,0,52123:0:0:0:0:
192,192,52047,128,0,52198:0:0:0:0:
448,192,52123,128,0,52274:0:0:0:0:
64,192,52198,128,0,52350:0:0:0:0:
192,192,52274,128,0,52425:0:0:0:0:
320,192,52350,128,0,52501:0:0:0:0:
448,192,52425,128,0,52577:0:0:0:0:
64,192,52501,128,0,52652:0:0:0:0:
192,192,52577,128,0,52652:0:0:0:0:
320,192,52652,128,12,52879:0:0:0:0:
448,192,52652,128,2,52879:0:0:0:0:
64,192,52879,128,4,53107:0:0:0:0:
192,192,52879,128,0,53107:0:0:0:70:tom01.wav
320,192,53107,128,4,53182:0:0:0:0:
448,192,53107,128,0,53182:0:0:0:70:tom02.wav
64,192,53258,1,2,0:0:0:0:
192,192,53258,1,4,0:0:0:0:
448,192,53258,1,8,0:0:0:0:
64,192,53409,1,8,0:0:0:0:
192,192,53409,1,4,0:0:0:0:
448,192,53409,1,2,0:0:0:0:
64,192,53561,1,2,0:0:0:0:
192,192,53561,1,4,0:0:0:0:
448,192,53561,1,8,0:0:0:0:
64,192,53712,1,8,0:0:0:0:
192,192,53712,1,4,0:0:0:0:
448,192,53712,128,2,53863:0:0:0:0:
320,192,53788,128,0,53939:0:0:0:0:
192,192,53863,128,0,54015:0:0:0:0:
64,192,53939,128,0,54090:0:0:0:0:
448,192,54015,128,8,54166:0:0:0:0:
192,192,54090,128,0,54242:0:0:0:0:
320,192,54166,128,2,54317:0:0:0:0:
448,192,54242,128,2,54393:0:0:0:0:
64,192,54317,128,2,54469:0:0:0:0:
192,192,54393,128,0,54469:0:0:0:0:
320,192,54469,1,2,0:0:0:0:
448,192,54469,1,4,0:0:0:0:
64,192,54670,1,2,0:0:0:0:
192,192,54670,1,4,0:0:0:0:
320,192,54670,1,0,0:0:0:0:
64,192,54872,1,2,0:0:0:0:
192,192,54872,1,4,0:0:0:0:
448,192,54872,1,0,0:0:0:0:
192,192,55074,1,2,0:0:0:0:
320,192,55074,1,4,0:0:0:0:
448,192,55074,1,8,0:0:0:0:
64,192,55276,1,4,0:0:0:0:
320,192,55276,1,8,0:0:0:0:
448,192,55276,1,2,0:0:0:0:
64,192,55478,1,2,0:0:0:0:
192,192,55478,1,8,0:0:0:0:
448,192,55478,1,4,0:0:0:0:
64,192,55679,1,2,0:0:0:0:
192,192,55679,1,4,0:0:0:0:
320,192,55679,1,0,0:0:0:0:
320,192,55831,1,8,0:0:0:0:
448,192,55831,128,0,55906:0:0:0:0:
64,192,55906,128,8,55982:0:0:0:0:
192,192,55982,128,8,56058:0:0:0:0:
448,192,55982,1,0,0:0:0:0:
320,192,56133,1,2,0:0:0:0:
448,192,56133,1,4,0:0:0:0:
64,192,56285,128,8,56360:0:0:0:0:
192,192,56285,1,0,0:0:0:0:
448,192,56360,128,8,56436:0:0:0:0:
64,192,56436,1,8,0:0:0:0:
320,192,56436,128,0,56512:0:0:0:0:
192,192,56587,1,2,0:0:0:0:
320,192,56587,1,4,0:0:0:0:
64,192,56739,128,8,56815:0:0:0:0:
448,192,56739,1,0,0:0:0:0:
192,192,56815,128,8,56890:0:0:0:0:
320,192,56890,128,8,56966:0:0:0:0:
448,192,56890,1,0,0:0:0:0:
64,192,57042,1,2,0:0:0:0:
192,192,57042,1,4,0:0:0:0:
64,192,57193,1,8,0:0:0:0:
448,192,57193,128,0,57269:0:0:0:0:
320,192,57269,128,8,57344:0:0:0:0:
64,192,57344,1,8,0:0:0:0:
192,192,57344,128,0,57420:0:0:0:0:
320,192,57496,128,2,57571:0:0:0:0:
448,192,57496,128,4,57571:0:0:0:0:
64,192,57647,128,8,57723:0:0:0:0:
192,192,57647,128,0,57723:0:0:0:0:
320,192,57723,128,8,57798:0:0:0:0:
448,192,57723,128,0,57798:0:0:0:0:
64,192,57798,128,8,57874:0:0:0:0:
192,192,57798,128,0,57874:0:0:0:0:
64,192,57950,128,2,58025:0:0:0:0:
448,192,57950,128,4,58025:0:0:0:0:
192,192,58101,128,8,58177:0:0:0:0:
320,192,58101,128,0,58177:0:0:0:70:tom01.wav
64,192,58177,128,8,58252:0:0:0:0:
448,192,58177,128,0,58252:0:0:0:70:tom02.wav
192,192,58252,128,8,58328:0:0:0:0:
320,192,58252,128,0,58328:0:0:0:70:tom03.wav
64,192,58404,128,2,58479:0:0:0:0:
192,192,58404,128,4,58479:0:0:0:0:
320,192,58555,128,8,58631:0:0:0:0:
448,192,58555,128,0,58631:0:0:0:0:
64,192,58631,128,0,58706:0:0:0:0:
192,192,58631,128,0,58706:0:0:0:0:
320,192,58706,128,8,58782:0:0:0:0:
448,192,58706,128,0,58782:0:0:0:0:
192,192,58858,128,2,58933:0:0:0:0:
320,192,58858,128,4,58933:0:0:0:0:
64,192,59009,128,8,59085:0:0:0:0:
448,192,59009,128,0,59085:0:0:0:0:
192,192,59085,128,0,59160:0:0:0:0:
320,192,59085,128,0,59160:0:0:0:0:
64,192,59160,128,8,59236:0:0:0:0:
448,192,59160,128,0,59236:0:0:0:0:
320,192,59312,128,2,59387:0:0:0:0:
448,192,59312,128,4,59387:0:0:0:0:
64,192,59463,128,0,59539:0:0:0:0:
320,192,59539,128,2,59614:0:0:0:0:
448,192,59539,128,4,59614:0:0:0:0:
192,192,59614,128,0,59690:0:0:0:0:
448,192,59690,128,0,59766:0:0:0:0:
64,192,59766,128,2,59841:0:0:0:0:
192,192,59766,128,4,59841:0:0:0:0:
320,192,59841,128,0,59917:0:0:0:0:
192,192,59917,128,0,59993:0:0:0:0:
64,192,59993,128,2,60068:0:0:0:0:
448,192,59993,128,4,60068:0:0:0:0:
320,192,60068,128,0,60144:0:0:0:0:
192,192,60144,128,0,60220:0:0:0:0:
320,192,60220,128,2,60295:0:0:0:0:
448,192,60220,128,4,60295:0:0:0:0:
64,192,60295,128,0,60371:0:0:0:0:
192,192,60371,128,0,60447:0:0:0:0:
320,192,60447,128,4,60523:0:0:0:0:
448,192,60447,128,2,60523:0:0:0:0:
64,192,60523,128,0,60598:0:0:0:0:
192,192,60598,128,0,60674:0:0:0:0:
320,192,60674,128,2,60750:0:0:0:0:
448,192,60674,128,4,60750:0:0:0:0:
64,192,60750,128,0,60825:0:0:0:0:
448,192,60825,128,0,60901:0:0:0:0:
64,192,60901,128,2,60977:0:0:0:0:
192,192,60901,128,4,60977:0:0:0:0:
320,192,60977,128,0,61052:0:0:0:0:
448,192,61052,128,0,61128:0:0:0:0:
192,192,61128,128,2,61204:0:0:0:0:
320,192,61128,128,4,61204:0:0:0:0:
64,192,61204,128,0,61279:0:0:0:0:
192,192,61279,128,0,61355:0:0:0:0:
320,192,61355,128,2,61431:0:0:0:0:
448,192,61355,128,4,61431:0:0:0:0:
64,192,61431,128,0,61506:0:0:0:0:
448,192,61506,128,0,61582:0:0:0:0:
192,192,61582,128,2,61658:0:0:0:0:
320,192,61582,128,4,61658:0:0:0:0:
64,192,61658,128,0,61733:0:0:0:0:
320,192,61733,128,8,61809:0:0:0:0:
448,192,61733,128,2,62944:0:0:0:0:
192,192,61809,128,8,61885:0:0:0:0:
64,192,61885,128,8,61960:0:0:0:0:
320,192,61960,128,8,62036:0:0:0:0:
64,192,62036,128,8,62112:0:0:0:0:
192,192,62112,128,8,62187:0:0:0:0:
320,192,62187,128,8,62263:0:0:0:0:
64,192,62263,128,8,62339:0:0:0:0:
320,192,62339,128,8,62414:0:0:0:0:
192,192,62414,128,8,62490:0:0:0:0:
64,192,62490,128,8,62566:0:0:0:0:
320,192,62566,128,8,62641:0:0:0:0:
64,192,62641,128,8,62717:0:0:0:0:
192,192,62717,128,8,62793:0:0:0:0:
320,192,62793,128,8,62868:0:0:0:0:
192,192,62868,128,8,62944:0:0:0:0:
64,192,62944,128,10,63020:0:0:0:0:
320,192,62944,1,4,0:0:0:0:
192,192,65063,128,0,65214:0:0:0:0:
192,192,65366,128,0,68090:0:0:0:0:
320,192,65820,1,0,0:0:0:0:
320,192,65971,128,0,67484:0:0:0:0:
448,192,66425,1,0,0:0:0:0:
448,192,66576,128,0,71117:0:0:0:0:
64,192,67030,1,0,0:0:0:0:
64,192,67182,128,0,68695:0:0:0:0:
320,192,67636,1,0,0:0:0:0:
320,192,67787,128,0,69755:0:0:0:0:
192,192,68241,1,0,0:0:0:0:
192,192,68393,128,0,69452:0:0:0:0:
64,192,68847,1,0,0:0:0:0:
64,192,68998,128,0,71722:0:0:0:0:
192,192,69603,128,0,70511:0:0:0:0:
320,192,69906,128,0,70057:0:0:0:0:
320,192,70209,128,0,72328:0:0:0:0:
192,192,70663,1,0,0:0:0:0:
192,192,70814,128,0,72933:0:0:0:0:
448,192,71268,1,0,0:0:0:0:
448,192,71420,128,0,74295:0:0:0:0:
64,192,71874,1,0,0:0:0:0:
64,192,72025,128,0,73538:0:0:0:0:
320,192,72479,1,0,0:0:0:0:
320,192,72630,128,0,74598:0:0:0:0:
192,192,73084,1,0,0:0:0:0:
192,192,73236,128,0,74900:0:0:0:0:
64,192,73690,1,0,0:0:0:0:
64,192,73841,128,0,74900:0:0:0:0:
448,192,74446,128,0,74900:0:0:0:0:
320,192,74749,128,0,74900:0:0:0:0:
64,192,75052,128,4,75203:0:0:0:0:
192,192,75052,128,0,75506:0:0:0:70:tick01.wav
320,192,75052,128,0,75657:0:0:0:0:
448,192,75052,128,0,75809:0:0:0:0:
64,192,75355,128,0,75960:0:0:0:0:
192,192,75657,128,0,76414:0:0:0:70:tick02_edit.wav
320,192,75809,128,0,76111:0:0:0:0:
448,192,75960,128,0,77776:0:0:0:0:
64,192,76111,128,0,76717:0:0:0:0:
320,192,76263,128,0,77625:0:0:0:70:tick01.wav
192,192,76565,128,0,77322:0:0:0:0:
64,192,76868,128,0,77927:0:0:0:70:tick02_edit.wav
192,192,77473,128,0,78079:0:0:0:70:tick01.wav
320,192,77776,128,0,78381:0:0:0:0:
448,192,77927,128,0,78911:0:0:0:0:
64,192,78079,128,0,78911:0:0:0:70:tick02_edit.wav
192,192,78230,128,0,78911:0:0:0:0:
320,192,78533,1,0,0:0:0:0:
320,192,78684,128,2,78911:0:0:0:0:
64,192,78987,1,2,0:0:0:0:
192,192,79063,1,2,0:0:0:0:
448,192,79138,1,2,0:0:0:0:
320,192,79214,1,2,0:0:0:0:
192,192,79290,1,2,0:0:0:0:
64,192,79365,1,2,0:0:0:0:
448,192,79441,1,2,0:0:0:0:
320,192,79517,1,2,0:0:0:0:
64,192,79592,1,2,0:0:0:0:
192,192,79668,1,2,0:0:0:0:
320,192,79744,1,2,0:0:0:0:
448,192,79819,1,2,0:0:0:0:
64,192,79895,128,0,81560:0:0:0:0:
448,192,80198,128,0,80954:0:0:0:0:
192,192,80500,128,0,81862:0:0:0:0:
320,192,80803,128,0,82165:0:0:0:0:
448,192,81106,128,0,83073:0:0:0:0:
64,192,81711,128,0,83754:0:0:0:0:
192,192,82014,128,0,83754:0:0:0:0:
320,192,82316,128,0,83754:0:0:0:0:
448,192,83225,128,0,83754:0:0:0:0:
192,192,83830,1,0,0:0:0:0:
320,192,83981,1,0,0:0:0:0:
448,192,84133,128,0,84360:0:0:0:0:
320,192,84208,128,0,84360:0:0:0:0:
192,192,84284,128,0,84360:0:0:0:0:
64,192,84360,128,0,84587:0:0:0:0:
192,192,84435,128,0,84587:0:0:0:0:
320,192,84511,128,0,84587:0:0:0:0:
448,192,84587,128,0,84738:0:0:0:0:
320,192,84662,128,0,84738:0:0:0:0:
64,192,84738,1,12,0:0:0:0:
192,192,84738,1,2,0:0:0:0:
64,192,84839,1,8,0:0:0:0:
448,192,84940,1,8,0:0:0:0:
320,192,85041,1,8,0:0:0:0:
448,192,85041,1,4,0:0:0:0:
64,192,85142,1,8,0:0:0:0:
320,192,85243,1,8,0:0:0:0:
64,192,85343,1,8,0:0:0:0:
192,192,85343,1,4,0:0:0:0:
192,192,85444,1,8,0:0:0:0:
320,192,85545,1,8,0:0:0:0:
320,192,85646,1,8,0:0:0:0:
448,192,85646,1,4,0:0:0:0:
64,192,85747,1,8,0:0:0:0:
192,192,85848,1,8,0:0:0:0:
320,192,85949,1,12,0:0:0:0:
448,192,85949,1,2,0:0:0:0:
320,192,86050,1,8,0:0:0:0:
192,192,86151,1,8,0:0:0:0:
64,192,86252,1,8,0:0:0:0:
192,192,86252,1,4,0:0:0:0:
448,192,86352,1,8,0:0:0:0:
320,192,86453,1,8,0:0:0:0:
64,192,86554,1,12,0:0:0:0:
192,192,86554,1,2,0:0:0:0:
64,192,86655,1,0,0:0:0:0:
320,192,86756,1,10,0:0:0:0:
448,192,86756,1,4,0:0:0:0:
448,192,86857,128,0,87160:0:0:0:0:
64,192,86958,1,10,0:0:0:0:
192,192,86958,1,4,0:0:0:0:
64,192,87160,128,0,87689:0:0:0:0:
448,192,87311,1,2,0:0:0:0:
192,192,87387,1,2,0:0:0:0:
320,192,87462,1,12,0:0:0:0:
448,192,87462,1,0,0:0:0:70:clapwet.wav
448,192,87614,128,0,87689:0:0:0:0:
192,192,87765,128,0,88295:0:0:0:0:
320,192,87916,1,2,0:0:0:0:
448,192,87916,1,0,0:0:0:0:
64,192,88068,1,8,0:0:0:0:
448,192,88068,1,0,0:0:0:0:
320,192,88219,128,0,88295:0:0:0:0:
320,192,88370,1,2,0:0:0:0:
448,192,88370,128,0,88900:0:0:0:0:
64,192,88522,1,0,0:0:0:0:
192,192,88673,1,8,0:0:0:0:
320,192,88673,1,0,0:0:0:0:
64,192,88824,128,0,88900:0:0:0:0:
192,192,88976,128,0,89127:0:0:0:0:
64,192,89127,1,2,0:0:0:0:
448,192,89127,1,0,0:0:0:0:
320,192,89203,128,0,89354:0:0:0:0:
64,192,89278,1,8,0:0:0:0:
192,192,89278,1,0,0:0:0:0:
448,192,89430,128,0,89581:0:0:0:0:
64,192,89581,128,2,90035:0:0:0:0:
192,192,89581,1,0,0:0:0:0:
448,192,89732,1,0,0:0:0:0:
192,192,89884,128,8,90035:0:0:0:0:
320,192,89884,1,0,0:0:0:0:
448,192,90035,128,0,90489:0:0:0:0:
192,192,90187,1,0,0:0:0:0:
64,192,90338,1,2,0:0:0:0:
320,192,90338,128,0,90489:0:0:0:0:
64,192,90489,1,8,0:0:0:0:
192,192,90489,1,0,0:0:0:0:
64,192,90641,128,2,92003:0:0:0:0:
192,192,90641,128,4,90943:0:0:0:0:
320,192,90943,128,2,91019:0:0:0:0:
448,192,91019,128,0,91095:0:0:0:0:
192,192,91095,128,8,91170:0:0:0:0:
320,192,91095,128,0,91170:0:0:0:0:
448,192,91170,128,0,91246:0:0:0:0:
192,192,91246,128,0,91322:0:0:0:0:
448,192,91322,128,0,91397:0:0:0:0:
320,192,91397,128,0,91473:0:0:0:0:
192,192,91473,128,0,91549:0:0:0:0:
448,192,91549,128,2,91624:0:0:0:0:
192,192,91624,128,2,91700:0:0:0:0:
320,192,91700,128,8,91776:0:0:0:0:
448,192,91700,128,0,91776:0:0:0:0:
192,192,91776,128,0,91851:0:0:0:0:
448,192,91851,128,0,91927:0:0:0:0:
192,192,91927,128,0,92003:0:0:0:0:
320,192,92003,1,4,0:0:0:0:
448,192,92003,1,2,0:0:0:0:
320,192,92154,1,0,0:0:0:0:
192,192,92230,1,0,0:0:0:0:
64,192,92305,1,8,0:0:0:0:
448,192,92305,1,0,0:0:0:0:
320,192,92381,1,0,0:0:0:0:
192,192,92457,128,0,92532:0:0:0:0:
64,192,92532,1,0,0:0:0:0:
448,192,92608,128,0,92684:0:0:0:0:
320,192,92684,1,0,0:0:0:0:
192,192,92759,1,2,0:0:0:0:
64,192,92835,128,0,92911:0:0:0:0:
320,192,92911,1,8,0:0:0:0:
448,192,92911,1,0,0:0:0:0:
192,192,92986,1,0,0:0:0:0:
448,192,93062,128,0,93138:0:0:0:0:
64,192,93138,1,0,0:0:0:0:
192,192,93213,128,0,93365:0:0:0:0:
320,192,93365,128,2,93440:0:0:0:0:
448,192,93440,128,0,93516:0:0:0:0:
64,192,93516,128,8,93592:0:0:0:0:
192,192,93516,128,0,93592:0:0:0:0:
320,192,93592,128,0,93668:0:0:0:0:
192,192,93668,128,0,93743:0:0:0:0:
64,192,93743,128,0,93819:0:0:0:0:
448,192,93819,128,0,93895:0:0:0:0:
192,192,93895,128,0,93970:0:0:0:0:
320,192,93970,128,2,94046:0:0:0:0:
64,192,94046,128,2,94122:0:0:0:0:
192,192,94122,128,8,94197:0:0:0:0:
320,192,94122,128,4,94197:0:0:0:0:
448,192,94197,128,0,94273:0:0:0:0:
192,192,94273,128,0,94349:0:0:0:0:
320,192,94349,128,0,94424:0:0:0:0:
64,192,94424,128,2,94576:0:0:0:0:
448,192,94424,128,4,94576:0:0:0:0:
192,192,94576,1,8,0:0:0:0:
320,192,94651,1,8,0:0:0:0:
448,192,94727,1,8,0:0:0:0:
64,192,94803,1,8,0:0:0:0:
192,192,94878,128,10,95030:0:0:0:0:
320,192,94878,128,4,95030:0:0:0:0:
448,192,95030,1,0,0:0:0:70:tom01.wav
64,192,95105,1,0,0:0:0:70:tom02.wav
192,192,95181,1,0,0:0:0:70:tom03.wav
320,192,95257,1,0,0:0:0:70:tom04.wav
64,192,95332,128,2,95484:0:0:0:0:
192,192,95332,128,4,95484:0:0:0:0:
448,192,95484,1,12,0:0:0:0:
320,192,95559,1,0,0:0:0:0:
192,192,95635,1,0,0:0:0:0:
64,192,95711,1,0,0:0:0:70:tom01.wav
320,192,95786,128,2,95938:0:0:0:0:
448,192,95786,128,4,95938:0:0:0:0:
64,192,95938,1,8,0:0:0:0:
192,192,96013,1,8,0:0:0:0:
320,192,96089,1,8,0:0:0:0:
448,192,96165,1,8,0:0:0:0:
64,192,96240,128,12,96543:0:0:0:0:
192,192,96240,1,2,0:0:0:0:
192,192,96392,128,0,96543:0:0:0:0:
320,192,96543,1,2,0:0:0:0:
448,192,96543,128,4,96846:0:0:0:0:
320,192,96694,128,0,96846:0:0:0:0:
64,192,96846,1,2,0:0:0:0:
192,192,96846,128,4,97148:0:0:0:0:
64,192,97148,1,4,0:0:0:0:
448,192,97148,128,8,97350:0:0:0:0:
320,192,97249,128,0,97451:0:0:0:0:
64,192,97350,128,0,97552:0:0:0:0:
192,192,97451,128,0,97653:0:0:0:0:
448,192,97552,128,0,97754:0:0:0:0:
320,192,97653,128,0,97855:0:0:0:0:
192,192,97754,128,8,97956:0:0:0:0:
64,192,97855,128,0,98057:0:0:0:0:
448,192,97956,128,0,98057:0:0:0:0:
192,192,98057,1,2,0:0:0:0:
320,192,98057,128,0,98359:0:0:0:0:
64,192,98359,128,8,98561:0:0:0:0:
192,192,98359,1,0,0:0:0:0:
448,192,98460,128,0,98662:0:0:0:0:
320,192,98561,128,0,98662:0:0:0:0:
192,192,98662,128,0,98889:0:0:0:0:
320,192,98813,1,2,0:0:0:0:
448,192,98813,1,0,0:0:0:0:
64,192,98889,128,0,99116:0:0:0:0:
320,192,98965,1,8,0:0:0:0:
448,192,98965,1,0,0:0:0:0:
192,192,99116,128,0,99267:0:0:0:0:
320,192,99267,128,2,99570:0:0:0:0:
448,192,99267,1,4,0:0:0:0:
64,192,99570,1,8,0:0:0:0:
448,192,99570,128,0,99772:0:0:0:0:
320,192,99671,128,0,99873:0:0:0:0:
192,192,99772,128,0,99974:0:0:0:0:
64,192,99873,128,0,100075:0:0:0:0:
320,192,99974,128,0,100175:0:0:0:0:
448,192,100075,128,0,100276:0:0:0:0:
64,192,100175,128,8,100377:0:0:0:0:
192,192,100276,128,0,100478:0:0:0:0:
320,192,100377,128,0,100579:0:0:0:0:
64,192,100478,128,0,100680:0:0:0:0:
448,192,100579,128,0,100781:0:0:0:0:
320,192,100680,128,0,100882:0:0:0:0:
192,192,100781,128,8,100983:0:0:0:0:
448,192,100882,128,0,101084:0:0:0:0:
64,192,100983,128,0,101084:0:0:0:0:
320,192,101084,1,0,0:0:0:70:tom01.wav
192,192,101159,1,0,0:0:0:70:tom02.wav
320,192,101235,1,2,0:0:0:0:
64,192,101311,1,2,0:0:0:0:
192,192,101311,128,0,101538:0:0:0:0:
320,192,101386,1,8,0:0:0:0:
448,192,101386,1,4,0:0:0:0:
64,192,101538,128,2,101689:0:0:0:0:
448,192,101538,1,0,0:0:0:0:
192,192,101689,1,8,0:0:0:0:
320,192,101689,128,4,101916:0:0:0:0:
448,192,101689,128,0,101916:0:0:0:0:
64,192,101992,1,8,0:0:0:0:
192,192,101992,128,0,102067:0:0:0:0:
320,192,101992,128,0,102067:0:0:0:0:
192,192,102143,128,2,102294:0:0:0:0:
320,192,102143,128,0,102294:0:0:0:0:
64,192,102294,1,8,0:0:0:0:
448,192,102294,1,0,0:0:0:0:
64,192,102446,128,2,102521:0:0:0:0:
192,192,102446,128,0,102521:0:0:0:0:
64,192,102597,128,8,102748:0:0:0:0:
192,192,102597,128,0,102748:0:0:0:0:
320,192,102597,1,0,0:0:0:0:
320,192,102748,1,2,0:0:0:0:
448,192,102748,1,0,0:0:0:0:
192,192,102824,1,2,0:0:0:0:
64,192,102900,128,8,102975:0:0:0:0:
320,192,102900,1,4,0:0:0:0:
448,192,102900,128,0,102975:0:0:0:0:
64,192,103051,128,8,103202:0:0:0:0:
448,192,103051,128,0,103202:0:0:0:0:
192,192,103202,1,2,0:0:0:0:
320,192,103202,1,0,0:0:0:0:
448,192,103278,1,2,0:0:0:0:
192,192,103354,1,0,0:0:0:70:tom01.wav
320,192,103429,1,8,0:0:0:0:
64,192,103505,128,8,104110:0:0:0:0:
192,192,103505,128,4,103656:0:0:0:0:
448,192,103505,1,0,0:0:0:0:
320,192,103732,128,2,103883:0:0:0:0:
448,192,103732,1,4,0:0:0:0:
192,192,103959,1,6,0:0:0:0:
448,192,103959,128,8,104110:0:0:0:0:
192,192,104110,1,2,0:0:0:0:
320,192,104110,128,4,104262:0:0:0:0:
64,192,104262,1,8,0:0:0:0:
192,192,104262,1,0,0:0:0:0:
320,192,104337,1,8,0:0:0:0:
64,192,104413,128,8,104489:0:0:0:0:
448,192,104413,128,0,104489:0:0:0:0:
192,192,104489,1,8,0:0:0:0:
320,192,104564,128,6,104640:0:0:0:0:
448,192,104564,128,8,104640:0:0:0:0:
64,192,104640,128,8,104716:0:0:0:0:
192,192,104716,128,8,104792:0:0:0:0:
448,192,104716,128,0,104792:0:0:0:0:
320,192,104792,128,8,104867:0:0:0:0:
64,192,104867,128,8,104943:0:0:0:0:
192,192,104867,128,0,104943:0:0:0:0:
448,192,104943,128,10,105019:0:0:0:0:
64,192,105019,128,4,105094:0:0:0:0:
320,192,105019,128,8,105094:0:0:0:0:
192,192,105094,128,8,105170:0:0:0:0:
320,192,105170,128,8,105246:0:0:0:0:
448,192,105170,128,0,105246:0:0:0:0:
64,192,105246,128,8,105321:0:0:0:0:
192,192,105321,128,4,105927:0:0:0:0:
320,192,105321,1,2,0:0:0:0:
448,192,105321,1,0,0:0:0:0:
320,192,105624,128,0,105927:0:0:0:0:
64,192,105927,1,4,0:0:0:0:
448,192,105927,128,8,106229:0:0:0:0:
320,192,106002,1,8,0:0:0:0:
64,192,106078,1,8,0:0:0:0:
192,192,106154,1,8,0:0:0:0:
64,192,106229,128,8,106532:0:0:0:0:
320,192,106229,1,0,0:0:0:0:
448,192,106305,1,8,0:0:0:0:
320,192,106381,1,8,0:0:0:0:
192,192,106456,1,8,0:0:0:0:
320,192,106532,128,6,106608:0:0:0:0:
448,192,106532,128,8,106986:0:0:0:0:
64,192,106608,128,0,106683:0:0:0:0:
192,192,106683,128,0,106759:0:0:0:0:
320,192,106759,128,0,106835:0:0:0:0:
64,192,106835,128,0,106910:0:0:0:0:
64,192,106986,128,2,107440:0:0:0:0:
320,192,106986,128,4,107062:0:0:0:0:
448,192,107062,128,0,107137:0:0:0:0:
192,192,107137,128,0,107213:0:0:0:0:
320,192,107213,128,0,107289:0:0:0:0:
448,192,107289,128,0,107364:0:0:0:0:
320,192,107440,128,4,107516:0:0:0:0:
448,192,107440,128,2,107894:0:0:0:0:
64,192,107516,128,0,107591:0:0:0:0:
192,192,107591,128,0,107667:0:0:0:0:
320,192,107667,128,0,107743:0:0:0:0:
64,192,107743,128,0,107818:0:0:0:0:
64,192,107894,128,2,108272:0:0:0:0:
192,192,107894,128,4,108045:0:0:0:0:
320,192,107894,128,0,107970:0:0:0:0:
448,192,108045,128,0,108272:0:0:0:0:
320,192,108121,128,0,108272:0:0:0:0:
192,192,108197,128,0,108272:0:0:0:0:
64,192,108348,128,4,108954:0:0:0:0:
192,192,108348,1,2,0:0:0:0:
320,192,108500,128,8,108575:0:0:0:0:
448,192,108575,128,8,108651:0:0:0:0:
192,192,108651,128,8,108727:0:0:0:0:
448,192,108727,128,8,108802:0:0:0:0:
320,192,108802,128,8,108878:0:0:0:0:
192,192,108878,128,8,108954:0:0:0:0:
320,192,108954,128,4,109029:0:0:0:0:
448,192,108954,128,2,109029:0:0:0:0:
192,192,109029,128,2,109105:0:0:0:0:
64,192,109105,128,2,109181:0:0:0:0:
320,192,109181,128,2,109256:0:0:0:0:
64,192,109256,128,8,109332:0:0:0:0:
192,192,109256,128,4,109332:0:0:0:0:
448,192,109332,128,0,109408:0:0:0:0:
192,192,109408,128,2,109483:0:0:0:0:
320,192,109483,128,0,109559:0:0:0:0:
64,192,109559,128,8,109635:0:0:0:0:
448,192,109559,128,4,109635:0:0:0:0:
192,192,109635,128,0,109710:0:0:0:0:
320,192,109710,128,0,109786:0:0:0:70:tom01.wav
64,192,109786,128,0,109862:0:0:0:0:
448,192,109862,128,0,109937:0:0:0:70:tom02.wav
192,192,109937,128,0,110013:0:0:0:0:
320,192,110013,128,8,110089:0:0:0:0:
448,192,110013,128,4,110089:0:0:0:0:
64,192,110089,128,0,110164:0:0:0:0:
192,192,110164,128,0,110240:0:0:0:0:
448,192,110316,128,2,110391:0:0:0:0:
320,192,110391,128,2,110467:0:0:0:0:
64,192,110467,128,8,110543:0:0:0:0:
192,192,110467,128,4,110543:0:0:0:0:
448,192,110543,128,0,110618:0:0:0:0:
192,192,110618,128,8,110694:0:0:0:0:
320,192,110694,128,8,110770:0:0:0:0:
64,192,110770,128,4,110921:0:0:0:0:
192,192,110770,128,0,110921:0:0:0:70:tom01.wav
448,192,110770,128,0,111375:0:0:0:0:
64,192,110997,128,4,111148:0:0:0:0:
320,192,110997,128,0,111148:0:0:0:70:tom02.wav
64,192,111224,128,4,111375:0:0:0:0:
192,192,111224,128,0,111375:0:0:0:70:tom01.wav
320,192,111526,1,2,0:0:0:0:
448,192,111526,1,0,0:0:0:0:
192,192,111602,1,2,0:0:0:0:
64,192,111678,128,8,112056:0:0:0:0:
320,192,111678,128,4,112586:0:0:0:0:
448,192,111678,128,0,112586:0:0:0:70:clapwet.wav
64,192,112132,1,2,0:0:0:0:
64,192,112283,1,8,0:0:0:0:
192,192,112283,1,0,0:0:0:0:
64,192,112586,128,2,113191:0:0:0:0:
192,192,112662,128,0,112813:0:0:0:0:
448,192,112737,128,0,112889:0:0:0:0:
320,192,112813,128,0,112964:0:0:0:0:
192,192,112889,128,8,113040:0:0:0:0:
448,192,112964,128,0,113116:0:0:0:0:
320,192,113040,128,0,113191:0:0:0:0:
192,192,113116,128,0,113191:0:0:0:0:
448,192,113191,128,0,113797:0:0:0:0:
320,192,113267,128,0,113418:0:0:0:0:
64,192,113343,128,2,113494:0:0:0:0:
192,192,113418,128,0,113570:0:0:0:0:
320,192,113494,128,8,113645:0:0:0:0:
64,192,113570,128,0,113721:0:0:0:0:
192,192,113645,128,0,113721:0:0:0:0:
320,192,113721,128,0,113797:0:0:0:0:
64,192,113797,128,2,114024:0:0:0:0:
192,192,113797,1,4,0:0:0:0:
192,192,113948,128,0,114099:0:0:0:0:
320,192,114024,128,0,114175:0:0:0:0:
64,192,114099,128,8,114326:0:0:0:0:
448,192,114099,128,0,114251:0:0:0:0:
320,192,114251,128,0,114402:0:0:0:0:
192,192,114326,128,0,114478:0:0:0:0:
448,192,114402,128,0,114553:0:0:0:0:
64,192,114478,128,0,114629:0:0:0:0:
320,192,114553,128,2,114705:0:0:0:0:
192,192,114629,128,0,114780:0:0:0:0:
448,192,114705,128,8,114856:0:0:0:0:
64,192,114856,128,2,114932:0:0:0:0:
192,192,114856,128,0,114932:0:0:0:0:
320,192,114932,1,2,0:0:0:0:
64,192,115007,128,2,115083:0:0:0:0:
448,192,115007,128,4,115083:0:0:0:0:
320,192,115159,128,8,115234:0:0:0:0:
448,192,115159,128,0,115234:0:0:0:0:
64,192,115234,128,8,115310:0:0:0:0:
192,192,115234,128,0,115310:0:0:0:0:
320,192,115310,1,0,0:0:0:70:tom01.wav
448,192,115310,1,0,0:0:0:0:
64,192,115386,128,0,115461:0:0:0:70:tom02.wav
192,192,115386,128,0,115461:0:0:0:0:
320,192,115461,128,2,115537:0:0:0:0:
448,192,115461,128,0,115537:0:0:0:0:
192,192,115613,128,8,115688:0:0:0:0:
320,192,115688,128,0,115764:0:0:0:0:
64,192,115764,1,2,0:0:0:0:
448,192,115764,1,0,0:0:0:0:
192,192,115840,128,2,115916:0:0:0:0:
64,192,115916,1,8,0:0:0:0:
320,192,115916,128,4,115991:0:0:0:0:
448,192,115916,1,0,0:0:0:0:
64,192,116067,128,2,116143:0:0:0:0:
192,192,116067,128,0,116143:0:0:0:0:
320,192,116143,1,2,0:0:0:0:
64,192,116218,128,2,116521:0:0:0:0:
192,192,116218,128,4,116521:0:0:0:0:
448,192,116218,128,0,116521:0:0:0:0:
320,192,116521,128,8,116597:0:0:0:0:
448,192,116597,128,0,116672:0:0:0:0:
192,192,116672,128,0,116748:0:0:0:0:
320,192,116748,128,0,116824:0:0:0:0:
64,192,116824,128,0,116975:0:0:0:0:
448,192,116975,128,2,117051:0:0:0:0:
64,192,117051,128,0,117126:0:0:0:0:
192,192,117126,128,8,117202:0:0:0:0:
320,192,117126,128,0,117202:0:0:0:0:
448,192,117202,128,0,117278:0:0:0:0:
64,192,117278,128,0,117353:0:0:0:0:
192,192,117353,128,0,117429:0:0:0:0:
320,192,117429,128,2,117580:0:0:0:0:
448,192,117429,128,4,117580:0:0:0:0:
64,192,117580,128,0,117656:0:0:0:0:
448,192,117656,128,0,117732:0:0:0:0:
64,192,117732,128,8,117883:0:0:0:0:
192,192,117732,128,0,117883:0:0:0:0:
448,192,117883,128,0,118034:0:0:0:0:
192,192,118034,128,0,118186:0:0:0:0:
320,192,118110,128,0,118261:0:0:0:0:
448,192,118186,128,2,118337:0:0:0:0:
64,192,118261,128,2,118413:0:0:0:0:
192,192,118337,128,8,118488:0:0:0:0:
320,192,118413,128,0,118564:0:0:0:0:
448,192,118488,128,0,118640:0:0:0:0:
64,192,118564,128,0,118640:0:0:0:0:
64,192,118842,128,2,118942:0:0:0:0:
192,192,118842,128,4,118942:0:0:0:0:
448,192,118842,128,0,119245:0:0:0:0:
64,192,119043,128,4,119144:0:0:0:0:
320,192,119043,128,2,119144:0:0:0:0:
64,192,119245,128,4,119851:0:0:0:0:
192,192,119245,128,2,119346:0:0:0:0:
320,192,119245,128,0,119346:0:0:0:0:
320,192,119447,128,4,119548:0:0:0:0:
448,192,119447,128,2,119548:0:0:0:0:
192,192,119649,128,2,119750:0:0:0:0:
448,192,119649,128,4,119750:0:0:0:0:
320,192,119851,1,6,0:0:0:0:
448,192,119851,128,8,120683:0:0:0:0:
192,192,119951,1,8,0:0:0:0:
64,192,120052,1,8,0:0:0:0:
192,192,120153,1,4,0:0:0:0:
320,192,120153,1,0,0:0:0:70:tom01.wav
64,192,120254,1,0,0:0:0:70:tom02.wav
320,192,120355,1,0,0:0:0:0:
64,192,120456,128,8,120683:0:0:0:0:
192,192,120456,1,4,0:0:0:0:
320,192,120557,1,8,0:0:0:0:
192,192,120683,128,0,120910:0:0:0:0:
320,192,120759,1,8,0:0:0:0:
448,192,120759,1,4,0:0:0:0:
320,192,120910,128,0,121061:0:0:0:0:
64,192,121061,128,4,122272:0:0:0:0:
448,192,121061,1,0,0:0:0:0:
320,192,121213,1,0,0:0:0:0:
192,192,121364,1,0,0:0:0:0:
448,192,121515,1,0,0:0:0:0:
320,192,121667,1,0,0:0:0:0:
448,192,121667,128,0,122272:0:0:0:0:
192,192,121818,1,0,0:0:0:0:
320,192,121969,1,0,0:0:0:0:
192,192,122121,1,0,0:0:0:0:
320,192,122272,1,0,0:0:0:0:
192,192,122423,1,0,0:0:0:0:
320,192,122575,128,0,123180:0:0:0:0:
64,192,122726,1,0,0:0:0:0:
192,192,122877,128,0,123180:0:0:0:0:
448,192,123029,1,0,0:0:0:0:
64,192,123180,128,0,123786:0:0:0:0:
192,192,123332,1,0,0:0:0:0:
320,192,123483,1,0,0:0:0:0:
448,192,123483,128,0,123786:0:0:0:0:
192,192,123634,1,0,0:0:0:0:
320,192,123786,1,0,0:0:0:0:
192,192,123937,1,0,0:0:0:0:
192,192,124088,128,0,124996:0:0:0:0:
448,192,124240,1,0,0:0:0:0:
64,192,124391,1,0,0:0:0:0:
320,192,124542,1,0,0:0:0:0:
320,192,124694,128,2,124996:0:0:0:0:
448,192,124845,1,2,0:0:0:0:
64,192,124996,1,2,0:0:0:0:
448,192,125072,1,2,0:0:0:0:
192,192,125148,1,2,0:0:0:0:
320,192,125223,1,2,0:0:0:0:
448,192,125299,128,2,125602:0:0:0:0:
64,192,125375,1,2,0:0:0:0:
192,192,125450,1,2,0:0:0:0:
320,192,125526,128,2,125602:0:0:0:0:
64,192,125602,1,0,0:0:0:70:clapwet.wav
192,192,125602,1,0,0:0:0:0:
64,192,125753,128,0,125904:0:0:0:0:
192,192,125904,1,8,0:0:0:0:
320,192,125904,1,4,0:0:0:0:
448,192,125904,128,2,126358:0:0:0:0:
64,192,126207,1,8,0:0:0:0:
192,192,126207,1,4,0:0:0:0:
320,192,126358,128,0,126510:0:0:0:0:
192,192,126510,128,0,126964:0:0:0:0:
320,192,126661,1,2,0:0:0:0:
448,192,126661,1,8,0:0:0:0:
320,192,126964,1,2,0:0:0:0:
448,192,126964,1,0,0:0:0:0:
192,192,127040,1,2,0:0:0:0:
64,192,127115,128,12,127721:0:0:0:0:
448,192,127115,1,2,0:0:0:0:
192,192,127418,128,8,127721:0:0:0:0:
320,192,127418,1,4,0:0:0:0:
448,192,127721,128,0,128175:0:0:0:0:
64,192,127872,1,8,0:0:0:0:
192,192,127872,1,0,0:0:0:0:
320,192,128023,128,0,128175:0:0:0:0:
192,192,128175,1,8,0:0:0:0:
320,192,128250,1,8,0:0:0:0:
64,192,128326,1,10,0:0:0:0:
448,192,128326,1,4,0:0:0:0:
192,192,128402,1,0,0:0:0:0:
320,192,128477,1,8,0:0:0:0:
64,192,128553,1,8,0:0:0:0:
448,192,128629,1,8,0:0:0:0:
320,192,128704,1,8,0:0:0:0:
64,192,128780,1,10,0:0:0:0:
192,192,128780,1,4,0:0:0:0:
320,192,128856,1,8,0:0:0:0:
448,192,128931,1,8,0:0:0:0:
64,192,129007,1,8,0:0:0:0:
320,192,129083,1,8,0:0:0:0:
448,192,129083,1,2,0:0:0:0:
64,192,129158,1,8,0:0:0:0:
192,192,129158,1,2,0:0:0:0:
320,192,129234,1,4,0:0:0:0:
448,192,129234,1,8,0:0:0:0:
64,192,129310,1,0,0:0:0:0:
192,192,129385,1,0,0:0:0:0:
448,192,129461,1,0,0:0:0:0:
64,192,129537,128,2,129839:0:0:0:0:
192,192,129537,128,4,129839:0:0:0:0:
320,192,129537,1,0,0:0:0:0:
448,192,129839,128,0,129991:0:0:0:0:
192,192,129991,128,0,130369:0:0:0:0:
320,192,129991,128,0,130369:0:0:0:0:
64,192,130445,1,0,0:0:0:70:tom01.wav
192,192,130445,1,0,0:0:0:0:
448,192,130445,1,0,0:0:0:0:
64,192,130748,128,2,131202:0:0:0:0:
192,192,130748,1,4,0:0:0:0:
320,192,130748,1,0,0:0:0:70:clapwet.wav
320,192,131050,1,4,0:0:0:0:
448,192,131050,1,8,0:0:0:0:
448,192,131202,128,0,131958:0:0:0:0:
320,192,131353,1,0,0:0:0:0:
192,192,131429,1,0,0:0:0:0:
64,192,131504,1,2,0:0:0:0:
192,192,131580,1,0,0:0:0:0:
64,192,131656,1,8,0:0:0:0:
320,192,131656,1,0,0:0:0:0:
192,192,131731,1,0,0:0:0:0:
320,192,131807,1,0,0:0:0:0:
64,192,131883,1,0,0:0:0:0:
320,192,131958,1,0,0:0:0:0:
192,192,132034,1,0,0:0:0:0:
64,192,132110,1,2,0:0:0:0:
448,192,132110,1,0,0:0:0:0:
320,192,132185,1,0,0:0:0:0:
64,192,132261,128,8,132564:0:0:0:0:
192,192,132261,1,0,0:0:0:0:
448,192,132412,1,0,0:0:0:0:
320,192,132488,1,0,0:0:0:0:
192,192,132564,128,0,132866:0:0:0:0:
320,192,132715,1,2,0:0:0:0:
448,192,132715,1,0,0:0:0:0:
64,192,132866,1,8,0:0:0:0:
320,192,132866,128,0,133169:0:0:0:0:
448,192,133018,1,0,0:0:0:0:
64,192,133169,128,2,134380:0:0:0:0:
192,192,133169,1,4,0:0:0:0:
448,192,133169,1,0,0:0:0:0:
320,192,133245,1,0,0:0:0:0:
192,192,133320,1,0,0:0:0:0:
448,192,133396,1,0,0:0:0:0:
192,192,133472,1,8,0:0:0:0:
320,192,133472,1,0,0:0:0:0:
448,192,133547,1,0,0:0:0:0:
192,192,133623,1,0,0:0:0:0:
320,192,133699,1,0,0:0:0:0:
448,192,133774,1,0,0:0:0:0:
192,192,133850,1,0,0:0:0:0:
448,192,133926,1,2,0:0:0:0:
320,192,134001,1,0,0:0:0:0:
192,192,134077,1,8,0:0:0:0:
448,192,134077,1,0,0:0:0:0:
320,192,134153,1,0,0:0:0:0:
192,192,134229,1,0,0:0:0:0:
320,192,134304,1,0,0:0:0:0:
448,192,134380,128,0,134683:0:0:0:0:
64,192,134481,128,0,134582:0:0:0:0:
192,192,134582,128,0,134683:0:0:0:0:
64,192,134683,128,8,134783:0:0:0:0:
320,192,134683,128,0,134985:0:0:0:0:
448,192,134783,128,0,134884:0:0:0:0:
64,192,134884,128,0,134985:0:0:0:0:
192,192,134985,128,0,135288:0:0:0:0:
448,192,134985,128,0,135086:0:0:0:0:
320,192,135086,128,0,135187:0:0:0:0:
64,192,135187,128,0,135288:0:0:0:0:
320,192,135288,128,8,135591:0:0:0:0:
448,192,135288,128,4,135389:0:0:0:0:
64,192,135389,128,0,135490:0:0:0:0:
192,192,135490,128,0,135591:0:0:0:0:
64,192,135591,1,4,0:0:0:0:
448,192,135591,128,2,137104:0:0:0:0:
320,192,135742,1,0,0:0:0:0:
192,192,135818,1,0,0:0:0:0:
64,192,135893,1,8,0:0:0:0:
320,192,135893,1,0,0:0:0:0:
192,192,135969,1,0,0:0:0:0:
320,192,136045,1,0,0:0:0:0:
64,192,136120,1,0,0:0:0:0:
192,192,136196,1,0,0:0:0:0:
64,192,136272,1,0,0:0:0:0:
320,192,136347,1,2,0:0:0:0:
192,192,136423,1,0,0:0:0:0:
64,192,136499,128,8,136574:0:0:0:0:
320,192,136499,1,0,0:0:0:0:
192,192,136574,128,0,136650:0:0:0:0:
320,192,136650,128,0,136726:0:0:0:0:
64,192,136726,128,0,136801:0:0:0:0:
320,192,136801,128,0,136877:0:0:0:0:
192,192,136877,128,0,136953:0:0:0:0:
64,192,136953,128,2,137028:0:0:0:0:
320,192,137028,128,0,137104:0:0:0:0:
64,192,137104,1,8,0:0:0:0:
192,192,137104,1,0,0:0:0:0:
320,192,137180,1,8,0:0:0:0:
448,192,137180,1,0,0:0:0:0:
192,192,137255,1,0,0:0:0:0:
320,192,137331,1,0,0:0:0:0:
64,192,137407,1,0,0:0:0:70:tom01.wav
448,192,137482,1,0,0:0:0:70:tom02.wav
64,192,137558,1,2,0:0:0:0:
192,192,137634,1,0,0:0:0:0:
320,192,137709,1,8,0:0:0:0:
448,192,137709,128,4,138012:0:0:0:0:
64,192,137785,1,0,0:0:0:0:
192,192,137861,1,0,0:0:0:0:
320,192,137937,1,0,0:0:0:0:
64,192,138012,128,2,138391:0:0:0:0:
192,192,138012,128,4,138164:0:0:0:0:
320,192,138088,128,0,138239:0:0:0:0:
448,192,138164,128,0,138315:0:0:0:0:
192,192,138239,128,0,138391:0:0:0:0:
320,192,138315,128,0,138391:0:0:0:0:
64,192,138466,128,2,138542:0:0:0:0:
320,192,138466,128,4,138618:0:0:0:0:
448,192,138466,128,0,138845:0:0:0:0:
192,192,138542,128,0,138693:0:0:0:0:
64,192,138618,128,0,138769:0:0:0:0:
320,192,138693,128,0,138845:0:0:0:0:
192,192,138769,128,0,138845:0:0:0:0:
64,192,138920,128,4,139072:0:0:0:0:
192,192,138920,128,2,139299:0:0:0:0:
448,192,138920,128,0,138996:0:0:0:0:
320,192,138996,128,0,139147:0:0:0:0:
448,192,139072,128,0,139223:0:0:0:0:
64,192,139147,128,0,139299:0:0:0:0:
320,192,139223,128,0,139299:0:0:0:0:
64,192,139374,128,2,139450:0:0:0:0:
320,192,139374,128,4,139753:0:0:0:0:
448,192,139374,128,0,139526:0:0:0:0:
192,192,139450,128,0,139601:0:0:0:0:
64,192,139526,128,0,139677:0:0:0:0:
448,192,139601,128,0,139753:0:0:0:0:
192,192,139677,128,0,139753:0:0:0:0:
64,192,139828,128,4,140358:0:0:0:0:
192,192,139828,128,2,140055:0:0:0:0:
448,192,139828,128,0,139904:0:0:0:0:
320,192,139904,128,0,140055:0:0:0:0:
448,192,139980,128,0,140055:0:0:0:0:
192,192,140131,128,2,140207:0:0:0:0:
448,192,140131,128,4,140358:0:0:0:0:
320,192,140207,128,0,140358:0:0:0:0:
192,192,140282,128,0,140358:0:0:0:0:
64,192,140434,1,2,0:0:0:0:
192,192,140434,1,4,0:0:0:0:
448,192,140434,1,0,0:0:0:0:
64,192,140585,128,8,140736:0:0:0:0:
320,192,140585,1,0,0:0:0:0:
192,192,140661,128,8,140736:0:0:0:0:
320,192,140736,1,8,0:0:0:0:
448,192,140736,1,0,0:0:0:0:
64,192,140888,1,2,0:0:0:0:
448,192,140888,1,4,0:0:0:0:
320,192,141039,128,8,141190:0:0:0:0:
448,192,141039,1,0,0:0:0:0:
192,192,141115,128,8,141190:0:0:0:0:
64,192,141190,1,8,0:0:0:0:
448,192,141190,1,0,0:0:0:0:
64,192,141342,1,2,0:0:0:0:
192,192,141342,1,4,0:0:0:0:
64,192,141493,1,8,0:0:0:0:
320,192,141493,128,0,141645:0:0:0:0:
448,192,141569,128,8,141645:0:0:0:0:
64,192,141645,1,8,0:0:0:0:
192,192,141645,1,0,0:0:0:0:
320,192,141796,1,2,0:0:0:0:
448,192,141796,1,4,0:0:0:0:
320,192,141947,128,8,142099:0:0:0:0:
448,192,141947,1,0,0:0:0:0:
192,192,142023,128,8,142099:0:0:0:0:
64,192,142099,1,8,0:0:0:0:
448,192,142099,1,0,0:0:0:0:
64,192,142250,128,2,142326:0:0:0:0:
448,192,142250,128,4,142326:0:0:0:0:
64,192,142401,128,8,142477:0:0:0:0:
192,192,142401,128,0,142477:0:0:0:0:
320,192,142477,128,8,142553:0:0:0:0:
448,192,142477,128,0,142553:0:0:0:0:
64,192,142553,128,8,142628:0:0:0:0:
192,192,142553,128,0,142628:0:0:0:0:
192,192,142704,128,2,142780:0:0:0:0:
320,192,142704,128,4,142780:0:0:0:0:
320,192,142855,128,8,142931:0:0:0:0:
448,192,142855,128,0,142931:0:0:0:70:tom01.wav
64,192,142931,128,8,143007:0:0:0:0:
192,192,142931,128,0,143007:0:0:0:70:tom02.wav
320,192,143007,128,8,143082:0:0:0:0:
448,192,143007,128,0,143082:0:0:0:70:tom03.wav
64,192,143158,128,2,143234:0:0:0:0:
192,192,143158,128,4,143234:0:0:0:0:
192,192,143309,128,8,143385:0:0:0:0:
320,192,143309,128,0,143385:0:0:0:0:
64,192,143385,128,0,143461:0:0:0:0:
448,192,143385,128,0,143461:0:0:0:0:
192,192,143461,128,8,143536:0:0:0:0:
320,192,143461,128,0,143536:0:0:0:0:
320,192,143612,128,2,143688:0:0:0:0:
448,192,143612,128,4,143688:0:0:0:0:
64,192,143763,128,8,143839:0:0:0:0:
448,192,143763,128,0,143839:0:0:0:0:
192,192,143839,128,0,143915:0:0:0:0:
320,192,143839,128,0,143915:0:0:0:0:
64,192,143915,128,8,143990:0:0:0:0:
448,192,143915,128,0,143990:0:0:0:0:
64,192,144066,128,2,144142:0:0:0:0:
192,192,144066,128,4,144142:0:0:0:0:
448,192,144217,128,0,144369:0:0:0:0:
192,192,144293,1,2,0:0:0:0:
320,192,144293,128,4,144369:0:0:0:0:
64,192,144369,128,0,144520:0:0:0:0:
192,192,144444,128,0,144520:0:0:0:0:
320,192,144520,128,2,144671:0:0:0:0:
448,192,144520,1,4,0:0:0:0:
192,192,144596,128,0,144671:0:0:0:0:
448,192,144671,128,0,144823:0:0:0:0:
64,192,144747,128,2,144823:0:0:0:0:
192,192,144747,1,4,0:0:0:0:
320,192,144823,128,0,144974:0:0:0:0:
192,192,144898,128,0,144974:0:0:0:0:
64,192,144974,128,2,145201:0:0:0:0:
448,192,144974,128,4,145050:0:0:0:0:
320,192,145050,128,0,145125:0:0:0:0:
192,192,145125,128,0,145201:0:0:0:0:
320,192,145201,128,4,145277:0:0:0:0:
448,192,145201,128,2,145428:0:0:0:0:
192,192,145277,128,0,145353:0:0:0:0:
64,192,145353,128,0,145428:0:0:0:0:
192,192,145428,128,2,145504:0:0:0:0:
320,192,145428,128,4,145655:0:0:0:0:
64,192,145504,128,0,145580:0:0:0:0:
448,192,145580,128,0,145655:0:0:0:0:
64,192,145655,128,2,145731:0:0:0:0:
192,192,145655,128,4,145882:0:0:0:0:
448,192,145731,128,0,145807:0:0:0:0:
320,192,145807,128,0,145882:0:0:0:0:
64,192,145882,128,2,146109:0:0:0:0:
448,192,145882,128,4,145958:0:0:0:0:
192,192,145958,128,0,146034:0:0:0:0:
320,192,146034,128,0,146109:0:0:0:0:
192,192,146109,128,2,146336:0:0:0:0:
448,192,146109,128,4,146185:0:0:0:0:
320,192,146185,128,0,146261:0:0:0:0:
64,192,146261,128,0,146336:0:0:0:0:
320,192,146336,128,2,146488:0:0:0:0:
448,192,146336,128,4,146412:0:0:0:0:
192,192,146412,128,0,146488:0:0:0:0:
64,192,146488,1,10,0:0:0:0:
448,192,146488,1,4,0:0:0:0:
192,192,146563,1,8,0:0:0:0:
320,192,146639,1,8,0:0:0:0:
448,192,146639,1,0,0:0:0:0:
64,192,146715,1,8,0:0:0:0:
192,192,146790,1,8,0:0:0:0:
320,192,146790,1,0,0:0:0:0:
448,192,146866,1,8,0:0:0:0:
64,192,146942,1,10,0:0:0:0:
192,192,146942,1,4,0:0:0:0:
320,192,147017,1,8,0:0:0:0:
64,192,147093,1,8,0:0:0:0:
448,192,147093,1,0,0:0:0:0:
192,192,147169,1,8,0:0:0:0:
320,192,147244,1,8,0:0:0:0:
448,192,147244,1,0,0:0:0:0:
64,192,147320,1,8,0:0:0:0:
192,192,147396,1,10,0:0:0:0:
320,192,147396,1,4,0:0:0:0:
448,192,147471,1,8,0:0:0:0:
64,192,147547,1,8,0:0:0:0:
192,192,147547,1,0,0:0:0:0:
320,192,147623,1,8,0:0:0:0:
64,192,147698,1,6,0:0:0:0:
448,192,147698,1,8,0:0:0:0:
320,192,147774,1,8,0:0:0:0:
64,192,147850,1,8,0:0:0:0:
192,192,147850,1,0,0:0:0:0:
448,192,147925,1,8,0:0:0:0:
192,192,148001,1,10,0:0:0:0:
320,192,148001,1,4,0:0:0:0:
64,192,148077,1,8,0:0:0:0:
320,192,148152,1,8,0:0:0:0:
448,192,148152,1,0,0:0:0:0:
192,192,148228,1,8,0:0:0:0:
448,192,148304,1,14,0:0:0:0:
320,192,148354,1,8,0:0:0:0:
64,192,148405,1,8,0:0:0:0:
192,192,148455,1,8,0:0:0:0:
448,192,148506,1,8,0:0:0:0:
320,192,148556,1,8,0:0:0:0:
64,192,148606,1,14,0:0:0:0:
192,192,148657,1,8,0:0:0:0:
448,192,148707,1,8,0:0:0:0:
320,192,148758,1,8,0:0:0:0:
64,192,148808,1,8,0:0:0:0:
192,192,148859,1,8,0:0:0:0:
320,192,148909,128,6,151028:0:0:0:0:
448,192,148909,1,8,0:0:0:0:
192,192,149363,1,0,0:0:0:0:
192,192,149515,128,0,151633:0:0:0:70:tick02_edit.wav
64,192,149969,1,0,0:0:0:0:
64,192,150120,128,0,152844:0:0:0:70:tick01.wav
448,192,150574,1,0,0:0:0:0:
448,192,150725,128,0,152239:0:0:0:70:tick02_edit.wav
320,192,151179,1,0,0:0:0:0:
320,192,151331,128,0,153752:0:0:0:70:tick01.wav
192,192,151785,1,0,0:0:0:0:
192,192,151936,128,0,153752:0:0:0:70:tick02_edit.wav
448,192,152390,1,0,0:0:0:0:
448,192,152541,128,0,153298:0:0:0:70:tick01.wav
64,192,152996,1,0,0:0:0:0:
64,192,153147,128,0,153752:0:0:0:70:tick02_edit.wav
448,192,153450,1,0,0:0:0:0:
448,192,153601,128,0,153752:0:0:0:0:
