osu file format v14

[General]
AudioFilename: audio.ogg
AudioLeadIn: 0
PreviewTime: 65063
Countdown: 0
SampleSet: Soft
StackLeniency: 0.7
Mode: 3
LetterboxInBreaks: 0
SpecialStyle: 0
WidescreenStoryboard: 1

[Editor]
DistanceSpacing: 2
BeatDivisor: 4
GridSize: 32
TimelineZoom: 1.8

[Metadata]
Title:MarbleBlue.
TitleUnicode:MarbleBlue.
Artist:MisoilePunch
ArtistUnicode:MisoilePunch♪
Creator:Murumoo
Version:DenYi's BASIC
Source:オンゲキ bright MEMORY
Tags:Maxus DixonBlackwing DenYi Lami- secXcscX FAMoss video game electronic instrumental ongeki 日向 千夏 CHINATSU HINATA Summer Memory みそみぃる ポン恥♪ Misomyl Ponchi Ponchi♪ Marble Blue Chiptune Piano
BeatmapID:3550408
BeatmapSetID:1737067

[Difficulty]
HPDrainRate:6.5
CircleSize:4
OverallDifficulty:6.5
ApproachRate:5
SliderMultiplier:1.4
SliderTickRate:1

[Events]
//Background and Video events
0,0,"bg.png",0,0
//Break Periods
//Storyboard Layer 0 (Background)
//Storyboard Layer 1 (Fail)
//Storyboard Layer 2 (Pass)
//Storyboard Layer 3 (Foreground)
//Storyboard Layer 4 (Overlay)
//Storyboard Sound Samples
Sample,52879,0,"tom01.wav",70
Sample,53107,0,"tom02.wav",70
Sample,75052,0,"tick01.wav",70
Sample,78684,0,"tick01.wav",70
Sample,79290,0,"tick02_edit.wav",70

[TimingPoints]
1195,302.69397638987,4,2,1,40,1,0
9670,-100,4,2,1,50,0,0
19659,-100,4,2,1,40,0,0
30253,-100,4,2,1,50,0,0
65063,-100,4,2,1,20,0,0
75052,-100,4,2,1,40,0,0
78684,-100,4,2,1,10,0,0
79290,-100,4,2,1,20,0,0
79592,-100,4,2,1,30,0,0
79895,-100,4,2,1,20,0,0
83527,-100,4,2,1,40,0,0
84738,-100,4,2,1,50,0,0
121061,-100,4,2,1,40,0,0
124694,-100,4,2,1,10,0,0
124845,-100,4,2,1,20,0,0
124996,-100,4,2,1,30,0,0
125299,-100,4,2,1,40,0,0
125904,-100,4,2,1,50,0,0
149061,-100,4,2,1,40,0,0

[HitObjects]
192,192,1195,5,0,0:0:0:0:
192,192,1497,1,0,0:0:0:0:
320,192,1800,1,0,0:0:0:0:
320,192,2103,1,0,0:0:0:0:
64,192,2405,128,4,3616:0:0:0:0:
448,192,2405,1,0,0:0:0:70:tick01.wav
320,192,3616,1,0,0:0:0:70:tick01.wav
192,192,4221,1,0,0:0:0:70:tick02_edit.wav
64,192,4827,1,0,0:0:0:70:tick01.wav
448,192,4827,128,0,6038:0:0:0:0:
64,192,6038,1,0,0:0:0:70:tick01.wav
64,192,6340,1,0,0:0:0:0:
320,192,6643,1,0,0:0:0:70:tick02_edit.wav
320,192,6946,1,0,0:0:0:0:
192,192,7248,128,0,8459:0:0:0:70:tick01.wav
448,192,7248,1,0,0:0:0:0:
448,192,8459,1,0,0:0:0:70:tick01.wav
320,192,9065,1,0,0:0:0:70:tick02_edit.wav
64,192,9670,1,12,0:0:0:0:
192,192,9670,128,2,10729:0:0:0:0:
320,192,10729,1,8,0:0:0:0:
448,192,10729,128,2,11183:0:0:0:0:
64,192,11183,128,0,11486:0:0:0:0:
192,192,11486,128,8,11789:0:0:0:0:
320,192,11789,128,12,12091:0:0:0:0:
64,192,12091,1,6,0:0:0:0:
448,192,12091,1,8,0:0:0:0:
448,192,12546,1,14,0:0:0:0:
320,192,13302,1,14,0:0:0:0:
320,192,13756,1,14,0:0:0:0:
448,192,14210,1,14,0:0:0:0:
64,192,14513,1,14,0:0:0:0:
64,192,14967,1,14,0:0:0:0:
192,192,15421,1,14,0:0:0:0:
448,192,15724,128,8,16027:0:0:0:0:
64,192,16027,128,12,16329:0:0:0:0:
320,192,16329,128,14,16632:0:0:0:0:
192,192,16632,128,12,16935:0:0:0:0:
64,192,16935,1,8,0:0:0:0:
448,192,16935,1,4,0:0:0:0:
320,192,17389,1,12,0:0:0:0:
192,192,17843,1,12,0:0:0:0:
448,192,18145,1,12,0:0:0:0:
64,192,18448,1,12,0:0:0:0:
320,192,18751,128,14,19356:0:0:0:0:
64,192,19356,1,8,0:0:0:0:
448,192,19356,1,4,0:0:0:0:
192,192,20567,1,0,0:0:0:70:tick02_edit.wav
320,192,21172,1,0,0:0:0:70:tick01.wav
192,192,21475,1,0,0:0:0:0:
64,192,21778,128,2,22686:0:0:0:0:
320,192,22686,1,0,0:0:0:0:
320,192,22837,128,0,23594:0:0:0:0:
64,192,23594,1,0,0:0:0:0:
448,192,23796,1,0,0:0:0:0:
320,192,23997,1,0,0:0:0:0:
192,192,24199,128,0,25107:0:0:0:0:
448,192,25259,128,0,26015:0:0:0:0:
64,192,26015,1,0,0:0:0:0:
320,192,26318,1,0,0:0:0:0:
320,192,26621,128,0,27529:0:0:0:0:
192,192,27529,1,0,0:0:0:0:
64,192,27680,128,0,28134:0:0:0:0:
448,192,28134,1,0,0:0:0:0:
64,192,28437,1,0,0:0:0:0:
192,192,28740,1,0,0:0:0:0:
448,192,29042,128,0,29496:0:0:0:0:
320,192,29496,1,0,0:0:0:0:
64,192,29648,128,0,30253:0:0:0:0:
448,192,30253,128,14,30859:0:0:0:0:
192,192,30859,128,12,31161:0:0:0:0:
320,192,31161,128,12,31464:0:0:0:0:
64,192,31464,128,2,31767:0:0:0:0:
448,192,31464,1,4,0:0:0:0:
320,192,31767,1,8,0:0:0:0:
192,192,31918,1,6,0:0:0:0:
64,192,32221,1,8,0:0:0:0:
448,192,32372,1,6,0:0:0:0:
192,192,32675,1,8,0:0:0:0:
320,192,32826,1,6,0:0:0:0:
64,192,33129,1,8,0:0:0:0:
192,192,33280,1,8,0:0:0:0:
448,192,33431,1,6,0:0:0:0:
64,192,33583,128,8,33885:0:0:0:0:
448,192,33885,128,6,34188:0:0:0:0:
192,192,34188,1,8,0:0:0:0:
320,192,34339,1,6,0:0:0:0:
448,192,34642,1,8,0:0:0:0:
64,192,34794,1,6,0:0:0:0:
320,192,35096,1,8,0:0:0:0:
192,192,35248,1,6,0:0:0:0:
448,192,35550,1,8,0:0:0:0:
64,192,35702,128,14,36307:0:0:0:0:
448,192,36307,1,6,0:0:0:0:
320,192,36610,1,8,0:0:0:0:
192,192,36912,1,8,0:0:0:0:
64,192,37215,1,8,0:0:0:0:
192,192,37518,1,14,0:0:0:0:
448,192,37820,1,8,0:0:0:0:
320,192,38123,1,12,0:0:0:0:
64,192,38426,1,10,0:0:0:0:
192,192,38577,1,8,0:0:0:0:
448,192,38729,128,14,39183:0:0:0:0:
192,192,39183,128,6,39485:0:0:0:0:
320,192,39485,128,6,39788:0:0:0:0:
64,192,39788,128,6,40393:0:0:0:0:
448,192,40545,1,0,0:0:0:0:
320,192,40847,1,0,0:0:0:0:
64,192,41150,1,6,0:0:0:0:
192,192,41150,128,0,41755:0:0:0:70:clapwet.wav
448,192,41755,1,8,0:0:0:0:
64,192,42058,1,0,0:0:0:0:
320,192,42210,1,2,0:0:0:0:
448,192,42210,128,4,42966:0:0:0:0:
64,192,42966,1,8,0:0:0:0:
192,192,43118,1,0,0:0:0:0:
320,192,43420,128,2,44177:0:0:0:0:
448,192,43420,1,4,0:0:0:0:
64,192,44177,1,8,0:0:0:0:
448,192,44328,1,2,0:0:0:0:
320,192,44480,1,0,0:0:0:0:
64,192,44631,1,2,0:0:0:0:
192,192,44631,128,4,45388:0:0:0:0:
448,192,45388,1,12,0:0:0:0:
320,192,45539,1,0,0:0:0:0:
64,192,45691,128,12,45993:0:0:0:0:
192,192,45993,1,4,0:0:0:0:
448,192,45993,1,2,0:0:0:0:
320,192,46296,1,0,0:0:0:0:
192,192,46599,1,8,0:0:0:0:
448,192,46750,1,0,0:0:0:0:
64,192,47053,128,2,47809:0:0:0:0:
320,192,47053,1,4,0:0:0:0:
448,192,47809,1,8,0:0:0:0:
320,192,48036,1,0,0:0:0:0:
192,192,48263,1,8,0:0:0:0:
448,192,48415,128,6,48869:0:0:0:0:
64,192,48869,1,2,0:0:0:0:
192,192,48869,1,0,0:0:0:0:
320,192,49171,1,2,0:0:0:0:
448,192,49171,1,0,0:0:0:0:
64,192,49474,1,2,0:0:0:0:
192,192,49474,1,0,0:0:0:0:
320,192,49777,128,8,50231:0:0:0:0:
192,192,50231,128,12,50836:0:0:0:0:
448,192,50836,1,14,0:0:0:0:
448,192,50988,1,14,0:0:0:0:
64,192,51139,1,14,0:0:0:0:
64,192,51290,1,14,0:0:0:0:
64,192,52652,1,14,0:0:0:0:
320,192,52879,1,4,0:0:0:0:
448,192,53107,1,4,0:0:0:0:
192,192,53258,1,14,0:0:0:0:
192,192,53409,1,14,0:0:0:0:
320,192,53561,1,14,0:0:0:0:
320,192,53712,1,14,0:0:0:0:
64,192,54015,1,8,0:0:0:0:
192,192,54166,1,2,0:0:0:0:
448,192,54317,1,2,0:0:0:0:
320,192,54469,128,6,55074:0:0:0:0:
192,192,55074,128,14,55679:0:0:0:0:
448,192,55679,128,6,55982:0:0:0:0:
192,192,55982,1,8,0:0:0:0:
64,192,56133,128,6,56436:0:0:0:0:
448,192,56436,1,8,0:0:0:0:
320,192,56587,128,6,56890:0:0:0:0:
64,192,56890,1,8,0:0:0:0:
192,192,57042,128,6,57344:0:0:0:0:
320,192,57344,1,8,0:0:0:0:
448,192,57496,128,6,57950:0:0:0:0:
320,192,57950,128,6,58404:0:0:0:0:
192,192,58404,128,6,58858:0:0:0:0:
64,192,58858,128,6,59312:0:0:0:0:
320,192,59312,1,6,0:0:0:0:
192,192,59539,1,6,0:0:0:0:
320,192,59766,1,6,0:0:0:0:
64,192,59993,1,6,0:0:0:0:
448,192,60220,1,6,0:0:0:0:
64,192,60447,1,6,0:0:0:0:
320,192,60674,1,6,0:0:0:0:
192,192,60901,1,6,0:0:0:0:
320,192,61128,1,6,0:0:0:0:
64,192,61355,1,6,0:0:0:0:
448,192,61582,1,6,0:0:0:0:
192,192,61733,128,10,62944:0:0:0:0:
64,192,62944,1,10,0:0:0:0:
448,192,62944,1,4,0:0:0:0:
192,192,65063,1,0,0:0:0:0:
320,192,65366,1,0,0:0:0:0:
64,192,65820,1,0,0:0:0:0:
448,192,65971,1,0,0:0:0:0:
320,192,66425,1,0,0:0:0:0:
192,192,66576,1,0,0:0:0:0:
448,192,67030,1,0,0:0:0:0:
64,192,67182,1,0,0:0:0:0:
192,192,67636,1,0,0:0:0:0:
320,192,67787,1,0,0:0:0:0:
64,192,68241,1,0,0:0:0:0:
448,192,68393,1,0,0:0:0:0:
448,192,68847,1,0,0:0:0:0:
64,192,68998,1,0,0:0:0:0:
320,192,69603,1,0,0:0:0:0:
192,192,69906,1,0,0:0:0:0:
64,192,70209,1,0,0:0:0:0:
448,192,70663,1,0,0:0:0:0:
192,192,70814,1,0,0:0:0:0:
64,192,71268,1,0,0:0:0:0:
320,192,71420,1,0,0:0:0:0:
192,192,71874,1,0,0:0:0:0:
448,192,72025,1,0,0:0:0:0:
320,192,72479,1,0,0:0:0:0:
64,192,72630,1,0,0:0:0:0:
192,192,73084,1,0,0:0:0:0:
320,192,73236,1,0,0:0:0:0:
320,192,73690,1,0,0:0:0:0:
192,192,73841,1,0,0:0:0:0:
64,192,74446,1,0,0:0:0:0:
192,192,74749,1,0,0:0:0:0:
448,192,75052,1,4,0:0:0:0:
64,192,75809,1,0,0:0:0:0:
320,192,75960,1,0,0:0:0:0:
448,192,76111,1,0,0:0:0:0:
192,192,76263,1,0,0:0:0:70:tick01.wav
320,192,76868,1,0,0:0:0:70:tick02_edit.wav
64,192,77473,1,0,0:0:0:70:tick01.wav
192,192,78230,1,0,0:0:0:0:
448,192,78533,1,0,0:0:0:0:
64,192,78684,1,2,0:0:0:0:
320,192,79290,1,2,0:0:0:0:
192,192,79491,1,0,0:0:0:0:
448,192,79693,1,0,0:0:0:0:
64,192,79895,1,0,0:0:0:0:
192,192,80500,1,0,0:0:0:0:
320,192,81106,1,0,0:0:0:0:
448,192,82014,1,0,0:0:0:0:
448,192,82316,128,0,83830:0:0:0:0:
320,192,83830,1,0,0:0:0:0:
64,192,84133,1,0,0:0:0:0:
192,192,84284,1,0,0:0:0:0:
448,192,84435,1,0,0:0:0:0:
320,192,84587,1,0,0:0:0:0:
64,192,84738,128,12,85343:0:0:0:0:
192,192,84738,1,2,0:0:0:0:
448,192,85343,128,12,85949:0:0:0:0:
192,192,85949,128,14,86554:0:0:0:0:
448,192,86554,1,14,0:0:0:0:
320,192,86756,1,14,0:0:0:0:
192,192,86958,1,14,0:0:0:0:
64,192,87160,128,0,87462:0:0:0:0:
320,192,87462,1,12,0:0:0:0:
448,192,87462,1,0,0:0:0:70:clapwet.wav
192,192,87614,1,0,0:0:0:0:
192,192,87765,128,0,88219:0:0:0:0:
448,192,88219,1,0,0:0:0:0:
448,192,88370,128,2,88824:0:0:0:0:
64,192,88824,1,0,0:0:0:0:
320,192,88976,1,0,0:0:0:0:
192,192,89203,1,0,0:0:0:0:
320,192,89430,1,0,0:0:0:0:
64,192,89581,128,2,89884:0:0:0:0:
448,192,89884,1,8,0:0:0:0:
320,192,90035,128,0,90338:0:0:0:0:
192,192,90338,1,2,0:0:0:0:
192,192,90641,128,6,91700:0:0:0:0:
64,192,91700,1,8,0:0:0:0:
448,192,91700,1,0,0:0:0:0:
320,192,92003,128,6,92305:0:0:0:0:
64,192,92305,1,8,0:0:0:0:
192,192,92457,1,0,0:0:0:0:
448,192,92608,1,0,0:0:0:0:
320,192,92835,1,0,0:0:0:0:
64,192,93062,1,0,0:0:0:0:
448,192,93213,1,0,0:0:0:0:
192,192,93365,128,2,93819:0:0:0:0:
448,192,93819,1,0,0:0:0:0:
320,192,94046,1,2,0:0:0:0:
192,192,94273,1,0,0:0:0:0:
64,192,94424,128,6,94727:0:0:0:0:
320,192,94727,1,8,0:0:0:0:
448,192,94878,128,14,95181:0:0:0:0:
64,192,95181,1,0,0:0:0:70:tom03.wav
192,192,95332,128,6,95635:0:0:0:0:
448,192,95635,1,0,0:0:0:0:
320,192,95786,128,6,96089:0:0:0:0:
192,192,96089,1,8,0:0:0:0:
64,192,96240,1,12,0:0:0:0:
448,192,96240,1,2,0:0:0:0:
192,192,96543,1,2,0:0:0:0:
320,192,96543,1,4,0:0:0:0:
64,192,96846,128,2,98057:0:0:0:0:
448,192,96846,1,4,0:0:0:0:
448,192,98057,1,2,0:0:0:0:
192,192,98359,128,8,98662:0:0:0:0:
448,192,98662,1,0,0:0:0:0:
320,192,98889,1,0,0:0:0:0:
192,192,99116,1,0,0:0:0:0:
64,192,99267,1,6,0:0:0:0:
448,192,99570,128,8,99873:0:0:0:0:
192,192,99873,128,0,100175:0:0:0:0:
320,192,100175,128,8,100478:0:0:0:0:
64,192,100478,128,0,100781:0:0:0:0:
448,192,100781,128,8,101084:0:0:0:0:
64,192,101084,1,0,0:0:0:70:tom01.wav
192,192,101311,1,2,0:0:0:0:
320,192,101538,1,2,0:0:0:0:
64,192,101689,1,8,0:0:0:0:
192,192,101689,1,4,0:0:0:0:
320,192,101992,1,8,0:0:0:0:
448,192,101992,1,0,0:0:0:0:
64,192,102294,1,8,0:0:0:0:
192,192,102294,1,0,0:0:0:0:
320,192,102597,1,8,0:0:0:0:
448,192,102597,1,0,0:0:0:0:
64,192,102900,1,8,0:0:0:0:
192,192,102900,1,4,0:0:0:0:
448,192,103051,128,8,103505:0:0:0:0:
192,192,103505,1,12,0:0:0:0:
320,192,103732,1,6,0:0:0:0:
192,192,103959,1,14,0:0:0:0:
64,192,104110,128,6,105321:0:0:0:0:
448,192,105321,128,6,105624:0:0:0:0:
192,192,105624,128,0,105927:0:0:0:0:
320,192,105927,128,12,106229:0:0:0:0:
64,192,106229,128,8,106532:0:0:0:0:
448,192,106532,128,14,106835:0:0:0:0:
320,192,106835,1,0,0:0:0:0:
64,192,106986,128,6,107289:0:0:0:0:
192,192,107289,1,0,0:0:0:0:
320,192,107440,128,6,107743:0:0:0:0:
448,192,107743,1,0,0:0:0:0:
192,192,107894,128,6,108197:0:0:0:0:
64,192,108197,1,0,0:0:0:0:
320,192,108348,1,6,0:0:0:0:
192,192,108500,1,8,0:0:0:0:
448,192,108651,128,8,108954:0:0:0:0:
64,192,108954,1,6,0:0:0:0:
192,192,109105,1,2,0:0:0:0:
320,192,109256,1,12,0:0:0:0:
448,192,109559,1,12,0:0:0:0:
320,192,109710,1,0,0:0:0:70:tom01.wav
64,192,109862,1,0,0:0:0:70:tom02.wav
192,192,110013,1,12,0:0:0:0:
448,192,110316,128,2,110770:0:0:0:0:
64,192,110770,1,4,0:0:0:0:
192,192,110770,1,0,0:0:0:70:tom01.wav
320,192,110997,1,4,0:0:0:0:
448,192,110997,1,0,0:0:0:70:tom02.wav
64,192,111224,1,4,0:0:0:0:
192,192,111224,1,0,0:0:0:70:tom01.wav
448,192,111526,1,2,0:0:0:0:
192,192,111678,1,12,0:0:0:0:
320,192,111678,128,0,112586:0:0:0:70:clapwet.wav
64,192,112586,128,2,112889:0:0:0:0:
192,192,112889,128,8,113191:0:0:0:0:
320,192,113191,128,0,113494:0:0:0:0:
448,192,113494,128,8,113797:0:0:0:0:
64,192,113797,1,6,0:0:0:0:
448,192,114099,1,8,0:0:0:0:
192,192,114402,1,0,0:0:0:0:
320,192,114705,1,8,0:0:0:0:
64,192,115007,1,6,0:0:0:0:
448,192,115234,1,8,0:0:0:0:
192,192,115461,1,2,0:0:0:0:
448,192,115688,1,0,0:0:0:0:
320,192,115916,1,12,0:0:0:0:
64,192,116067,1,2,0:0:0:0:
448,192,116218,128,6,117429:0:0:0:0:
64,192,117429,128,6,117732:0:0:0:0:
320,192,117732,128,8,118034:0:0:0:0:
64,192,118034,1,0,0:0:0:0:
192,192,118186,1,2,0:0:0:0:
448,192,118337,1,8,0:0:0:0:
320,192,118488,1,0,0:0:0:0:
448,192,118842,1,6,0:0:0:0:
192,192,119043,1,6,0:0:0:0:
448,192,119245,1,6,0:0:0:0:
64,192,119447,1,6,0:0:0:0:
320,192,119649,1,6,0:0:0:0:
64,192,119851,128,6,121061:0:0:0:0:
192,192,119851,1,8,0:0:0:0:
320,192,121061,1,4,0:0:0:0:
448,192,121515,1,0,0:0:0:0:
64,192,121667,1,0,0:0:0:0:
448,192,122575,1,0,0:0:0:0:
320,192,122877,1,0,0:0:0:0:
192,192,123180,1,0,0:0:0:0:
64,192,123483,1,0,0:0:0:0:
192,192,123937,1,0,0:0:0:0:
320,192,124088,1,0,0:0:0:0:
64,192,124694,1,2,0:0:0:0:
448,192,125299,1,2,0:0:0:0:
320,192,125526,1,2,0:0:0:0:
192,192,125753,1,0,0:0:0:0:
64,192,125904,128,14,126358:0:0:0:0:
320,192,126358,1,0,0:0:0:0:
448,192,126510,128,0,126964:0:0:0:0:
64,192,126964,1,2,0:0:0:0:
192,192,127115,128,14,127418:0:0:0:0:
320,192,127418,128,12,127721:0:0:0:0:
64,192,127721,128,0,128023:0:0:0:0:
448,192,128023,128,0,128326:0:0:0:0:
192,192,128326,128,14,128780:0:0:0:0:
320,192,128780,128,14,129234:0:0:0:0:
64,192,129234,128,12,129537:0:0:0:0:
448,192,129537,1,6,0:0:0:0:
192,192,129991,128,0,130445:0:0:0:0:
320,192,130445,1,0,0:0:0:70:tom01.wav
64,192,130748,1,6,0:0:0:0:
320,192,130748,128,0,131202:0:0:0:70:clapwet.wav
192,192,131202,128,0,131958:0:0:0:0:
448,192,131958,128,0,132261:0:0:0:0:
64,192,132261,128,8,132564:0:0:0:0:
192,192,132564,128,0,132866:0:0:0:0:
320,192,132866,128,8,133169:0:0:0:0:
64,192,133169,128,6,134380:0:0:0:0:
320,192,134380,128,0,134683:0:0:0:0:
192,192,134683,128,8,134985:0:0:0:0:
448,192,134985,128,0,135288:0:0:0:0:
64,192,135288,128,12,135591:0:0:0:0:
320,192,135591,128,6,136801:0:0:0:0:
64,192,136801,128,0,137104:0:0:0:0:
448,192,137104,128,8,137407:0:0:0:0:
192,192,137407,128,0,137709:0:0:0:70:tom01.wav
320,192,137709,128,12,138012:0:0:0:0:
64,192,138012,128,6,138466:0:0:0:0:
192,192,138466,128,6,138920:0:0:0:0:
320,192,138920,128,6,139374:0:0:0:0:
448,192,139374,128,6,139828:0:0:0:0:
64,192,139828,128,6,140131:0:0:0:0:
192,192,140131,128,6,140434:0:0:0:0:
448,192,140434,128,6,140736:0:0:0:0:
64,192,140736,1,8,0:0:0:0:
192,192,140888,128,6,141190:0:0:0:0:
448,192,141190,1,8,0:0:0:0:
320,192,141342,128,6,141645:0:0:0:0:
192,192,141645,1,8,0:0:0:0:
64,192,141796,128,6,142099:0:0:0:0:
320,192,142099,1,8,0:0:0:0:
448,192,142250,128,6,142704:0:0:0:0:
192,192,142704,128,6,143158:0:0:0:0:
320,192,143158,128,6,143612:0:0:0:0:
64,192,143612,128,6,144066:0:0:0:0:
448,192,144066,1,6,0:0:0:0:
192,192,144293,1,6,0:0:0:0:
448,192,144520,1,6,0:0:0:0:
64,192,144747,1,6,0:0:0:0:
320,192,144974,1,6,0:0:0:0:
64,192,145201,1,6,0:0:0:0:
448,192,145428,1,6,0:0:0:0:
192,192,145655,1,6,0:0:0:0:
448,192,145882,1,6,0:0:0:0:
64,192,146109,1,6,0:0:0:0:
448,192,146336,1,6,0:0:0:0:
192,192,146488,128,14,148909:0:0:0:0:
320,192,147698,128,14,148909:0:0:0:0:
64,192,148909,1,6,0:0:0:0:
448,192,148909,1,8,0:0:0:0:
192,192,149363,1,0,0:0:0:0:
320,192,149515,1,0,0:0:0:70:tick02_edit.wav
64,192,149969,1,0,0:0:0:0:
448,192,150120,1,0,0:0:0:70:tick01.wav
320,192,150574,1,0,0:0:0:0:
192,192,150725,1,0,0:0:0:70:tick02_edit.wav
448,192,151179,1,0,0:0:0:0:
64,192,151331,1,0,0:0:0:70:tick01.wav
192,192,151785,1,0,0:0:0:0:
448,192,151936,1,0,0:0:0:70:tick02_edit.wav
64,192,152390,1,0,0:0:0:0:
320,192,152541,1,0,0:0:0:70:tick01.wav
448,192,152996,1,0,0:0:0:0:
192,192,153147,1,0,0:0:0:70:tick02_edit.wav
320,192,153450,1,0,0:0:0:0:
64,192,153601,1,0,0:0:0:0:
