osu file format v14

[General]
AudioFilename: audio.mp3
AudioLeadIn: 0
PreviewTime: 97529
Countdown: 0
SampleSet: Soft
StackLeniency: 0.7
Mode: 3
LetterboxInBreaks: 0
SpecialStyle: 0
WidescreenStoryboard: 1

[Editor]
DistanceSpacing: 1.4
BeatDivisor: 4
GridSize: 32
TimelineZoom: 2

[Metadata]
Title:AstroNotes.
TitleUnicode:AstrøNotes.
Artist:MisoilePunch
ArtistUnicode:MisoilePunch♪
Creator:Murumoo
Version:EXPERT
Source:オンゲキ SUMMER PLUS
Tags:famoss ONGEKI Sound Collection 04 No Limit RED Force みそみぃる ポン恥♪ MisomyL Ponchi arcade rhythm video game electronic instrumental サマープラス Starry Chip Rock
BeatmapID:2559957
BeatmapSetID:1225500

[Difficulty]
HPDrainRate:7.5
CircleSize:4
OverallDifficulty:7.5
ApproachRate:5
SliderMultiplier:1.4
SliderTickRate:1

[Events]
//Background and Video events
0,0,"bg.jpg",0,0
//Break Periods
//Storyboard Layer 0 (Background)
//Storyboard Layer 1 (Fail)
//Storyboard Layer 2 (Pass)
//Storyboard Layer 3 (Foreground)
//Storyboard Layer 4 (Overlay)
//Storyboard Sound Samples
Sample,31529,0,"cymbal.wav",70
Sample,76100,0,"tick02_edit.wav",70
Sample,76957,0,"tick02_edit.wav",70
Sample,78100,0,"tick02_edit.wav",70
Sample,78386,0,"tick02_edit.wav",70
Sample,78814,0,"tick02_edit.wav",70
Sample,79243,0,"tick02_edit.wav",70
Sample,80672,0,"tick02_edit.wav",70
Sample,81529,0,"tick02_edit.wav",70

[TimingPoints]
672,285.714285714286,4,2,1,40,1,0
10957,-100,4,2,1,60,0,0
20100,-100,4,2,1,40,0,0
26957,-100,4,2,1,50,0,0
28100,-100,4,2,1,60,0,0
56672,-100,4,2,1,60,0,1
64672,-100,4,2,1,60,0,0
66100,-100,4,2,1,60,0,1
74957,-100,4,2,1,40,0,0
81814,-100,4,2,1,50,0,0
82957,-100,4,2,1,60,0,0
95529,-100,4,2,1,40,0,0
104672,-100,4,2,1,50,0,0
107243,-100,4,2,1,60,0,1
113814,-100,4,2,1,60,0,0
116100,-100,4,2,1,60,0,1
127529,-100,4,2,1,60,0,0
129814,-100,4,2,1,60,0,1
139100,-100,4,2,1,40,0,0

[HitObjects]
448,192,386,1,0,0:0:0:0:
320,192,457,1,0,0:0:0:0:
192,192,529,1,0,0:0:0:0:
64,192,600,1,0,0:0:0:0:
320,192,672,1,0,0:0:0:0:
448,192,672,128,0,957:0:0:0:0:
320,192,957,1,0,0:0:0:0:
192,192,1100,128,0,1386:0:0:0:0:
320,192,1386,128,0,1529:0:0:0:0:
64,192,1672,128,0,2100:0:0:0:0:
448,192,1814,1,0,0:0:0:0:
192,192,2100,128,0,2386:0:0:0:0:
320,192,2386,128,0,2672:0:0:0:0:
448,192,2672,128,0,2957:0:0:0:0:
64,192,2957,128,0,3243:0:0:0:0:
192,192,2957,1,0,0:0:0:0:
320,192,3243,1,0,0:0:0:0:
192,192,3386,128,0,3672:0:0:0:0:
448,192,3386,1,0,0:0:0:0:
64,192,3672,1,0,0:0:0:0:
320,192,3672,128,0,3814:0:0:0:0:
192,192,3814,128,0,3957:0:0:0:0:
320,192,3957,1,0,0:0:0:0:
448,192,3957,128,0,5243:0:0:0:0:
64,192,4386,1,0,0:0:0:0:
192,192,4672,1,0,0:0:0:0:
320,192,4957,1,0,0:0:0:0:
64,192,5243,1,0,0:0:0:0:
192,192,5279,1,0,0:0:0:0:
192,192,5814,128,0,6029:0:0:0:0:
320,192,6029,128,0,6243:0:0:0:0:
448,192,6243,128,0,6386:0:0:0:0:
64,192,6386,128,0,6814:0:0:0:0:
192,192,6386,1,0,0:0:0:0:
320,192,6814,1,0,0:0:0:0:
64,192,6957,1,0,0:0:0:0:
320,192,6957,128,0,7386:0:0:0:0:
192,192,7386,1,0,0:0:0:0:
192,192,7529,128,0,7814:0:0:0:0:
448,192,7529,1,0,0:0:0:0:
320,192,7814,128,0,8100:0:0:0:0:
64,192,8100,128,0,8386:0:0:0:0:
448,192,8100,1,0,0:0:0:0:
192,192,8386,128,0,8672:0:0:0:0:
320,192,8672,128,0,9529:0:0:0:0:
448,192,8672,1,0,0:0:0:0:
64,192,9529,128,0,9814:0:0:0:0:
192,192,9814,1,0,0:0:0:0:
448,192,9814,128,0,10386:0:0:0:0:
320,192,10386,128,0,10672:0:0:0:0:
64,192,10672,1,0,0:0:0:0:
192,192,10743,1,0,0:0:0:0:
320,192,10814,1,0,0:0:0:0:
448,192,10886,1,0,0:0:0:0:
64,192,10957,1,4,0:0:0:0:
192,192,10957,1,8,0:0:0:0:
192,192,11100,1,8,0:0:0:0:
320,192,11243,1,8,0:0:0:0:
448,192,11243,1,0,0:0:0:0:
64,192,11386,1,8,0:0:0:0:
448,192,11386,1,0,0:0:0:0:
320,192,11529,1,8,0:0:0:0:
64,192,11672,1,8,0:0:0:0:
192,192,11672,1,0,0:0:0:0:
64,192,11814,1,8,0:0:0:0:
448,192,11814,1,0,0:0:0:0:
192,192,11957,1,8,0:0:0:0:
320,192,12100,1,8,0:0:0:0:
448,192,12100,1,0,0:0:0:0:
64,192,12243,1,8,0:0:0:0:
448,192,12243,1,0,0:0:0:0:
320,192,12386,1,8,0:0:0:0:
64,192,12529,1,8,0:0:0:0:
192,192,12529,1,0,0:0:0:0:
64,192,12672,1,8,0:0:0:0:
320,192,12672,1,0,0:0:0:0:
192,192,12814,1,8,0:0:0:0:
320,192,12957,1,8,0:0:0:0:
448,192,12957,1,0,0:0:0:0:
192,192,13100,1,2,0:0:0:0:
448,192,13100,1,0,0:0:0:0:
64,192,13243,1,12,0:0:0:0:
320,192,13243,1,2,0:0:0:0:
320,192,13386,1,8,0:0:0:0:
64,192,13529,1,8,0:0:0:0:
192,192,13529,1,0,0:0:0:0:
64,192,13672,1,8,0:0:0:0:
448,192,13672,1,0,0:0:0:0:
192,192,13814,1,8,0:0:0:0:
320,192,13957,1,8,0:0:0:0:
448,192,13957,1,0,0:0:0:0:
64,192,14100,1,8,0:0:0:0:
448,192,14100,1,0,0:0:0:0:
320,192,14243,1,8,0:0:0:0:
64,192,14386,1,8,0:0:0:0:
192,192,14386,1,0,0:0:0:0:
64,192,14529,1,8,0:0:0:0:
448,192,14529,1,4,0:0:0:0:
192,192,14672,1,8,0:0:0:0:
320,192,14814,1,2,0:0:0:0:
448,192,14814,1,0,0:0:0:0:
64,192,14957,1,8,0:0:0:0:
192,192,14957,1,0,0:0:0:0:
448,192,15100,1,8,0:0:0:0:
320,192,15172,1,8,0:0:0:0:
64,192,15243,1,8,0:0:0:0:
192,192,15314,1,8,0:0:0:0:
448,192,15386,1,8,0:0:0:0:
320,192,15457,1,8,0:0:0:0:
64,192,15529,1,2,0:0:0:0:
192,192,15600,1,2,0:0:0:0:
320,192,15672,1,2,0:0:0:0:
448,192,15743,1,2,0:0:0:0:
64,192,15814,1,12,0:0:0:0:
192,192,15814,1,0,0:0:0:70:wind.wav
320,192,15957,1,2,0:0:0:0:
448,192,16100,1,8,0:0:0:0:
320,192,16172,1,8,0:0:0:0:
192,192,16243,1,0,0:0:0:70:tom1.wav
64,192,16314,1,0,0:0:0:70:tom2.wav
448,192,16386,1,0,0:0:0:70:tom3.wav
320,192,16457,1,0,0:0:0:70:tom4.wav
64,192,16529,1,2,0:0:0:0:
192,192,16529,1,4,0:0:0:0:
320,192,16672,1,0,0:0:0:0:
448,192,16672,1,0,0:0:0:0:
192,192,16814,1,2,0:0:0:0:
320,192,16886,1,2,0:0:0:0:
64,192,16957,1,8,0:0:0:0:
448,192,16957,1,0,0:0:0:0:
320,192,17100,1,2,0:0:0:0:
64,192,17243,1,8,0:0:0:0:
192,192,17243,1,0,0:0:0:0:
448,192,17314,1,0,0:0:0:70:tom1.wav
320,192,17386,1,8,0:0:0:0:
64,192,17457,1,0,0:0:0:70:tom2.wav
192,192,17529,1,0,0:0:0:70:tom3.wav
320,192,17600,1,0,0:0:0:70:tom3.wav
448,192,17672,1,0,0:0:0:70:tom4.wav
192,192,17743,1,0,0:0:0:70:tom4.wav
320,192,17814,1,14,0:0:0:0:
448,192,17886,1,8,0:0:0:0:
192,192,17957,1,8,0:0:0:0:
64,192,18029,1,8,0:0:0:0:
320,192,18100,1,10,0:0:0:0:
448,192,18172,1,8,0:0:0:0:
192,192,18243,1,8,0:0:0:0:
64,192,18314,1,8,0:0:0:0:
448,192,18386,1,10,0:0:0:0:
320,192,18457,1,8,0:0:0:0:
64,192,18529,1,8,0:0:0:0:
192,192,18600,1,8,0:0:0:0:
448,192,18672,1,10,0:0:0:0:
320,192,18743,1,8,0:0:0:0:
64,192,18814,1,8,0:0:0:0:
192,192,18886,1,8,0:0:0:0:
320,192,18957,1,2,0:0:0:0:
448,192,18957,1,4,0:0:0:0:
64,192,19529,1,0,0:0:0:0:
192,192,19672,1,0,0:0:0:0:
320,192,19814,1,0,0:0:0:0:
448,192,19957,1,0,0:0:0:0:
64,192,20100,1,0,0:0:0:70:LR_Long Bass.wav
192,192,20100,1,0,0:0:0:0:
320,192,20529,1,0,0:0:0:0:
320,192,20672,128,0,20957:0:0:0:70:tick02_edit.wav
192,192,21100,1,0,0:0:0:0:
192,192,21243,128,0,21529:0:0:0:0:
320,192,21529,128,0,21814:0:0:0:0:
64,192,21814,128,0,22100:0:0:0:70:tick02_edit.wav
448,192,22100,128,0,22386:0:0:0:0:
192,192,22386,128,0,22672:0:0:0:0:
64,192,22672,1,0,0:0:0:0:
320,192,22814,128,0,22957:0:0:0:0:
192,192,23100,128,0,23386:0:0:0:0:
448,192,23386,1,0,0:0:0:0:
448,192,23529,128,0,24100:0:0:0:0:
64,192,24100,128,0,24243:0:0:0:70:tick02_edit.wav
192,192,24243,128,0,24386:0:0:0:0:
320,192,24386,128,0,24529:0:0:0:0:
448,192,24529,128,0,24672:0:0:0:0:
64,192,24672,128,0,24957:0:0:0:0:
192,192,24957,128,0,25243:0:0:0:0:
320,192,25243,128,0,25529:0:0:0:70:tick02_edit.wav
192,192,25529,128,0,25814:0:0:0:0:
448,192,25814,128,0,26100:0:0:0:0:
320,192,26100,128,0,26386:0:0:0:0:
192,192,26386,128,0,26672:0:0:0:70:tick02_edit.wav
64,192,26672,128,0,26957:0:0:0:0:
320,192,26957,1,0,0:0:0:70:LR_Long Bass.wav
448,192,26957,128,0,27243:0:0:0:0:
192,192,27243,1,0,0:0:0:0:
320,192,27386,1,0,0:0:0:70:tick02_edit.wav
64,192,27529,1,0,0:0:0:70:tick02_edit.wav
192,192,27672,1,0,0:0:0:0:
320,192,27814,1,8,0:0:0:0:
448,192,27814,1,0,0:0:0:0:
192,192,27957,1,2,0:0:0:0:
320,192,28029,1,2,0:0:0:0:
64,192,28100,1,8,0:0:0:0:
448,192,28100,1,0,0:0:0:0:
320,192,28172,1,8,0:0:0:0:
192,192,28243,1,0,0:0:0:70:tom1.wav
320,192,28386,1,0,0:0:0:70:tom3.wav
192,192,28457,1,0,0:0:0:70:tom4.wav
64,192,28529,1,2,0:0:0:0:
320,192,28529,1,4,0:0:0:0:
448,192,28529,128,0,28814:0:0:0:0:
64,192,28814,1,2,0:0:0:0:
192,192,28814,1,0,0:0:0:0:
320,192,28957,1,8,0:0:0:0:
192,192,29029,1,8,0:0:0:0:
448,192,29100,1,2,0:0:0:0:
320,192,29172,1,2,0:0:0:0:
64,192,29243,128,2,29529:0:0:0:0:
192,192,29243,1,4,0:0:0:0:
448,192,29243,1,0,0:0:0:0:
320,192,29529,1,8,0:0:0:0:
448,192,29529,1,0,0:0:0:0:
192,192,29672,1,0,0:0:0:0:
64,192,29814,1,2,0:0:0:0:
192,192,29814,128,0,30100:0:0:0:0:
320,192,29957,1,2,0:0:0:0:
448,192,29957,1,0,0:0:0:0:
64,192,30100,1,0,0:0:0:0:
192,192,30243,1,8,0:0:0:0:
320,192,30243,1,4,0:0:0:0:
448,192,30386,128,0,30672:0:0:0:0:
64,192,30529,1,2,0:0:0:0:
192,192,30529,1,0,0:0:0:0:
64,192,30672,1,8,0:0:0:0:
320,192,30672,128,0,30957:0:0:0:70:cymbal.wav
448,192,30814,1,2,0:0:0:0:
64,192,30957,1,8,0:0:0:0:
192,192,30957,128,0,31243:0:0:0:70:cymbal.wav
320,192,31100,1,2,0:0:0:0:
64,192,31243,128,8,31529:0:0:0:0:
448,192,31243,1,4,0:0:0:0:
320,192,31386,1,2,0:0:0:0:
448,192,31529,1,8,0:0:0:0:
320,192,31600,1,8,0:0:0:0:
64,192,31672,1,0,0:0:0:70:tom1.wav
192,192,31743,1,0,0:0:0:70:tom2.wav
320,192,31957,128,2,32100:0:0:0:0:
448,192,31957,128,0,32100:0:0:0:70:cymbal.wav
64,192,32243,128,2,32386:0:0:0:0:
192,192,32243,128,0,32386:0:0:0:70:cymbal.wav
64,192,32529,1,4,0:0:0:0:
320,192,32529,1,2,0:0:0:0:
448,192,32529,128,0,32814:0:0:0:0:
64,192,32814,1,2,0:0:0:0:
192,192,32814,1,0,0:0:0:0:
64,192,32957,1,8,0:0:0:0:
448,192,32957,1,4,0:0:0:0:
192,192,33100,1,2,0:0:0:0:
448,192,33100,1,0,0:0:0:0:
64,192,33243,1,8,0:0:0:0:
320,192,33243,1,0,0:0:0:0:
320,192,33386,1,2,0:0:0:0:
448,192,33386,1,0,0:0:0:0:
64,192,33529,1,8,0:0:0:0:
192,192,33600,1,8,0:0:0:0:
320,192,33672,1,8,0:0:0:0:
448,192,33743,1,8,0:0:0:0:
64,192,33814,128,2,34100:0:0:0:0:
192,192,33814,1,4,0:0:0:0:
192,192,34100,1,8,0:0:0:0:
448,192,34100,1,0,0:0:0:0:
320,192,34243,1,0,0:0:0:0:
192,192,34386,1,2,0:0:0:0:
448,192,34386,1,0,0:0:0:0:
64,192,34529,1,2,0:0:0:0:
192,192,34529,128,0,34814:0:0:0:0:
448,192,34672,1,0,0:0:0:0:
64,192,34814,1,8,0:0:0:0:
320,192,34814,1,4,0:0:0:0:
320,192,34957,128,0,35243:0:0:0:0:
64,192,35100,1,2,0:0:0:0:
192,192,35100,1,0,0:0:0:0:
192,192,35243,128,8,35529:0:0:0:0:
448,192,35243,1,4,0:0:0:0:
320,192,35386,1,2,0:0:0:0:
64,192,35529,128,8,35814:0:0:0:0:
448,192,35529,1,0,0:0:0:70:cymbal.wav
320,192,35672,1,2,0:0:0:0:
192,192,35743,1,2,0:0:0:0:
448,192,35814,128,12,36100:0:0:0:0:
320,192,35886,1,8,0:0:0:0:
192,192,35957,1,2,0:0:0:0:
64,192,36100,128,2,36386:0:0:0:0:
320,192,36100,1,4,0:0:0:0:
320,192,36386,1,2,0:0:0:0:
448,192,36386,1,8,0:0:0:0:
320,192,36529,1,2,0:0:0:0:
448,192,36529,1,8,0:0:0:0:
64,192,36672,1,2,0:0:0:0:
192,192,36672,1,8,0:0:0:0:
64,192,36814,1,2,0:0:0:0:
192,192,36814,1,8,0:0:0:0:
320,192,36957,1,2,0:0:0:0:
448,192,36957,1,8,0:0:0:0:
320,192,37100,1,2,0:0:0:0:
448,192,37100,1,8,0:0:0:0:
64,192,37243,1,2,0:0:0:0:
192,192,37243,1,8,0:0:0:0:
192,192,37386,1,2,0:0:0:0:
448,192,37386,1,8,0:0:0:0:
320,192,37529,1,2,0:0:0:0:
448,192,37529,1,8,0:0:0:0:
64,192,37672,1,2,0:0:0:0:
192,192,37672,1,8,0:0:0:0:
320,192,37814,1,10,0:0:0:0:
192,192,37886,1,0,0:0:0:70:tom1.wav
448,192,37957,1,0,0:0:0:70:tom2.wav
320,192,38029,1,2,0:0:0:0:
64,192,38100,1,0,0:0:0:70:tom3.wav
192,192,38172,1,0,0:0:0:70:tom4.wav
320,192,38243,1,2,0:0:0:0:
448,192,38314,1,0,0:0:0:0:
64,192,38386,1,2,0:0:0:0:
192,192,38386,1,0,0:0:0:70:cymbal.wav
192,192,38529,1,0,0:0:0:0:
320,192,38600,1,0,0:0:0:0:
192,192,38672,1,0,0:0:0:0:
320,192,38814,1,2,0:0:0:0:
448,192,38814,1,0,0:0:0:70:cymbal.wav
320,192,38957,1,0,0:0:0:0:
320,192,39100,1,0,0:0:0:0:
64,192,39243,1,2,0:0:0:0:
192,192,39243,1,0,0:0:0:70:cymbal.wav
192,192,39386,128,0,39600:0:0:0:0:
320,192,39672,1,2,0:0:0:0:
448,192,39672,1,0,0:0:0:70:cymbal.wav
192,192,39814,1,0,0:0:0:0:
320,192,39957,1,8,0:0:0:0:
448,192,39957,1,0,0:0:0:0:
64,192,40100,1,2,0:0:0:0:
192,192,40100,1,4,0:0:0:0:
320,192,40243,1,0,0:0:0:0:
64,192,40386,1,2,0:0:0:0:
192,192,40386,1,4,0:0:0:0:
448,192,40386,1,0,0:0:0:0:
64,192,40672,1,4,0:0:0:0:
320,192,40672,1,2,0:0:0:0:
448,192,40672,128,0,40957:0:0:0:0:
64,192,40957,1,8,0:0:0:0:
192,192,40957,1,0,0:0:0:0:
192,192,41100,1,0,0:0:0:0:
448,192,41243,1,8,0:0:0:0:
320,192,41314,1,8,0:0:0:0:
64,192,41386,1,0,0:0:0:70:tom1.wav
192,192,41457,1,0,0:0:0:70:tom2.wav
320,192,41529,1,2,0:0:0:0:
448,192,41529,1,0,0:0:0:0:
64,192,41672,1,8,0:0:0:0:
192,192,41672,128,4,41957:0:0:0:0:
320,192,41957,1,2,0:0:0:0:
192,192,42029,1,2,0:0:0:0:
64,192,42100,1,8,0:0:0:0:
448,192,42100,1,4,0:0:0:0:
192,192,42243,1,2,0:0:0:0:
320,192,42314,1,0,0:0:0:0:
64,192,42386,1,8,0:0:0:0:
448,192,42386,1,0,0:0:0:0:
192,192,42529,1,2,0:0:0:0:
320,192,42529,1,0,0:0:0:0:
448,192,42672,1,8,0:0:0:0:
320,192,42743,1,8,0:0:0:0:
192,192,42814,1,8,0:0:0:0:
64,192,42886,1,8,0:0:0:0:
320,192,42957,1,2,0:0:0:0:
448,192,42957,1,0,0:0:0:70:cymbal.wav
320,192,43100,1,0,0:0:0:0:
192,192,43172,1,0,0:0:0:0:
320,192,43243,1,0,0:0:0:0:
64,192,43386,1,2,0:0:0:0:
192,192,43386,1,0,0:0:0:70:cymbal.wav
192,192,43529,1,0,0:0:0:0:
192,192,43672,1,0,0:0:0:0:
320,192,43814,1,2,0:0:0:0:
448,192,43814,1,0,0:0:0:70:cymbal.wav
320,192,43957,128,0,44172:0:0:0:0:
64,192,44243,1,8,0:0:0:0:
448,192,44243,1,4,0:0:0:0:
192,192,44386,1,8,0:0:0:0:
320,192,44386,1,0,0:0:0:0:
64,192,44529,1,2,0:0:0:0:
320,192,44672,1,4,0:0:0:0:
448,192,44672,1,2,0:0:0:0:
64,192,44814,1,8,0:0:0:0:
192,192,44886,1,8,0:0:0:0:
448,192,44957,1,12,0:0:0:0:
320,192,45029,1,8,0:0:0:0:
64,192,45100,1,8,0:0:0:0:
192,192,45172,1,8,0:0:0:0:
320,192,45243,1,2,0:0:0:0:
448,192,45243,1,4,0:0:0:0:
192,192,45338,1,0,0:0:0:0:
64,192,45433,1,0,0:0:0:0:
320,192,45529,1,8,0:0:0:0:
192,192,45624,1,0,0:0:0:0:
448,192,45719,1,0,0:0:0:0:
320,192,45814,1,2,0:0:0:0:
64,192,45910,1,0,0:0:0:0:
192,192,46005,1,0,0:0:0:0:
320,192,46100,1,0,0:0:0:0:
448,192,46195,1,0,0:0:0:0:
192,192,46291,1,0,0:0:0:0:
64,192,46386,1,0,0:0:0:0:
192,192,46529,1,2,0:0:0:0:
320,192,46672,1,4,0:0:0:0:
448,192,46672,1,8,0:0:0:0:
64,192,46814,1,2,0:0:0:0:
192,192,46957,1,8,0:0:0:0:
448,192,46957,1,0,0:0:0:70:cymbal.wav
320,192,47052,1,8,0:0:0:0:
192,192,47148,1,8,0:0:0:0:
64,192,47243,1,0,0:0:0:70:tom1.wav
448,192,47243,1,0,0:0:0:0:
320,192,47338,1,0,0:0:0:70:tom2.wav
192,192,47433,1,0,0:0:0:70:tom3.wav
64,192,47529,1,2,0:0:0:0:
448,192,47529,1,4,0:0:0:0:
192,192,47624,1,0,0:0:0:0:
320,192,47719,1,8,0:0:0:0:
448,192,47814,1,0,0:0:0:0:
64,192,47910,1,8,0:0:0:0:
320,192,48005,1,2,0:0:0:0:
192,192,48100,1,8,0:0:0:0:
448,192,48100,1,4,0:0:0:0:
64,192,48195,1,8,0:0:0:0:
320,192,48291,1,8,0:0:0:0:
64,192,48386,1,2,0:0:0:0:
192,192,48386,1,0,0:0:0:0:
320,192,48481,1,0,0:0:0:0:
192,192,48576,1,2,0:0:0:0:
64,192,48672,1,12,0:0:0:0:
448,192,48672,1,2,0:0:0:0:
320,192,48767,1,0,0:0:0:0:
192,192,48862,1,8,0:0:0:0:
64,192,48957,1,0,0:0:0:0:
320,192,48957,1,0,0:0:0:0:
448,192,49052,1,8,0:0:0:0:
192,192,49148,1,2,0:0:0:0:
320,192,49243,1,8,0:0:0:0:
448,192,49243,1,4,0:0:0:0:
64,192,49338,1,8,0:0:0:0:
192,192,49433,1,8,0:0:0:0:
64,192,49529,1,2,0:0:0:0:
320,192,49529,1,0,0:0:0:0:
192,192,49624,1,0,0:0:0:0:
320,192,49719,1,2,0:0:0:0:
64,192,49814,1,6,0:0:0:0:
448,192,49814,1,8,0:0:0:0:
192,192,49910,1,0,0:0:0:0:
320,192,50005,1,8,0:0:0:0:
64,192,50100,1,2,0:0:0:0:
448,192,50195,1,8,0:0:0:0:
320,192,50291,1,0,0:0:0:0:
64,192,50386,1,2,0:0:0:0:
192,192,50386,1,4,0:0:0:0:
448,192,50481,1,8,0:0:0:0:
320,192,50576,1,8,0:0:0:0:
192,192,50672,1,2,0:0:0:0:
320,192,50767,1,8,0:0:0:0:
192,192,50862,1,8,0:0:0:0:
64,192,50957,1,6,0:0:0:0:
448,192,50957,1,8,0:0:0:0:
320,192,51052,1,0,0:0:0:0:
192,192,51148,1,8,0:0:0:0:
64,192,51243,1,2,0:0:0:0:
320,192,51243,1,0,0:0:0:70:tom2.wav
448,192,51338,1,0,0:0:0:70:tom3.wav
192,192,51433,1,0,0:0:0:70:tom4.wav
320,192,51529,1,6,0:0:0:0:
448,192,51529,1,0,0:0:0:70:tom3.wav
192,192,51624,1,0,0:0:0:70:tom2.wav
448,192,51719,1,0,0:0:0:70:tom1.wav
64,192,51814,1,2,0:0:0:0:
320,192,51814,1,0,0:0:0:70:tom2.wav
192,192,51910,1,0,0:0:0:70:tom3.wav
320,192,52005,1,0,0:0:0:70:tom4.wav
64,192,52100,1,8,0:0:0:0:
192,192,52100,1,4,0:0:0:0:
448,192,52100,1,2,0:0:0:0:
192,192,52243,1,2,0:0:0:0:
320,192,52386,1,2,0:0:0:0:
64,192,52529,1,8,0:0:0:0:
320,192,52529,1,4,0:0:0:0:
448,192,52529,1,0,0:0:0:0:
192,192,52672,1,2,0:0:0:0:
320,192,52814,1,2,0:0:0:0:
64,192,52957,1,4,0:0:0:0:
192,192,52957,1,8,0:0:0:0:
448,192,52957,1,0,0:0:0:0:
192,192,53100,1,2,0:0:0:0:
320,192,53243,1,2,0:0:0:0:
64,192,53386,1,8,0:0:0:0:
320,192,53386,1,4,0:0:0:0:
448,192,53386,1,0,0:0:0:0:
192,192,53529,1,2,0:0:0:0:
320,192,53672,1,2,0:0:0:0:
64,192,53814,1,4,0:0:0:0:
192,192,53814,1,8,0:0:0:0:
448,192,53814,1,0,0:0:0:0:
64,192,53957,1,0,0:0:0:70:tom1.wav
192,192,54100,1,2,0:0:0:0:
320,192,54100,1,0,0:0:0:0:
448,192,54100,1,0,0:0:0:0:
320,192,54243,1,2,0:0:0:0:
192,192,54386,1,2,0:0:0:0:
448,192,54386,1,4,0:0:0:0:
64,192,54457,1,8,0:0:0:0:
320,192,54529,1,8,0:0:0:0:
192,192,54600,1,8,0:0:0:0:
448,192,54672,1,14,0:0:0:0:
320,192,54743,1,8,0:0:0:0:
64,192,54814,1,8,0:0:0:0:
192,192,54886,1,8,0:0:0:0:
320,192,54957,1,14,0:0:0:0:
448,192,55029,1,8,0:0:0:0:
192,192,55100,1,8,0:0:0:0:
320,192,55172,1,8,0:0:0:0:
64,192,55243,1,12,0:0:0:0:
192,192,55314,1,8,0:0:0:0:
320,192,55386,1,2,0:0:0:0:
448,192,55386,1,0,0:0:0:0:
64,192,55672,1,2,0:0:0:0:
192,192,55672,1,0,0:0:0:0:
320,192,55814,1,2,0:0:0:0:
448,192,55814,1,0,0:0:0:0:
192,192,56064,128,0,56207:0:0:0:0:
320,192,56207,128,0,56350:0:0:0:0:
64,192,56350,128,0,56493:0:0:0:0:
192,192,56493,128,0,56672:0:0:0:0:
64,192,56672,1,2,0:0:0:0:
320,192,56672,1,4,0:0:0:0:
448,192,56672,1,0,0:0:0:0:
192,192,56814,1,0,0:0:0:0:
320,192,56886,1,0,0:0:0:0:
64,192,56957,1,8,0:0:0:0:
192,192,57029,1,8,0:0:0:0:
448,192,57100,1,0,0:0:0:70:tom1.wav
320,192,57172,1,0,0:0:0:70:tom2.wav
64,192,57243,1,0,0:0:0:70:tom3.wav
192,192,57243,1,0,0:0:0:0:
320,192,57386,1,2,0:0:0:0:
448,192,57386,1,0,0:0:0:0:
64,192,57529,1,8,0:0:0:0:
192,192,57529,1,0,0:0:0:0:
64,192,57672,1,4,0:0:0:0:
320,192,57672,1,2,0:0:0:0:
448,192,57672,128,0,57957:0:0:0:0:
64,192,57957,1,2,0:0:0:0:
192,192,57957,1,0,0:0:0:0:
320,192,58100,1,8,0:0:0:0:
448,192,58100,1,0,0:0:0:0:
64,192,58243,128,2,58529:0:0:0:0:
192,192,58243,1,4,0:0:0:0:
448,192,58243,1,0,0:0:0:0:
448,192,58529,1,2,0:0:0:0:
320,192,58600,1,2,0:0:0:0:
64,192,58672,1,8,0:0:0:0:
192,192,58743,1,0,0:0:0:0:
448,192,58814,1,0,0:0:0:0:
320,192,58886,1,0,0:0:0:0:
64,192,58957,1,4,0:0:0:0:
192,192,58957,1,2,0:0:0:0:
320,192,59100,1,0,0:0:0:0:
192,192,59172,1,0,0:0:0:0:
448,192,59243,1,8,0:0:0:0:
320,192,59314,1,8,0:0:0:0:
64,192,59386,1,0,0:0:0:70:tom1.wav
192,192,59457,1,0,0:0:0:70:tom2.wav
320,192,59529,1,0,0:0:0:70:tom3.wav
448,192,59529,1,0,0:0:0:0:
64,192,59672,1,2,0:0:0:0:
192,192,59672,1,0,0:0:0:0:
320,192,59814,1,8,0:0:0:0:
448,192,59814,1,0,0:0:0:0:
64,192,59957,128,2,60243:0:0:0:0:
192,192,59957,1,4,0:0:0:0:
448,192,59957,1,0,0:0:0:0:
320,192,60243,1,2,0:0:0:0:
448,192,60243,1,0,0:0:0:0:
64,192,60386,1,8,0:0:0:0:
192,192,60386,1,0,0:0:0:0:
64,192,60529,1,4,0:0:0:0:
320,192,60529,1,2,0:0:0:0:
448,192,60529,128,0,60814:0:0:0:0:
64,192,60814,1,2,0:0:0:0:
192,192,60814,1,0,0:0:0:0:
320,192,60957,1,8,0:0:0:0:
448,192,60957,1,0,0:0:0:0:
64,192,61029,1,8,0:0:0:0:
192,192,61100,1,0,0:0:0:70:tom3.wav
320,192,61172,1,0,0:0:0:70:tom4.wav
64,192,61243,1,2,0:0:0:0:
448,192,61243,128,4,61529:0:0:0:0:
64,192,61529,1,8,0:0:0:0:
192,192,61529,1,0,0:0:0:0:
192,192,61672,1,0,0:0:0:0:
64,192,61814,1,2,0:0:0:0:
320,192,61814,1,0,0:0:0:0:
320,192,61957,1,0,0:0:0:0:
192,192,62100,1,8,0:0:0:0:
448,192,62100,1,0,0:0:0:0:
448,192,62243,1,0,0:0:0:0:
64,192,62386,1,2,0:0:0:0:
320,192,62386,1,0,0:0:0:0:
64,192,62529,1,0,0:0:0:0:
192,192,62672,1,8,0:0:0:0:
320,192,62672,1,0,0:0:0:0:
320,192,62814,1,0,0:0:0:0:
192,192,62957,1,2,0:0:0:0:
448,192,62957,1,0,0:0:0:0:
64,192,63100,1,0,0:0:0:0:
448,192,63243,1,8,0:0:0:0:
320,192,63314,1,8,0:0:0:0:
192,192,63386,1,0,0:0:0:70:tom1.wav
64,192,63457,1,0,0:0:0:70:tom2.wav
320,192,63529,128,4,63672:0:0:0:0:
448,192,63529,1,2,0:0:0:0:
192,192,63672,128,8,63814:0:0:0:0:
64,192,63814,128,0,63957:0:0:0:0:
320,192,63957,128,8,64100:0:0:0:0:
64,192,64100,1,8,0:0:0:0:
192,192,64100,128,0,64243:0:0:0:0:
448,192,64243,128,2,64386:0:0:0:0:
64,192,64386,1,8,0:0:0:0:
192,192,64457,1,8,0:0:0:0:
320,192,64529,1,2,0:0:0:0:
64,192,64672,128,8,64814:0:0:0:0:
192,192,64672,1,4,0:0:0:0:
320,192,64814,128,0,64957:0:0:0:70:tom2.wav
192,192,64957,128,0,65100:0:0:0:70:tom4.wav
320,192,65100,1,4,0:0:0:0:
448,192,65100,128,2,65386:0:0:0:0:
192,192,65386,1,2,0:0:0:0:
64,192,65529,1,8,0:0:0:0:
192,192,65600,1,8,0:0:0:0:
320,192,65672,1,8,0:0:0:0:
448,192,65743,1,8,0:0:0:0:
192,192,65814,1,2,0:0:0:0:
320,192,65886,1,2,0:0:0:0:
64,192,65957,1,2,0:0:0:0:
192,192,66029,1,2,0:0:0:0:
320,192,66100,1,12,0:0:0:0:
448,192,66100,1,0,0:0:0:70:wind.wav
192,192,66243,1,2,0:0:0:0:
320,192,66386,1,8,0:0:0:0:
192,192,66457,1,8,0:0:0:0:
64,192,66529,1,0,0:0:0:70:tom1.wav
192,192,66672,1,0,0:0:0:70:tom3.wav
320,192,66743,1,0,0:0:0:70:tom4.wav
64,192,66814,1,2,0:0:0:0:
448,192,66814,128,4,67100:0:0:0:0:
192,192,67100,1,2,0:0:0:0:
320,192,67172,1,2,0:0:0:0:
64,192,67243,1,8,0:0:0:0:
448,192,67243,1,0,0:0:0:0:
192,192,67386,1,2,0:0:0:0:
320,192,67529,1,4,0:0:0:0:
448,192,67529,1,8,0:0:0:0:
64,192,67672,1,2,0:0:0:0:
192,192,67672,1,0,0:0:0:0:
448,192,67814,1,8,0:0:0:0:
320,192,67886,1,8,0:0:0:0:
192,192,67957,1,8,0:0:0:0:
64,192,68029,1,8,0:0:0:0:
320,192,68100,1,2,0:0:0:0:
448,192,68243,1,2,0:0:0:0:
320,192,68314,1,2,0:0:0:0:
64,192,68386,1,4,0:0:0:0:
192,192,68386,1,8,0:0:0:0:
320,192,68529,1,2,0:0:0:0:
192,192,68600,1,0,0:0:0:0:
64,192,68672,1,8,0:0:0:0:
448,192,68672,1,4,0:0:0:0:
192,192,68814,1,8,0:0:0:0:
320,192,68886,1,8,0:0:0:0:
64,192,68957,1,8,0:0:0:0:
192,192,69029,1,8,0:0:0:0:
320,192,69100,1,8,0:0:0:0:
448,192,69100,1,0,0:0:0:0:
64,192,69243,1,2,0:0:0:0:
192,192,69243,1,0,0:0:0:0:
320,192,69457,1,2,0:0:0:0:
448,192,69457,1,0,0:0:0:0:
64,192,69672,1,2,0:0:0:0:
192,192,69672,1,0,0:0:0:0:
192,192,69814,1,2,0:0:0:0:
448,192,69814,1,0,0:0:0:0:
64,192,70029,1,2,0:0:0:0:
320,192,70029,1,0,0:0:0:0:
64,192,70243,1,2,0:0:0:0:
448,192,70243,1,0,0:0:0:0:
64,192,70672,1,4,0:0:0:0:
192,192,70672,1,2,0:0:0:0:
448,192,70672,1,0,0:0:0:0:
64,192,70814,128,0,71029:0:0:0:0:
320,192,70957,1,2,0:0:0:0:
192,192,71029,1,2,0:0:0:0:
64,192,71100,1,2,0:0:0:0:
448,192,71172,1,2,0:0:0:0:
192,192,71243,1,8,0:0:0:0:
320,192,71314,1,0,0:0:0:0:
64,192,71386,1,4,0:0:0:0:
448,192,71386,128,2,71672:0:0:0:0:
64,192,71672,1,2,0:0:0:0:
192,192,71672,1,0,0:0:0:0:
320,192,71814,1,8,0:0:0:0:
192,192,71886,1,8,0:0:0:0:
64,192,71957,1,2,0:0:0:0:
192,192,72100,1,8,0:0:0:0:
320,192,72172,1,8,0:0:0:0:
448,192,72243,1,0,0:0:0:70:tom2.wav
320,192,72386,1,10,0:0:0:0:
192,192,72457,1,0,0:0:0:0:
64,192,72529,1,0,0:0:0:0:
448,192,72672,1,14,0:0:0:0:
320,192,72743,1,8,0:0:0:0:
64,192,72814,1,8,0:0:0:0:
192,192,72886,1,8,0:0:0:0:
448,192,72957,1,10,0:0:0:0:
320,192,73029,1,8,0:0:0:0:
64,192,73100,1,8,0:0:0:0:
192,192,73172,1,8,0:0:0:0:
320,192,73243,1,10,0:0:0:0:
448,192,73314,1,8,0:0:0:0:
64,192,73386,1,8,0:0:0:0:
192,192,73386,1,0,0:0:0:0:
64,192,73672,1,4,0:0:0:0:
320,192,73672,1,2,0:0:0:0:
448,192,73672,128,0,74100:0:0:0:0:
64,192,74100,128,0,74386:0:0:0:0:
192,192,74386,128,0,74672:0:0:0:0:
320,192,74672,128,0,74957:0:0:0:70:LR_Clap Loud Long.wav
448,192,74672,1,0,0:0:0:0:
64,192,74957,1,6,0:0:0:0:
192,192,74957,1,0,0:0:0:70:tick02_edit.wav
320,192,75243,1,0,0:0:0:70:tick02_edit.wav
192,192,75529,1,0,0:0:0:70:tick02_edit.wav
320,192,75814,1,0,0:0:0:70:tick02_edit.wav
192,192,76100,1,2,0:0:0:0:
320,192,76195,1,0,0:0:0:0:
64,192,76291,1,0,0:0:0:0:
192,192,76386,1,0,0:0:0:0:
448,192,76481,1,0,0:0:0:0:
320,192,76576,1,0,0:0:0:0:
64,192,76672,1,0,0:0:0:0:
192,192,76672,1,0,0:0:0:0:
320,192,76957,1,2,0:0:0:0:
192,192,77052,1,0,0:0:0:0:
64,192,77148,1,0,0:0:0:0:
320,192,77243,1,0,0:0:0:0:
448,192,77243,1,0,0:0:0:0:
192,192,77529,1,0,0:0:0:70:tick02_edit.wav
320,192,77672,1,0,0:0:0:0:
192,192,77814,1,0,0:0:0:70:tick02_edit.wav
448,192,78100,1,2,0:0:0:0:
192,192,78386,1,2,0:0:0:0:
320,192,78672,1,0,0:0:0:0:
192,192,78814,1,2,0:0:0:0:
448,192,78957,1,0,0:0:0:0:
320,192,79100,1,0,0:0:0:0:
192,192,79243,1,2,0:0:0:0:
64,192,79529,1,6,0:0:0:0:
448,192,79529,1,0,0:0:0:70:tick02_edit.wav
320,192,79814,1,0,0:0:0:70:tick02_edit.wav
192,192,80100,1,0,0:0:0:70:tick02_edit.wav
320,192,80386,1,0,0:0:0:70:tick02_edit.wav
64,192,80672,1,2,0:0:0:0:
320,192,80767,1,0,0:0:0:0:
192,192,80862,1,0,0:0:0:0:
448,192,80957,1,0,0:0:0:0:
320,192,81052,1,0,0:0:0:0:
64,192,81148,1,0,0:0:0:0:
192,192,81243,1,0,0:0:0:0:
320,192,81338,1,0,0:0:0:0:
448,192,81433,1,0,0:0:0:0:
192,192,81529,1,2,0:0:0:0:
320,192,81624,1,0,0:0:0:0:
64,192,81719,1,0,0:0:0:0:
192,192,81814,1,0,0:0:0:0:
448,192,81814,1,0,0:0:0:0:
64,192,82100,1,2,0:0:0:0:
192,192,82172,1,0,0:0:0:0:
320,192,82243,1,0,0:0:0:0:
448,192,82314,1,0,0:0:0:0:
64,192,82386,1,2,0:0:0:0:
192,192,82457,1,0,0:0:0:0:
320,192,82529,1,0,0:0:0:0:
192,192,82600,1,0,0:0:0:0:
448,192,82672,1,2,0:0:0:0:
320,192,82743,1,0,0:0:0:0:
192,192,82814,1,0,0:0:0:0:
64,192,82886,1,0,0:0:0:0:
320,192,82957,1,2,0:0:0:0:
448,192,82957,1,4,0:0:0:0:
192,192,83100,1,0,0:0:0:0:
320,192,83172,1,0,0:0:0:0:
448,192,83243,1,0,0:0:0:0:
64,192,83314,1,0,0:0:0:0:
320,192,83386,1,2,0:0:0:0:
192,192,83457,1,0,0:0:0:0:
64,192,83529,1,8,0:0:0:0:
448,192,83529,1,0,0:0:0:0:
192,192,83672,1,2,0:0:0:0:
320,192,83743,1,2,0:0:0:0:
448,192,83814,1,8,0:0:0:0:
64,192,83886,1,8,0:0:0:0:
320,192,83957,1,0,0:0:0:70:tom3.wav
192,192,84029,1,0,0:0:0:70:tom4.wav
64,192,84100,1,2,0:0:0:0:
448,192,84100,1,4,0:0:0:0:
320,192,84243,1,0,0:0:0:0:
192,192,84314,1,0,0:0:0:0:
448,192,84386,1,8,0:0:0:0:
320,192,84457,1,0,0:0:0:0:
64,192,84529,1,0,0:0:0:0:
192,192,84600,1,0,0:0:0:0:
320,192,84672,1,0,0:0:0:0:
448,192,84767,1,0,0:0:0:0:
192,192,84862,1,0,0:0:0:0:
320,192,84957,1,8,0:0:0:0:
64,192,85052,1,0,0:0:0:0:
192,192,85148,1,0,0:0:0:0:
448,192,85243,1,0,0:0:0:0:
320,192,85338,1,0,0:0:0:0:
192,192,85433,1,0,0:0:0:0:
64,192,85529,1,8,0:0:0:0:
320,192,85624,1,0,0:0:0:0:
192,192,85719,1,0,0:0:0:0:
448,192,85814,1,0,0:0:0:0:
320,192,85886,1,0,0:0:0:0:
192,192,85957,1,2,0:0:0:0:
64,192,86029,1,0,0:0:0:0:
448,192,86100,1,8,0:0:0:0:
192,192,86243,1,0,0:0:0:0:
320,192,86314,1,0,0:0:0:0:
64,192,86386,1,2,0:0:0:0:
448,192,86386,1,4,0:0:0:0:
320,192,86529,1,0,0:0:0:0:
192,192,86600,1,0,0:0:0:0:
448,192,86672,1,8,0:0:0:0:
320,192,86743,1,0,0:0:0:0:
64,192,86814,1,0,0:0:0:0:
192,192,86886,1,0,0:0:0:0:
320,192,86957,1,0,0:0:0:0:
192,192,87052,1,0,0:0:0:0:
448,192,87148,1,0,0:0:0:0:
64,192,87243,1,8,0:0:0:0:
320,192,87243,1,4,0:0:0:0:
192,192,87314,1,0,0:0:0:0:
320,192,87386,1,2,0:0:0:0:
448,192,87457,1,2,0:0:0:0:
64,192,87529,1,8,0:0:0:0:
192,192,87529,1,4,0:0:0:0:
320,192,87672,1,0,0:0:0:0:
192,192,87743,1,0,0:0:0:0:
64,192,87814,1,0,0:0:0:70:tom1.wav
448,192,87886,1,0,0:0:0:70:tom2.wav
192,192,87957,1,0,0:0:0:70:tom3.wav
320,192,88029,1,0,0:0:0:70:tom4.wav
448,192,88100,1,2,0:0:0:0:
64,192,88195,1,2,0:0:0:0:
448,192,88291,1,2,0:0:0:0:
64,192,88386,128,8,88672:0:0:0:0:
192,192,88386,1,0,0:0:0:0:
320,192,88529,1,0,0:0:0:0:
192,192,88672,1,2,0:0:0:0:
448,192,88672,128,4,88957:0:0:0:0:
64,192,88957,1,8,0:0:0:0:
192,192,88957,1,0,0:0:0:0:
320,192,89052,1,8,0:0:0:0:
448,192,89052,1,0,0:0:0:0:
64,192,89148,1,8,0:0:0:0:
192,192,89148,1,0,0:0:0:0:
320,192,89243,1,2,0:0:0:0:
448,192,89243,1,0,0:0:0:0:
320,192,89433,1,8,0:0:0:0:
448,192,89433,1,0,0:0:0:0:
64,192,89529,1,8,0:0:0:0:
192,192,89529,1,0,0:0:0:0:
320,192,89624,1,8,0:0:0:0:
448,192,89624,1,0,0:0:0:0:
64,192,89719,1,8,0:0:0:0:
192,192,89719,1,0,0:0:0:0:
320,192,89814,1,2,0:0:0:0:
448,192,89814,1,4,0:0:0:0:
64,192,90005,1,8,0:0:0:0:
192,192,90005,1,0,0:0:0:0:
320,192,90100,1,2,0:0:0:0:
448,192,90100,1,0,0:0:0:0:
64,192,90195,1,2,0:0:0:0:
192,192,90291,1,2,0:0:0:0:
320,192,90291,1,0,0:0:0:0:
64,192,90386,1,2,0:0:0:0:
448,192,90386,1,0,0:0:0:0:
192,192,90457,1,0,0:0:0:0:
320,192,90529,1,0,0:0:0:0:
448,192,90600,1,0,0:0:0:0:
192,192,90672,1,2,0:0:0:0:
320,192,90743,1,2,0:0:0:0:
64,192,90814,1,0,0:0:0:0:
192,192,90886,1,0,0:0:0:0:
320,192,90957,1,2,0:0:0:0:
448,192,90957,1,4,0:0:0:0:
192,192,91029,1,0,0:0:0:0:
320,192,91100,1,0,0:0:0:0:
448,192,91172,1,0,0:0:0:0:
64,192,91243,1,8,0:0:0:0:
192,192,91243,1,0,0:0:0:0:
320,192,91386,1,0,0:0:0:0:
192,192,91457,1,0,0:0:0:0:
320,192,91529,1,2,0:0:0:0:
192,192,91600,1,0,0:0:0:0:
64,192,91672,1,2,0:0:0:0:
448,192,91672,1,0,0:0:0:0:
192,192,91814,1,0,0:0:0:0:
320,192,91886,1,0,0:0:0:0:
64,192,91957,1,4,0:0:0:0:
192,192,91957,1,8,0:0:0:0:
320,192,92029,1,0,0:0:0:0:
448,192,92100,1,0,0:0:0:0:
192,192,92243,1,2,0:0:0:0:
320,192,92314,1,2,0:0:0:0:
64,192,92386,1,4,0:0:0:0:
448,192,92386,1,8,0:0:0:0:
192,192,92457,1,0,0:0:0:0:
320,192,92529,1,2,0:0:0:0:
64,192,92600,1,2,0:0:0:0:
192,192,92672,1,8,0:0:0:0:
448,192,92672,1,0,0:0:0:0:
64,192,92886,1,2,0:0:0:0:
320,192,92886,1,0,0:0:0:0:
192,192,93100,1,2,0:0:0:0:
320,192,93100,1,0,0:0:0:0:
64,192,93243,1,4,0:0:0:0:
448,192,93243,1,2,0:0:0:0:
320,192,93314,1,0,0:0:0:0:
192,192,93386,1,0,0:0:0:0:
64,192,93457,1,0,0:0:0:0:
448,192,93529,1,10,0:0:0:0:
192,192,93600,1,8,0:0:0:0:
320,192,93672,1,0,0:0:0:0:
448,192,93743,1,8,0:0:0:0:
64,192,93814,1,10,0:0:0:0:
192,192,93886,1,8,0:0:0:0:
448,192,93957,1,8,0:0:0:0:
320,192,94029,1,8,0:0:0:0:
64,192,94100,1,10,0:0:0:0:
192,192,94172,1,8,0:0:0:0:
320,192,94243,1,8,0:0:0:0:
448,192,94314,1,8,0:0:0:0:
192,192,94386,1,10,0:0:0:0:
320,192,94457,1,8,0:0:0:0:
192,192,94529,1,8,0:0:0:0:
320,192,94600,1,8,0:0:0:0:
64,192,94672,1,10,0:0:0:0:
448,192,94743,1,8,0:0:0:0:
64,192,94814,1,8,0:0:0:0:
448,192,94886,1,8,0:0:0:0:
192,192,94957,1,10,0:0:0:0:
320,192,95029,1,8,0:0:0:0:
64,192,95100,1,0,0:0:0:70:tom1.wav
448,192,95172,1,0,0:0:0:70:tom2.wav
192,192,95243,1,10,0:0:0:0:
320,192,95314,1,8,0:0:0:0:
64,192,95386,1,0,0:0:0:70:tom3.wav
448,192,95457,1,0,0:0:0:70:tom4.wav
64,192,97529,1,0,0:0:0:0:
192,192,97600,1,0,0:0:0:0:
320,192,97672,1,0,0:0:0:0:
448,192,97743,1,0,0:0:0:0:
64,192,97814,1,0,0:0:0:0:
320,192,97957,1,0,0:0:0:0:
192,192,98029,1,0,0:0:0:0:
64,192,98100,1,0,0:0:0:0:
192,192,98243,1,0,0:0:0:0:
320,192,98314,1,0,0:0:0:0:
448,192,98386,1,0,0:0:0:0:
64,192,98457,1,0,0:0:0:0:
320,192,98529,1,0,0:0:0:0:
192,192,98600,1,0,0:0:0:0:
64,192,98672,1,0,0:0:0:0:
448,192,98814,1,0,0:0:0:0:
192,192,99100,1,0,0:0:0:0:
320,192,99243,1,0,0:0:0:0:
64,192,99386,1,0,0:0:0:0:
448,192,99814,1,0,0:0:0:0:
320,192,99886,1,0,0:0:0:0:
192,192,99957,1,0,0:0:0:0:
64,192,100029,1,0,0:0:0:0:
448,192,100100,1,0,0:0:0:0:
192,192,100243,1,0,0:0:0:0:
320,192,100314,1,0,0:0:0:0:
448,192,100386,1,0,0:0:0:0:
64,192,100529,1,0,0:0:0:0:
192,192,100600,1,0,0:0:0:0:
320,192,100672,1,0,0:0:0:0:
192,192,100743,1,0,0:0:0:0:
448,192,100814,1,0,0:0:0:0:
320,192,100886,1,0,0:0:0:0:
192,192,100957,1,0,0:0:0:0:
448,192,101100,1,0,0:0:0:0:
64,192,101386,1,0,0:0:0:0:
192,192,101672,1,0,0:0:0:0:
320,192,101957,1,0,0:0:0:0:
64,192,102100,1,0,0:0:0:0:
320,192,102243,1,0,0:0:0:0:
192,192,102386,1,0,0:0:0:0:
320,192,102672,1,0,0:0:0:0:
448,192,102814,1,0,0:0:0:0:
64,192,102957,1,0,0:0:0:0:
448,192,103100,1,0,0:0:0:0:
320,192,103243,1,0,0:0:0:0:
192,192,103386,1,0,0:0:0:0:
64,192,103529,1,0,0:0:0:0:
192,192,103672,1,0,0:0:0:0:
320,192,103814,1,0,0:0:0:0:
448,192,103957,1,0,0:0:0:0:
192,192,104243,1,0,0:0:0:0:
320,192,104386,1,0,0:0:0:0:
64,192,104529,1,0,0:0:0:0:
192,192,104672,1,0,0:0:0:0:
448,192,104814,1,0,0:0:0:0:
320,192,104886,1,2,0:0:0:0:
64,192,104957,1,2,0:0:0:0:
192,192,105029,1,2,0:0:0:0:
448,192,105100,1,2,0:0:0:0:
320,192,105172,1,2,0:0:0:0:
192,192,105243,1,2,0:0:0:0:
64,192,105314,1,2,0:0:0:0:
320,192,105386,1,2,0:0:0:0:
192,192,105457,1,2,0:0:0:0:
448,192,105529,1,2,0:0:0:0:
320,192,105600,1,2,0:0:0:0:
64,192,105672,1,2,0:0:0:0:
192,192,105743,1,2,0:0:0:0:
320,192,105814,1,2,0:0:0:0:
64,192,105957,1,0,0:0:0:0:
448,192,106100,1,0,0:0:0:0:
192,192,106243,1,0,0:0:0:0:
320,192,107100,1,2,0:0:0:0:
192,192,107172,1,2,0:0:0:0:
64,192,107243,1,4,0:0:0:0:
448,192,107243,1,8,0:0:0:0:
192,192,107386,1,0,0:0:0:0:
320,192,107457,1,0,0:0:0:0:
64,192,107529,1,2,0:0:0:0:
192,192,107600,1,2,0:0:0:0:
448,192,107672,1,2,0:0:0:0:
320,192,107743,1,2,0:0:0:0:
64,192,107814,1,8,0:0:0:0:
192,192,107814,1,0,0:0:0:0:
64,192,107957,1,2,0:0:0:0:
320,192,107957,1,4,0:0:0:0:
448,192,107957,128,0,108243:0:0:0:0:
64,192,108243,1,2,0:0:0:0:
192,192,108314,1,2,0:0:0:0:
320,192,108386,1,8,0:0:0:0:
448,192,108386,1,4,0:0:0:0:
320,192,108529,1,2,0:0:0:0:
64,192,108672,1,8,0:0:0:0:
448,192,108672,1,0,0:0:0:0:
192,192,108767,1,8,0:0:0:0:
448,192,108862,1,8,0:0:0:0:
64,192,108957,1,8,0:0:0:0:
320,192,109052,1,8,0:0:0:0:
64,192,109148,1,8,0:0:0:0:
448,192,109243,1,2,0:0:0:0:
320,192,109314,1,2,0:0:0:0:
64,192,109386,1,2,0:0:0:0:
192,192,109457,1,2,0:0:0:0:
320,192,109529,1,4,0:0:0:0:
448,192,109529,1,2,0:0:0:0:
192,192,109624,1,0,0:0:0:0:
320,192,109719,1,0,0:0:0:0:
64,192,109814,1,2,0:0:0:0:
192,192,109886,1,0,0:0:0:0:
448,192,109957,1,2,0:0:0:0:
320,192,110029,1,2,0:0:0:0:
192,192,110100,1,0,0:0:0:0:
64,192,110243,128,2,110529:0:0:0:0:
320,192,110243,1,4,0:0:0:0:
448,192,110243,1,0,0:0:0:0:
320,192,110529,1,2,0:0:0:0:
192,192,110600,1,0,0:0:0:0:
64,192,110672,1,8,0:0:0:0:
448,192,110672,1,4,0:0:0:0:
320,192,110814,1,2,0:0:0:0:
64,192,110957,1,8,0:0:0:0:
192,192,110957,1,0,0:0:0:0:
448,192,111100,1,2,0:0:0:0:
64,192,111243,1,8,0:0:0:0:
320,192,111243,1,0,0:0:0:0:
192,192,111314,1,8,0:0:0:0:
320,192,111386,1,0,0:0:0:70:tom1.wav
448,192,111457,1,0,0:0:0:70:tom2.wav
64,192,111529,1,2,0:0:0:0:
192,192,111529,1,4,0:0:0:0:
320,192,111672,1,0,0:0:0:0:
64,192,111814,1,8,0:0:0:0:
448,192,111814,1,0,0:0:0:0:
192,192,111957,1,2,0:0:0:0:
320,192,111957,1,0,0:0:0:0:
64,192,112100,1,0,0:0:0:0:
320,192,112243,1,2,0:0:0:0:
448,192,112243,1,0,0:0:0:0:
64,192,112386,1,8,0:0:0:0:
192,192,112386,1,0,0:0:0:0:
320,192,112529,1,2,0:0:0:0:
448,192,112529,1,0,0:0:0:0:
64,192,112672,1,8,0:0:0:0:
192,192,112672,1,4,0:0:0:0:
320,192,112814,1,2,0:0:0:0:
448,192,112886,1,2,0:0:0:0:
192,192,112957,1,2,0:0:0:0:
320,192,113029,1,2,0:0:0:0:
64,192,113100,1,8,0:0:0:0:
448,192,113100,128,4,113386:0:0:0:0:
320,192,113386,1,8,0:0:0:0:
192,192,113529,1,0,0:0:0:70:tom1.wav
320,192,113600,1,0,0:0:0:70:tom1.wav
64,192,113672,1,0,0:0:0:70:tom2.wav
192,192,113743,1,0,0:0:0:70:tom2.wav
320,192,113814,1,2,0:0:0:0:
448,192,113814,1,4,0:0:0:0:
192,192,113957,1,0,0:0:0:0:
320,192,114029,1,0,0:0:0:0:
64,192,114100,1,2,0:0:0:0:
448,192,114100,1,8,0:0:0:0:
192,192,114243,1,2,0:0:0:0:
320,192,114243,1,8,0:0:0:0:
64,192,114386,1,2,0:0:0:0:
192,192,114386,1,8,0:0:0:0:
320,192,114529,1,2,0:0:0:0:
448,192,114529,1,8,0:0:0:0:
64,192,114672,1,2,0:0:0:0:
192,192,114672,1,8,0:0:0:0:
320,192,114814,1,2,0:0:0:0:
448,192,114814,1,8,0:0:0:0:
64,192,114957,1,2,0:0:0:0:
448,192,114957,1,8,0:0:0:0:
192,192,115100,1,2,0:0:0:0:
320,192,115100,1,8,0:0:0:0:
64,192,115243,1,2,0:0:0:0:
448,192,115243,1,8,0:0:0:0:
192,192,115386,1,8,0:0:0:0:
320,192,115386,1,2,0:0:0:0:
64,192,115529,1,8,0:0:0:0:
192,192,115600,1,0,0:0:0:70:tom1.wav
448,192,115672,1,0,0:0:0:70:tom2.wav
320,192,115743,1,0,0:0:0:70:tom3.wav
64,192,115814,1,0,0:0:0:70:LR_Clap Loud Long.wav
192,192,115814,1,0,0:0:0:0:
64,192,116100,1,6,0:0:0:0:
448,192,116100,1,0,0:0:0:70:wind.wav
320,192,116172,1,0,0:0:0:0:
192,192,116243,1,0,0:0:0:0:
64,192,116314,1,0,0:0:0:0:
320,192,116386,1,8,0:0:0:0:
448,192,116386,1,0,0:0:0:0:
192,192,116529,1,2,0:0:0:0:
320,192,116600,1,2,0:0:0:0:
64,192,116672,1,2,0:0:0:0:
448,192,116672,1,0,0:0:0:0:
192,192,116743,1,2,0:0:0:0:
448,192,116814,1,2,0:0:0:0:
320,192,116886,1,2,0:0:0:0:
64,192,116957,1,8,0:0:0:0:
192,192,116957,1,0,0:0:0:0:
64,192,117100,1,2,0:0:0:0:
320,192,117100,1,4,0:0:0:0:
448,192,117100,128,0,117314:0:0:0:0:
64,192,117314,1,0,0:0:0:0:
192,192,117386,1,2,0:0:0:0:
320,192,117457,1,2,0:0:0:0:
64,192,117529,1,4,0:0:0:0:
448,192,117529,1,8,0:0:0:0:
320,192,117600,1,0,0:0:0:0:
192,192,117672,1,2,0:0:0:0:
64,192,117743,1,0,0:0:0:0:
320,192,117814,1,8,0:0:0:0:
448,192,117814,1,0,0:0:0:0:
64,192,117957,1,8,0:0:0:0:
192,192,117957,1,0,0:0:0:0:
320,192,118100,1,8,0:0:0:0:
448,192,118100,1,0,0:0:0:0:
64,192,118172,1,8,0:0:0:0:
192,192,118243,1,8,0:0:0:0:
320,192,118314,1,8,0:0:0:0:
64,192,118386,128,2,118672:0:0:0:0:
448,192,118386,1,4,0:0:0:0:
320,192,118672,1,8,0:0:0:0:
448,192,118672,1,0,0:0:0:0:
64,192,118814,128,2,118957:0:0:0:0:
192,192,118814,128,0,118957:0:0:0:70:cymbal.wav
192,192,119100,128,2,119243:0:0:0:0:
320,192,119100,128,0,119243:0:0:0:70:cymbal.wav
64,192,119386,1,2,0:0:0:0:
320,192,119386,1,4,0:0:0:0:
448,192,119386,128,0,120100:0:0:0:0:
64,192,119672,1,2,0:0:0:0:
192,192,119743,1,2,0:0:0:0:
64,192,119814,1,8,0:0:0:0:
320,192,119814,1,0,0:0:0:0:
192,192,119957,1,0,0:0:0:0:
64,192,120100,1,8,0:0:0:0:
192,192,120100,1,0,0:0:0:0:
320,192,120243,1,2,0:0:0:0:
192,192,120314,1,0,0:0:0:0:
64,192,120386,1,8,0:0:0:0:
448,192,120386,1,0,0:0:0:0:
320,192,120457,1,8,0:0:0:0:
192,192,120529,1,2,0:0:0:0:
64,192,120672,1,2,0:0:0:0:
320,192,120672,128,4,120957:0:0:0:0:
448,192,120672,1,0,0:0:0:0:
64,192,120957,1,8,0:0:0:0:
192,192,120957,1,0,0:0:0:0:
320,192,121100,1,0,0:0:0:70:tom2.wav
192,192,121172,1,0,0:0:0:70:tom3.wav
64,192,121243,1,2,0:0:0:0:
448,192,121243,1,0,0:0:0:0:
192,192,121386,1,2,0:0:0:0:
64,192,121529,1,8,0:0:0:0:
320,192,121529,1,0,0:0:0:0:
64,192,121672,1,2,0:0:0:0:
192,192,121672,128,4,121957:0:0:0:0:
448,192,121672,1,0,0:0:0:0:
320,192,121957,1,2,0:0:0:0:
448,192,121957,1,0,0:0:0:0:
64,192,122100,1,8,0:0:0:0:
448,192,122100,1,0,0:0:0:0:
192,192,122172,1,0,0:0:0:0:
320,192,122243,1,0,0:0:0:0:
448,192,122314,1,0,0:0:0:0:
64,192,122386,1,2,0:0:0:0:
192,192,122386,1,0,0:0:0:0:
320,192,122529,1,2,0:0:0:0:
192,192,122600,1,0,0:0:0:0:
64,192,122672,1,8,0:0:0:0:
448,192,122672,1,0,0:0:0:0:
192,192,122814,1,0,0:0:0:0:
320,192,122886,1,0,0:0:0:0:
64,192,122957,128,4,123243:0:0:0:0:
448,192,122957,1,2,0:0:0:0:
192,192,123243,1,8,0:0:0:0:
448,192,123243,1,0,0:0:0:0:
448,192,123386,128,0,123672:0:0:0:70:tom2.wav
320,192,123457,1,0,0:0:0:70:tom3.wav
192,192,123529,1,0,0:0:0:70:tom4.wav
64,192,123672,1,2,0:0:0:0:
192,192,123672,1,0,0:0:0:0:
320,192,123814,1,8,0:0:0:0:
448,192,123814,1,0,0:0:0:0:
64,192,123957,1,4,0:0:0:0:
192,192,123957,128,2,124529:0:0:0:0:
448,192,123957,1,0,0:0:0:0:
64,192,124243,1,2,0:0:0:0:
320,192,124243,1,0,0:0:0:0:
64,192,124386,1,8,0:0:0:0:
448,192,124386,1,0,0:0:0:0:
320,192,124529,1,2,0:0:0:0:
448,192,124529,1,0,0:0:0:0:
64,192,124672,1,8,0:0:0:0:
320,192,124672,1,0,0:0:0:0:
64,192,124814,1,8,0:0:0:0:
192,192,124814,1,0,0:0:0:0:
320,192,124886,1,8,0:0:0:0:
448,192,124957,1,8,0:0:0:0:
64,192,125029,1,8,0:0:0:0:
320,192,125100,1,8,0:0:0:0:
192,192,125172,1,8,0:0:0:0:
64,192,125243,128,4,125529:0:0:0:0:
448,192,125243,1,2,0:0:0:0:
320,192,125529,1,2,0:0:0:0:
448,192,125529,1,8,0:0:0:0:
320,192,125672,1,2,0:0:0:0:
448,192,125672,1,8,0:0:0:0:
64,192,125814,1,2,0:0:0:0:
192,192,125814,1,8,0:0:0:0:
64,192,125957,1,2,0:0:0:0:
192,192,125957,1,8,0:0:0:0:
320,192,126100,1,2,0:0:0:0:
448,192,126100,1,8,0:0:0:0:
192,192,126243,1,2,0:0:0:0:
320,192,126243,1,8,0:0:0:0:
64,192,126386,1,2,0:0:0:0:
192,192,126386,1,8,0:0:0:0:
64,192,126529,1,2,0:0:0:0:
192,192,126529,1,8,0:0:0:0:
320,192,126672,1,2,0:0:0:0:
448,192,126672,1,8,0:0:0:0:
320,192,126814,1,2,0:0:0:0:
448,192,126814,1,8,0:0:0:0:
64,192,126957,1,2,0:0:0:0:
192,192,126957,1,8,0:0:0:0:
192,192,127100,1,2,0:0:0:0:
320,192,127100,1,8,0:0:0:0:
320,192,127243,1,2,0:0:0:0:
448,192,127243,1,8,0:0:0:0:
64,192,127386,1,2,0:0:0:0:
192,192,127386,1,8,0:0:0:0:
64,192,127529,1,4,0:0:0:0:
320,192,127529,1,8,0:0:0:0:
448,192,127529,128,0,127814:0:0:0:0:
64,192,127814,1,2,0:0:0:0:
192,192,127814,1,8,0:0:0:0:
320,192,127886,1,8,0:0:0:0:
192,192,127957,1,8,0:0:0:0:
64,192,128029,1,8,0:0:0:0:
320,192,128100,1,2,0:0:0:0:
448,192,128100,1,8,0:0:0:0:
192,192,128172,1,8,0:0:0:0:
320,192,128243,1,8,0:0:0:0:
64,192,128314,1,8,0:0:0:0:
192,192,128386,1,2,0:0:0:0:
448,192,128386,1,8,0:0:0:0:
320,192,128457,1,8,0:0:0:0:
192,192,128529,1,8,0:0:0:0:
64,192,128600,1,8,0:0:0:0:
320,192,128672,1,2,0:0:0:0:
448,192,128672,1,4,0:0:0:0:
192,192,129100,128,0,129814:0:0:0:0:
64,192,129529,128,2,129814:0:0:0:0:
320,192,129814,1,2,0:0:0:0:
448,192,129814,1,4,0:0:0:0:
192,192,129910,1,0,0:0:0:0:
320,192,130005,1,0,0:0:0:0:
64,192,130100,1,8,0:0:0:0:
448,192,130100,1,0,0:0:0:0:
320,192,130195,1,0,0:0:0:0:
192,192,130291,1,0,0:0:0:0:
64,192,130386,1,2,0:0:0:0:
448,192,130386,1,0,0:0:0:0:
320,192,130481,1,0,0:0:0:0:
192,192,130576,1,0,0:0:0:0:
64,192,130672,1,8,0:0:0:0:
448,192,130672,1,0,0:0:0:0:
192,192,130767,1,0,0:0:0:0:
320,192,130862,1,0,0:0:0:0:
64,192,130957,1,4,0:0:0:0:
192,192,130957,1,2,0:0:0:0:
448,192,131052,1,2,0:0:0:0:
320,192,131148,1,2,0:0:0:0:
192,192,131243,1,8,0:0:0:0:
448,192,131243,1,0,0:0:0:0:
320,192,131338,1,0,0:0:0:0:
192,192,131433,1,0,0:0:0:0:
64,192,131529,1,2,0:0:0:0:
448,192,131529,1,0,0:0:0:0:
192,192,131624,1,0,0:0:0:0:
320,192,131719,1,0,0:0:0:0:
64,192,131814,1,8,0:0:0:0:
448,192,131814,1,0,0:0:0:0:
192,192,131910,1,0,0:0:0:0:
320,192,132005,1,0,0:0:0:0:
64,192,132100,1,2,0:0:0:0:
192,192,132100,1,4,0:0:0:0:
320,192,132243,1,0,0:0:0:0:
192,192,132314,1,0,0:0:0:0:
64,192,132386,1,8,0:0:0:0:
448,192,132386,1,0,0:0:0:0:
192,192,132529,1,0,0:0:0:0:
320,192,132600,1,0,0:0:0:0:
64,192,132672,1,2,0:0:0:0:
448,192,132672,1,0,0:0:0:0:
192,192,132743,1,2,0:0:0:0:
320,192,132814,1,2,0:0:0:0:
64,192,132886,1,2,0:0:0:0:
192,192,132957,1,8,0:0:0:0:
448,192,132957,1,0,0:0:0:0:
320,192,133100,1,4,0:0:0:0:
448,192,133100,1,2,0:0:0:0:
192,192,133172,1,0,0:0:0:0:
64,192,133243,1,0,0:0:0:0:
448,192,133386,1,2,0:0:0:0:
320,192,133457,1,2,0:0:0:0:
64,192,133529,1,8,0:0:0:0:
192,192,133529,1,0,0:0:0:70:cymbal.wav
64,192,133672,1,2,0:0:0:0:
192,192,133743,1,2,0:0:0:0:
320,192,133814,1,8,0:0:0:0:
448,192,133814,1,0,0:0:0:70:cymbal.wav
192,192,133957,1,2,0:0:0:0:
320,192,134029,1,2,0:0:0:0:
64,192,134100,1,8,0:0:0:0:
448,192,134100,1,0,0:0:0:70:cymbal.wav
320,192,134243,1,2,0:0:0:0:
192,192,134314,1,2,0:0:0:0:
64,192,134386,1,2,0:0:0:0:
448,192,134386,1,4,0:0:0:0:
320,192,134481,1,0,0:0:0:0:
192,192,134576,1,0,0:0:0:0:
320,192,134672,1,2,0:0:0:0:
448,192,134672,1,8,0:0:0:0:
64,192,134767,1,0,0:0:0:0:
192,192,134862,1,0,0:0:0:0:
64,192,134957,1,2,0:0:0:0:
320,192,134957,1,0,0:0:0:0:
448,192,135052,1,0,0:0:0:0:
192,192,135148,1,0,0:0:0:0:
320,192,135243,1,2,0:0:0:0:
448,192,135243,1,8,0:0:0:0:
64,192,135338,1,0,0:0:0:0:
320,192,135433,1,0,0:0:0:0:
64,192,135529,1,2,0:0:0:0:
192,192,135529,1,0,0:0:0:0:
448,192,135600,1,0,0:0:0:0:
320,192,135672,1,0,0:0:0:0:
192,192,135743,1,0,0:0:0:0:
64,192,135814,1,8,0:0:0:0:
448,192,135814,1,2,0:0:0:0:
192,192,135886,1,0,0:0:0:0:
320,192,135957,1,0,0:0:0:0:
448,192,136029,1,0,0:0:0:0:
64,192,136100,1,2,0:0:0:0:
192,192,136100,1,0,0:0:0:0:
320,192,136172,1,0,0:0:0:0:
448,192,136243,1,0,0:0:0:0:
64,192,136314,1,0,0:0:0:0:
192,192,136386,1,8,0:0:0:0:
448,192,136386,1,0,0:0:0:0:
320,192,136457,1,8,0:0:0:0:
64,192,136529,1,8,0:0:0:0:
192,192,136600,1,8,0:0:0:0:
320,192,136672,1,2,0:0:0:0:
448,192,136672,1,0,0:0:0:0:
64,192,136814,1,4,0:0:0:0:
192,192,136814,1,8,0:0:0:0:
448,192,136886,1,8,0:0:0:0:
320,192,136957,1,8,0:0:0:0:
192,192,137029,1,8,0:0:0:0:
64,192,137100,1,2,0:0:0:0:
448,192,137100,1,0,0:0:0:0:
320,192,137243,1,4,0:0:0:0:
448,192,137243,1,8,0:0:0:0:
64,192,137314,1,8,0:0:0:0:
192,192,137386,1,8,0:0:0:0:
320,192,137457,1,8,0:0:0:0:
64,192,137529,1,2,0:0:0:0:
448,192,137529,1,0,0:0:0:0:
64,192,137672,1,2,0:0:0:0:
192,192,137672,1,0,0:0:0:70:cymbal.wav
448,192,137672,1,0,0:0:0:0:
320,192,137957,1,0,0:0:0:0:
192,192,138100,1,0,0:0:0:0:
64,192,138243,1,0,0:0:0:0:
320,192,138386,1,8,0:0:0:0:
192,192,138457,1,8,0:0:0:0:
320,192,138529,1,8,0:0:0:0:
192,192,138600,1,8,0:0:0:0:
64,192,138672,1,0,0:0:0:70:LR_Clap Loud Long.wav
448,192,138672,1,0,0:0:0:0:
64,192,138957,1,2,0:0:0:0:
320,192,138957,1,4,0:0:0:0:
448,192,138957,1,0,0:0:0:0:
192,192,139100,1,0,0:0:0:0:
320,192,139243,1,0,0:0:0:50:tick02_edit.wav
192,192,139386,1,0,0:0:0:0:
320,192,139529,1,0,0:0:0:60:tick02_edit.wav
448,192,139672,1,0,0:0:0:0:
320,192,139814,1,0,0:0:0:60:tick02_edit.wav
192,192,139957,1,0,0:0:0:0:
320,192,140100,1,0,0:0:0:70:tick02_edit.wav
192,192,140243,1,0,0:0:0:0:
64,192,140386,1,0,0:0:0:70:tick02_edit.wav
192,192,140529,1,0,0:0:0:0:
320,192,140672,1,0,0:0:0:70:tick02_edit.wav
192,192,140814,1,0,0:0:0:0:
448,192,140957,1,0,0:0:0:70:tick02_edit.wav
320,192,141100,1,0,0:0:0:0:
64,192,141243,1,0,0:0:0:70:tick02_edit.wav
192,192,141386,1,0,0:0:0:0:
320,192,141529,1,0,0:0:0:70:tick02_edit.wav
192,192,141672,1,0,0:0:0:0:
320,192,141814,1,0,0:0:0:70:tick02_edit.wav
448,192,141957,1,0,0:0:0:0:
320,192,142100,1,0,0:0:0:70:tick02_edit.wav
192,192,142243,1,0,0:0:0:0:
64,192,142386,1,0,0:0:0:70:tick02_edit.wav
448,192,142529,1,0,0:0:0:0:
192,192,142672,1,0,0:0:0:70:tick02_edit.wav
320,192,142814,1,0,0:0:0:0:
64,192,142957,1,0,0:0:0:70:tick02_edit.wav
320,192,143100,1,0,0:0:0:0:
192,192,143243,1,0,0:0:0:70:tick02_edit.wav
448,192,143386,1,0,0:0:0:0:
