osu file format v14

[General]
AudioFilename: audio.mp3
AudioLeadIn: 0
PreviewTime: 2646
Countdown: 0
SampleSet: Soft
StackLeniency: 0.7
Mode: 0
LetterboxInBreaks: 0
WidescreenStoryboard: 1

[Editor]
DistanceSpacing: 1.2
BeatDivisor: 4
GridSize: 32
TimelineZoom: 1

[Metadata]
Title:CESKY LEAGUE OF LEGENDS SONG!!!
TitleUnicode:ČESKÝ LEAGUE OF LEGENDS SONG!!!
Artist:Mishovy silenosti
ArtistUnicode:Mishovy šílenosti
Creator:Wafu
Version:Hard
Source:
Tags:czech dota lol
BeatmapID:938402
BeatmapSetID:435578

[Difficulty]
HPDrainRate:7
CircleSize:4
OverallDifficulty:7
ApproachRate:8
SliderMultiplier:1.6
SliderTickRate:1

[Events]
//Background and Video events
Video,0,"output.avi"
0,0,"background.jpg",0,0
//Break Periods
//Storyboard Layer 0 (Background)
//Storyboard Layer 1 (Fail)
//Storyboard Layer 2 (Pass)
//Storyboard Layer 3 (Foreground)
//Storyboard Sound Samples

[TimingPoints]
2646,500,4,2,1,50,1,0

[Colours]
Combo1 : 94,176,225
Combo2 : 90,139,54
Combo3 : 223,53,66
Combo4 : 235,174,48

[HitObjects]
343,310,2646,6,0,L|422:303,2,80,10|0|8,0:0|0:0|0:0,0:0:0:0:
263,255,3396,1,0,0:0:0:0:
322,179,3646,2,0,P|329:99|308:23,1,160,8|8,0:0|0:0,0:0:0:0:
213,8,4396,1,0,0:0:0:0:
140,70,4646,6,0,L|60:74,1,80,10|0,0:0|0:0,0:0:0:0:
43,168,5146,2,0,L|122:163,1,80,8|0,0:0|0:0,0:0:0:0:
198,221,5646,1,8,0:0:0:0:
198,221,5771,2,0,B|202:269|202:269|193:340,1,120,0|8,0:0|0:0,0:0:0:0:
284,372,6396,1,0,0:0:0:0:
377,350,6646,6,0,P|411:280|383:207,1,160,10|8,0:0|0:0,0:0:0:0:
295,167,7396,1,0,0:0:0:0:
218,224,7646,2,0,L|58:212,1,160,8|8,0:0|0:0,0:0:0:0:
11,26,8646,6,0,P|44:47|83:52,1,80,10|0,0:0|0:0,0:0:0:0:
175,23,9146,2,0,P|214:27|247:49,1,80,8|0,0:0|0:0,0:0:0:0:
296,131,9646,1,8,0:0:0:0:
374,75,9896,1,0,0:0:0:0:
374,75,10021,1,0,0:0:0:0:
374,75,10146,2,0,L|453:80,1,80,8|0,0:0|0:0,0:0:0:0:
503,162,10646,6,0,P|510:200|498:238,2,80,10|0|8,0:0|0:0|0:0,0:0:0:0:
412,193,11396,1,0,0:0:0:0:
341,127,11646,2,0,L|179:116,1,160,8|8,0:0|0:0,0:0:0:0:
98,67,12396,1,0,0:0:0:0:
48,149,12646,6,0,P|40:188|51:226,1,80,10|0,0:0|0:0,0:0:0:0:
138,266,13146,2,0,P|148:304|141:343,1,80,8|0,0:0|0:0,0:0:0:0:
237,370,13646,1,8,0:0:0:0:
237,370,13771,2,0,L|356:356,1,120,0|8,0:0|0:0,0:0:0:0:
433,299,14396,1,0,0:0:0:0:
433,299,14646,6,0,P|416:222|427:143,1,160,10|8,0:0|0:0,0:0:0:0:
472,57,15396,1,0,0:0:0:0:
376,58,15646,2,0,L|296:60,1,80,8|0,0:0|0:0,0:0:0:0:
248,66,16021,1,0,0:0:0:0:
223,107,16146,1,8,0:0:0:0:
255,197,16396,1,0,0:0:0:0:
204,278,16646,6,0,P|166:289|126:285,1,80,10|0,0:0|0:0,0:0:0:0:
47,231,17146,2,0,L|40:151,1,80,8|0,0:0|0:0,0:0:0:0:
83,65,17646,1,8,0:0:0:0:
158,123,17896,1,0,0:0:0:0:
158,123,18021,1,0,0:0:0:0:
158,123,18146,2,0,P|197:125|233:110,1,80,8|0,0:0|0:0,0:0:0:0:
300,40,18646,6,0,L|379:44,1,80,10|0,0:0|0:0,0:0:0:0:
474,60,19146,1,8,0:0:0:0:
414,135,19396,1,0,0:0:0:0:
486,198,19646,1,8,0:0:0:0:
486,198,19771,2,0,P|496:255|469:308,1,120,0|8,0:0|0:0,0:0:0:0:
382,351,20396,1,0,0:0:0:0:
298,302,20646,6,0,L|218:295,1,80,10|0,0:0|0:1,0:1:0:0:
173,379,21146,2,0,L|93:372,1,80,8|0,0:0|0:0,0:0:0:0:
35,295,21646,2,0,P|30:256|44:219,1,80,8|0,0:0|0:0,0:0:0:0:
85,193,22021,1,0,0:0:0:0:
85,193,22146,1,8,0:0:0:0:
143,269,22396,1,0,0:0:0:0:
234,296,22646,6,0,L|313:287,1,80,10|0,0:0|0:0,0:0:0:0:
385,351,23146,2,0,L|464:342,1,80,8|0,0:0|0:0,0:0:0:0:
511,257,23646,1,8,0:0:0:0:
469,170,23896,1,0,0:0:0:0:
416,250,24146,1,8,0:0:0:0:
416,250,24396,1,0,0:0:0:0:
320,250,24646,6,0,L|240:240,1,80,10|0,0:0|0:0,0:0:0:0:
171,307,25146,2,0,P|131:309|94:295,1,80,8|0,0:0|0:0,0:0:0:0:
35,218,25646,2,0,B|53:180|35:141|35:141|17:102|35:64,1,160,8|8,0:0|0:0,0:0:0:0:
123,101,26396,1,0,0:0:0:0:
198,41,26646,6,0,L|277:44,1,80,10|0,0:0|0:0,0:0:0:0:
373,54,27146,1,8,0:0:0:0:
360,149,27396,1,0,0:0:0:0:
455,149,27646,2,0,P|480:215|435:287,1,160,8|8,0:0|0:0,0:0:0:0:
351,329,28396,1,0,0:0:0:0:
255,335,28646,6,0,L|175:326,1,80,10|0,0:0|0:0,0:0:0:0:
101,266,29146,2,0,P|96:226|109:188,1,80,8|0,0:0|0:0,0:0:0:0:
182,126,29646,1,8,0:0:0:0:
182,126,29771,2,0,L|301:134,1,120,0|8,0:0|0:0,0:0:0:0:
397,145,30396,1,0,0:0:0:0:
473,87,30646,6,0,P|496:160|451:223,1,160,10|8,0:0|0:0,0:0:0:0:
359,250,31396,1,0,0:0:0:0:
263,261,31646,2,0,L|183:253,1,80,8|0,0:0|0:0,0:0:0:0:
144,224,32021,1,0,0:0:0:0:
144,224,32146,1,8,0:0:0:0:
199,145,32396,1,0,0:0:0:0:
123,83,32646,6,0,P|118:44|128:5,2,80,10|0|8,0:0|0:0|0:0,0:0:0:0:
199,145,33396,1,0,0:0:0:0:
283,99,33646,2,0,L|362:101,1,80,8|0,0:0|0:0,0:0:0:0:
410,110,34021,1,0,0:0:0:0:
440,147,34146,1,8,0:0:0:0:
428,242,34396,1,0,0:0:0:0:
346,292,34646,6,0,B|305:279|305:279|188:287,1,160,10|8,0:0|0:0,0:0:0:0:
92,300,35396,1,0,0:0:0:0:
128,211,35646,2,0,P|133:171|128:131,1,80,8|0,0:0|0:0,0:0:0:0:
69,56,36146,1,10,0:0:0:0:
163,39,36396,1,0,0:0:0:0:
225,112,36646,6,0,B|284:111|284:111|323:96|323:96|383:95,1,160,10|8,0:0|0:0,0:0:0:0:
455,156,37396,1,0,0:0:0:0:
426,247,37646,2,0,L|441:325,2,80,10|0|10,0:0|0:0|0:0,0:0:0:0:
350,187,38396,1,0,0:0:0:0:
328,280,38646,6,0,P|273:334|196:332,1,160,10|8,0:0|0:0,0:0:0:0:
124,267,39396,1,0,0:0:0:0:
173,184,39646,2,0,P|173:144|157:107,1,80,10|0,0:0|0:0,0:0:0:0:
121,76,40021,1,0,0:0:0:0:
73,68,40146,1,8,0:0:0:0:
20,148,40396,1,0,0:0:0:0:
65,232,40646,6,0,L|59:311,1,80,10|0,0:0|0:0,0:0:0:0:
150,344,41146,2,0,L|155:264,1,80,8|0,0:0|0:0,0:0:0:0:
225,198,41646,1,8,0:0:0:0:
268,283,41896,1,0,0:0:0:0:
268,283,42021,1,0,0:0:0:0:
268,283,42146,2,0,P|299:306|338:304,1,80,8|0,0:0|0:0,0:0:0:0:
415,247,42646,6,0,B|423:204|423:204|418:87,1,160,10|8,0:0|0:0,0:0:0:0:
342,28,43396,1,0,0:0:0:0:
281,102,43646,2,0,P|241:107|204:94,1,80,8|0,0:0|0:0,0:0:0:0:
130,32,44146,2,0,P|92:19|53:24,1,80,10|0,0:0|0:0,0:0:0:0:
83,115,44646,6,0,L|72:274,1,160,10|8,0:0|0:0,0:0:0:0:
126,354,45396,1,0,0:0:0:0:
199,291,45646,2,0,B|227:288|227:288|278:296,1,80,10|0,0:0|0:0,0:0:0:0:
349,361,46146,2,0,B|377:364|377:364|428:355,1,80,8|0,0:0|0:0,0:0:0:0:
483,276,46646,6,0,P|465:198|476:119,1,160,10|8,0:0|0:0,0:0:0:0:
506,28,47396,1,0,0:0:0:0:
412,51,47646,2,0,P|372:55|333:46,1,80,10|0,0:0|0:0,0:0:0:0:
290,24,48021,1,0,0:0:0:0:
290,24,48146,1,8,0:0:0:0:
249,110,48396,1,0,0:0:0:0:
167,58,48646,6,0,L|87:60,1,80,10|0,0:0|0:0,0:0:0:0:
26,135,49146,2,0,P|20:174|33:211,1,80,8|0,0:0|0:0,0:0:0:0:
108,271,49646,1,8,0:0:0:0:
190,222,49896,1,0,0:0:0:0:
190,222,50021,1,0,0:0:0:0:
190,222,50146,2,0,L|270:226,1,80,8|0,0:0|0:0,0:0:0:0:
322,306,50646,6,0,L|402:310,2,80,10|0|8,0:0|0:0|0:0,0:0:0:0:
270,226,51396,1,0,0:0:0:0:
340,160,51646,1,8,0:0:0:0:
340,159,51771,2,0,P|350:101|337:42,1,120,0|8,0:0|0:0,0:0:0:0:
248,6,52396,1,0,0:0:0:0:
184,77,52646,6,0,P|144:83|105:75,1,80,10|0,0:0|0:0,0:0:0:0:
12,52,53146,2,0,L|7:131,1,80,8|0,0:0|0:0,0:0:0:0:
87,185,53646,2,0,P|96:223|85:261,1,80,8|0,0:0|0:0,0:0:0:0:
50,295,54021,1,0,0:0:0:0:
50,295,54146,1,8,0:0:0:0:
125,354,54396,1,0,0:0:0:0:
199,293,54646,6,0,L|278:288,1,80,10|0,0:0|0:0,0:0:0:0:
341,360,55146,2,0,L|420:355,1,80,8|0,0:0|0:0,0:0:0:0:
491,289,55646,2,0,P|495:250|482:212,1,80,8|0,0:0|0:0,0:0:0:0:
397,167,56146,2,0,P|384:129|388:89,1,80,8|0,0:0|0:0,0:0:0:0:
460,25,56646,5,10,0:0:0:0:
480,119,56896,1,0,0:0:0:0:
397,167,57146,2,0,L|317:172,1,80,8|0,0:0|0:0,0:0:0:0:
242,111,57646,2,0,P|219:184|261:249,1,160,8|8,0:0|0:0,0:0:0:0:
433,335,58646,6,0,L|512:326,2,80,10|0|8,0:0|0:0|0:0,0:0:0:0:
337,343,59396,1,0,0:0:0:0:
377,255,59646,2,0,P|389:177|364:102,1,160,8|8,0:0|0:0,0:0:0:0:
269,85,60396,1,0,0:0:0:0:
225,170,60646,6,0,L|236:249,1,80,10|0,0:0|0:0,0:0:0:0:
195,336,61146,2,0,P|157:348|117:343,1,80,8|0,0:0|0:0,0:0:0:0:
57,269,61646,1,8,0:0:0:0:
57,269,61771,2,0,L|49:149,1,120,0|8,0:0|0:0,0:0:0:0:
99,67,62396,1,0,0:0:0:0:
162,139,62646,6,0,P|239:144|301:95,1,160,10|8,0:0|0:0,0:0:0:0:
335,6,63396,1,0,0:0:0:0:
395,80,63646,1,8,0:0:0:0:
367,172,63896,1,0,0:0:0:0:
367,172,64021,1,0,0:0:0:0:
367,172,64146,2,0,L|376:251,1,80,8|0,0:0|0:0,0:0:0:0:
471,264,64646,6,0,P|482:227|476:187,1,80,10|0,0:0|0:0,0:0:0:0:
432,102,65146,2,0,P|426:62|437:24,2,80,8|0|8,0:0|0:0|0:0,0:0:0:0:
349,152,65896,1,0,0:0:0:0:
349,152,66021,1,0,0:0:0:0:
349,152,66146,2,0,L|269:144,1,80,8|0,0:0|0:0,0:0:0:0:
218,62,66646,6,0,L|138:54,1,80,10|0,0:0|0:0,0:0:0:0:
54,101,67146,2,0,P|41:138|47:177,1,80,8|0,0:0|0:0,0:0:0:0:
105,254,67646,2,0,L|265:267,1,160,8|8,0:0|0:0,0:0:0:0:
330,197,68396,1,0,0:0:0:0:
270,121,68646,6,0,P|267:81|281:44,1,80,10|0,0:0|0:0,0:0:0:0:
373,17,69146,2,0,P|375:56|361:93,1,80,8|0,0:0|0:0,0:0:0:0:
270,121,69646,1,8,0:0:0:0:
330,197,69896,1,0,0:0:0:0:
330,197,70021,1,0,0:0:0:0:
330,197,70146,1,8,0:0:0:0:
421,168,70396,1,0,0:0:0:0:
478,244,70646,6,0,P|461:319|390:348,1,160,10|8,0:0|0:0,0:0:0:0:
310,295,71396,1,0,0:0:0:0:
228,345,71646,2,0,L|148:336,1,80,8|0,0:0|0:0,0:0:0:0:
118,298,72021,1,0,0:0:0:0:
118,298,72146,1,8,0:0:0:0:
169,217,72396,1,0,0:0:0:0:
263,234,72646,6,0,P|302:231|335:210,1,80,10|0,0:0|0:0,0:0:0:0:
376,123,73146,2,0,L|370:43,1,80,8|0,0:0|0:0,0:0:0:0:
281,8,73646,1,8,0:0:0:0:
