osu file format v14

[General]
AudioFilename: audio.mp3
AudioLeadIn: 0
PreviewTime: 2646
Countdown: 0
SampleSet: Soft
StackLeniency: 0.7
Mode: 0
LetterboxInBreaks: 0
WidescreenStoryboard: 1

[Editor]
DistanceSpacing: 1.2
BeatDivisor: 4
GridSize: 32
TimelineZoom: 1

[Metadata]
Title:CESKY LEAGUE OF LEGENDS SONG!!!
TitleUnicode:ČESKÝ LEAGUE OF LEGENDS SONG!!!
Artist:Mishovy silenosti
ArtistUnicode:Mishovy šílenosti
Creator:Wafu
Version:Easy
Source:
Tags:czech dota lol
BeatmapID:938627
BeatmapSetID:435578

[Difficulty]
HPDrainRate:1
CircleSize:3
OverallDifficulty:1
ApproachRate:2
SliderMultiplier:1
SliderTickRate:1

[Events]
//Background and Video events
Video,0,"output.avi"
0,0,"background.jpg",0,0
//Break Periods
//Storyboard Layer 0 (Background)
//Storyboard Layer 1 (Fail)
//Storyboard Layer 2 (Pass)
//Storyboard Layer 3 (Foreground)
//Storyboard Sound Samples

[TimingPoints]
2646,500,4,2,1,50,1,0

[Colours]
Combo1 : 94,176,225
Combo2 : 90,139,54
Combo3 : 223,53,66
Combo4 : 235,174,48

[HitObjects]
288,341,2646,6,0,L|387:331,1,100,10|8,0:0|0:0,0:0:0:0:
463,237,3646,2,0,P|464:188|441:145,1,100,8|8,0:0|0:0,0:0:0:0:
323,120,4646,2,0,P|235:162|147:124,1,200,10|8,0:0|0:0,0:0:0:0:
68,33,6146,1,8,0:0:0:0:
31,147,6646,6,0,L|39:246,1,100,10|8,0:0|0:0,0:0:0:0:
158,268,7646,2,0,L|166:367,2,100,8|8|10,0:0|0:0|0:0,0:0:0:0:
180,149,9146,1,0,0:0:0:0:
224,37,9646,1,8,0:0:0:0:
326,98,10146,1,8,0:0:0:0:
437,54,10646,6,0,B|461:102|437:150|437:150|413:198|437:246,1,200,10|8,0:0|0:0,0:0:0:0:
497,350,12146,1,8,0:0:0:0:
377,359,12646,2,0,L|278:352,1,100,10|8,0:0|0:0,0:0:0:0:
164,309,13646,2,0,P|157:259|175:213,1,100,8|8,0:0|0:0,0:0:0:0:
276,149,14646,6,0,L|375:153,1,100,10|8,0:0|0:0,0:0:0:0:
490,118,15646,2,0,P|497:166|479:213,2,100,8|8|2,0:0|0:0|0:0,0:0:0:0:
391,49,17146,1,8,0:0:0:0:
287,109,17646,1,8,0:0:0:0:
170,82,18146,1,8,0:0:0:0:
70,13,18646,6,0,P|52:109|111:186,1,200,10|8,0:0|0:0,0:0:0:0:
228,214,20146,1,8,0:0:0:0:
259,98,20646,2,0,L|358:93,1,100,10|8,0:0|0:0,0:0:0:0:
472,134,21646,2,0,P|482:182|467:229,1,100,8|8,0:0|0:0,0:0:0:0:
386,318,22646,6,0,B|338:342|290:318|290:318|242:294|194:318,1,200,10|8,0:0|0:0,0:0:0:0:
85,370,24146,1,8,0:0:0:0:
96,250,24646,2,0,P|98:200|80:153,1,100,10|8,0:0|0:0,0:0:0:0:
34,43,25646,2,0,L|133:39,1,100,8|8,0:0|0:0,0:0:0:0:
207,134,26646,6,0,L|406:121,1,200,10|8,0:0|0:0,0:0:0:0:
474,219,28146,1,8,0:0:0:0:
434,332,28646,2,0,P|385:343|339:327,1,100,10|8,0:0|0:0,0:0:0:0:
256,240,29646,2,0,L|249:140,1,100,8|8,0:0|0:0,0:0:0:0:
339,60,30646,6,0,P|251:21|161:58,1,200,10|8,0:0|0:0,0:0:0:0:
99,161,32146,1,8,0:0:0:0:
108,280,32646,2,0,L|8:277,2,100,10|8|8,0:0|0:0|0:0,0:0:0:0:
228,285,34146,1,0,0:0:0:0:
343,253,34646,6,0,B|365:197|365:197|358:57,1,200,10|8,0:0|0:0,0:0:0:0:
251,3,36146,1,10,0:0:0:0:
177,97,36646,2,0,L|183:197,1,100,10|8,0:0|0:0,0:0:0:0:
222,310,37646,2,0,P|269:324|318:316,1,100,10|10,0:0|0:0,0:0:0:0:
425,262,38646,6,0,B|425:188|425:188|449:139|449:139|448:68,1,200,10|10,0:0|0:0,0:0:0:0:
344,7,40146,1,8,0:0:0:0:
271,102,40646,2,0,P|221:108|174:94,1,100,10|8,0:0|0:0,0:0:0:0:
83,15,41646,1,8,0:0:0:0:
51,130,42146,1,0,0:0:0:0:
96,241,42646,6,0,L|295:259,1,200,10|8,0:0|0:0,0:0:0:0:
414,239,44146,1,10,0:0:0:0:
495,150,44646,2,0,P|503:101|488:53,1,100,10|8,0:0|0:0,0:0:0:0:
368,41,45646,2,0,P|320:55|271:47,1,100,10|10,0:0|0:0,0:0:0:0:
154,25,46646,6,0,L|158:224,1,200,10|10,0:0|0:0,0:0:0:0:
80,315,48146,1,8,0:0:0:0:
197,338,48646,2,0,P|246:339|292:319,2,100,10|8|8,0:0|0:0|0:0,0:0:0:0:
159,224,50146,1,8,0:0:0:0:
46,266,50646,6,0,L|37:66,1,200,10|8,0:0|0:0,0:0:0:0:
151,31,52146,1,8,0:0:0:0:
203,139,52646,2,0,P|252:144|298:127,1,100,10|8,0:0|0:0,0:0:0:0:
363,26,53646,2,0,P|409:8|458:14,1,100,8|8,0:0|0:0,0:0:0:0:
504,125,54646,6,0,B|480:173|504:221|504:221|528:269|504:317,1,200,10|8,0:0|0:0,0:0:0:0:
393,270,56146,1,8,0:0:0:0:
300,346,56646,2,0,L|200:340,2,100,10|8|8,0:0|0:0|0:0,0:0:0:0:
409,295,58146,1,8,0:0:0:0:
510,231,58646,6,0,B|506:150|506:150|527:88|492:36,1,200,10|8,0:0|0:0,0:0:0:0:
378,0,60146,1,8,0:0:0:0:
345,115,60646,2,0,L|245:123,1,100,10|8,0:0|0:0,0:0:0:0:
222,241,61646,2,0,L|122:249,1,100,8|8,0:0|0:0,0:0:0:0:
48,343,62646,6,0,P|-2:262|30:171,1,200,10|8,0:0|0:0,0:0:0:0:
133,106,64146,1,8,0:0:0:0:
235,170,64646,2,0,P|284:172|331:155,2,100,10|8|8,0:0|0:0|0:0,0:0:0:0:
150,84,66146,1,0,0:0:0:0:
41,32,66646,6,0,L|31:231,1,200,10|8,0:0|0:0,0:0:0:0:
115,317,68146,1,8,0:0:0:0:
198,231,68646,2,0,P|246:223|292:242,1,100,10|8,0:0|0:0,0:0:0:0:
346,349,69646,2,0,P|391:367|440:360,1,100,8|8,0:0|0:0,0:0:0:0:
503,257,70646,6,0,L|487:57,1,200,10|8,0:0|0:0,0:0:0:0:
375,14,72146,1,8,0:0:0:0:
357,131,72646,2,0,P|316:160|267:164,2,100,10|8|8,0:0|0:0|0:0,0:0:0:0:
