osu file format v14

[General]
AudioFilename: audio.mp3
AudioLeadIn: 0
PreviewTime: 2646
Countdown: 0
SampleSet: Soft
StackLeniency: 0.7
Mode: 0
LetterboxInBreaks: 0
WidescreenStoryboard: 1

[Editor]
DistanceSpacing: 1.2
BeatDivisor: 4
GridSize: 32
TimelineZoom: 1

[Metadata]
Title:CESKY LEAGUE OF LEGENDS SONG!!!
TitleUnicode:ČESKÝ LEAGUE OF LEGENDS SONG!!!
Artist:Mishovy silenosti
ArtistUnicode:Mishovy šílenosti
Creator:Wafu
Version:Normal
Source:
Tags:czech dota lol
BeatmapID:938628
BeatmapSetID:435578

[Difficulty]
HPDrainRate:4
CircleSize:3.5
OverallDifficulty:4
ApproachRate:5
SliderMultiplier:1.3
SliderTickRate:1

[Events]
//Background and Video events
Video,0,"output.avi"
0,0,"background.jpg",0,0
//Break Periods
//Storyboard Layer 0 (Background)
//Storyboard Layer 1 (Fail)
//Storyboard Layer 2 (Pass)
//Storyboard Layer 3 (Foreground)
//Storyboard Sound Samples

[TimingPoints]
2646,500,4,2,1,50,1,0

[Colours]
Combo1 : 94,176,225
Combo2 : 90,139,54
Combo3 : 223,53,66
Combo4 : 235,174,48

[HitObjects]
300,303,2646,6,0,L|429:291,2,130,10|8|8,0:0|0:0|0:0,0:0:0:0:
170,216,4146,2,0,P|166:183|172:151,1,65,8|0,0:0|0:0,0:0:0:0:
226,96,4646,6,0,B|259:107|290:96|290:96|321:85|354:96,1,130,10|8,0:0|0:0,0:0:0:0:
411,149,5396,1,0,0:0:0:0:
397,225,5646,2,0,L|408:290,2,65,8|0|8,0:0|0:0|0:0,0:0:0:0:
340,170,6396,1,0,0:0:0:0:
321,245,6646,6,0,P|286:298|224:307,1,130,10|8,0:0|0:0,0:0:0:0:
106,204,7646,2,0,L|106:74,1,130,8|8,0:0|0:0,0:0:0:0:
259,42,8646,6,0,P|285:60|316:65,1,65,10|0,0:0|0:0,0:0:0:0:
390,39,9146,2,0,P|421:43|447:62,2,65,8|0|8,0:0|0:0|0:0,0:0:0:0:
368,193,10146,1,8,0:0:0:0:
357,270,10396,1,0,0:0:0:0:
282,292,10646,6,0,L|152:286,2,130,10|8|8,0:0|0:0|0:0,0:0:0:0:
406,197,12146,2,0,P|410:164|405:133,1,65,8|0,0:0|0:0,0:0:0:0:
344,82,12646,6,0,P|282:96|219:82,1,130,10|8,0:0|0:0,0:0:0:0:
147,48,13396,1,0,0:0:0:0:
77,84,13646,2,0,L|84:148,1,65,8|0,0:0|0:0,0:0:0:0:
59,223,14146,2,0,L|66:287,1,65,8|0,0:0|0:0,0:0:0:0:
86,363,14646,6,0,P|136:325|140:262,1,130,10|8,0:0|0:0,0:0:0:0:
29,153,15646,2,0,P|32:90|83:52,1,130,8|8,0:0|0:0,0:0:0:0:
239,44,16646,6,0,L|303:49,1,65,10|0,0:0|0:0,0:0:0:0:
371,87,17146,2,0,P|403:90|434:81,2,65,8|0|8,0:0|0:0|0:0,0:0:0:0:
262,198,18146,1,8,0:0:0:0:
137,103,18646,6,0,P|104:99|73:108,2,65,10|0|8,0:0|0:0|0:0,0:0:0:0:
209,131,19396,1,0,0:0:0:0:
249,64,19646,2,0,L|378:58,1,130,8|8,0:0|0:0,0:0:0:0:
296,190,20646,6,0,P|295:222|306:252,1,65,10|0,0:0|0:1,0:0:0:0:
377,284,21146,2,0,P|387:314|386:346,1,65,8|0,0:0|0:0,0:0:0:0:
309,328,21646,2,0,L|244:322,2,65,8|0|8,0:0|0:0|0:0,0:0:0:0:
406,205,22646,6,0,L|396:75,1,130,10|8,0:0|0:0,0:0:0:0:
332,31,23396,1,0,0:0:0:0:
322,108,23646,2,0,P|287:160|225:174,1,130,8|8,0:0|0:0,0:0:0:0:
73,216,24646,6,0,L|79:280,1,65,10|0,0:0|0:0,0:0:0:0:
5,308,25146,2,0,L|11:372,2,65,8|0|8,0:0|0:0|0:0,0:0:0:0:
23,152,26146,1,8,0:0:0:0:
161,76,26646,6,0,P|220:100|282:86,1,130,10|8,0:0|0:0,0:0:0:0:
343,38,27396,1,0,0:0:0:0:
395,95,27646,2,0,L|459:90,1,65,8|0,0:0|0:0,0:0:0:0:
485,164,28146,2,0,L|420:168,1,65,8|0,0:0|0:0,0:0:0:0:
343,154,28646,6,0,B|337:188|354:217|354:217|370:245|365:280,1,130,10|8,0:0|0:0,0:0:0:0:
247,382,29646,2,0,L|182:375,1,65,8|0,0:0|0:0,0:0:0:0:
104,371,30146,2,0,L|39:364,1,65,8|0,0:0|0:0,0:0:0:0:
16,289,30646,6,0,B|17:243|17:243|3:202|18:160,1,130,10|8,0:0|0:0,0:0:0:0:
139,61,31646,2,0,P|201:47|261:70,1,130,8|8,0:0|0:0,0:0:0:0:
399,143,32646,6,0,L|463:132,2,65,10|0|8,0:0|0:0|0:0,0:0:0:0:
351,205,33396,1,0,0:0:0:0:
409,256,33646,1,8,0:0:0:0:
280,344,34146,1,8,0:0:0:0:
351,205,34646,6,0,B|361:165|361:165|355:76,1,130,10|8,0:0|0:0,0:0:0:0:
203,114,35646,2,0,P|171:120|140:110,1,65,8|0,0:0|0:0,0:0:0:0:
105,40,36146,2,0,P|74:30|42:36,1,65,10|0,0:0|0:0,0:0:0:0:
9,106,36646,6,0,B|9:148|9:148|19:194|19:194|19:234,1,130,10|8,0:0|0:0,0:0:0:0:
26,312,37396,1,0,0:0:0:0:
97,342,37646,2,0,P|129:337|161:338,1,65,10|0,0:0|0:0,0:0:0:0:
239,343,38146,2,0,P|271:343|303:338,1,65,10|0,0:0|0:0,0:0:0:0:
358,282,38646,6,0,L|369:152,1,130,10|8,0:0|0:0,0:0:0:0:
226,89,39646,2,0,L|214:218,1,130,10|8,0:0|0:0,0:0:0:0:
91,314,40646,6,0,P|58:316|28:305,2,65,10|0|8,0:0|0:0|0:0,0:0:0:0:
156,271,41396,1,0,0:0:0:0:
204,332,41646,2,0,L|333:325,1,130,8|8,0:0|0:0,0:0:0:0:
453,225,42646,6,0,P|461:161|429:106,1,130,10|8,0:0|0:0,0:0:0:0:
273,91,43646,2,0,L|208:86,2,65,8|0|10,0:0|0:0|0:0,0:0:0:0:
333,140,44396,1,0,0:0:0:0:
311,215,44646,6,0,B|306:261|306:261|320:343,1,130,10|8,0:0|0:0,0:0:0:0:
474,321,45646,2,0,P|481:289|475:258,1,65,10|0,0:0|0:0,0:0:0:0:
410,214,46146,2,0,P|403:182|411:151,1,65,10|0,0:0|0:0,0:0:0:0:
434,76,46646,6,0,L|305:66,1,130,10|8,0:0|0:0,0:0:0:0:
259,215,47646,2,0,L|130:205,1,130,10|8,0:0|0:0,0:0:0:0:
13,100,48646,6,0,P|11:67|22:37,2,65,10|0|8,0:0|0:0|0:0,0:0:0:0:
50,168,49396,1,0,0:0:0:0:
12,236,49646,2,0,L|26:365,1,130,8|8,0:0|0:0,0:0:0:0:
168,301,50646,6,0,P|200:297|232:302,1,65,10|0,0:0|0:0,0:0:0:0:
291,353,51146,2,0,L|355:349,1,65,8|0,0:0|0:0,0:0:0:0:
432,329,51646,2,0,P|439:265|424:202,1,130,8|8,0:0|0:0,0:0:0:0:
347,68,52646,6,0,B|314:57|283:68|283:68|252:79|219:68,1,130,10|8,0:0|0:0,0:0:0:0:
152,27,53396,1,0,0:0:0:0:
150,104,53646,2,0,P|151:136|146:168,1,65,8|0,0:0|0:0,0:0:0:0:
93,226,54146,1,8,0:0:0:0:
205,334,54646,6,0,L|334:322,1,130,10|8,0:0|0:0,0:0:0:0:
389,267,55396,1,0,0:0:0:0:
353,197,55646,2,0,P|349:164|357:133,1,65,8|0,0:0|0:0,0:0:0:0:
415,81,56146,1,8,0:0:0:0:
263,43,56646,6,0,L|133:50,1,130,10|8,0:0|0:0,0:0:0:0:
70,97,57396,2,0,P|65:129|74:160,1,65,0|8,0:0|0:0,0:0:0:0:
178,275,58146,1,8,0:0:0:0:
317,204,58646,6,0,L|381:204,2,65,10|0|8,0:0|0:0|0:0,0:0:0:0:
265,145,59396,1,0,0:0:0:0:
289,71,59646,2,0,P|350:53|410:76,1,130,8|8,0:0|0:0,0:0:0:0:
493,208,60646,6,0,L|485:337,1,130,10|8,0:0|0:0,0:0:0:0:
411,364,61396,1,0,0:0:0:0:
338,334,61646,2,0,P|306:329|273:333,2,65,8|0|8,0:0|0:0|0:0,0:0:0:0:
393,187,62646,6,0,L|382:57,1,130,10|8,0:0|0:0,0:0:0:0:
226,40,63646,2,0,P|206:100|146:121,1,130,8|8,0:0|0:0,0:0:0:0:
70,257,64646,6,0,L|74:321,2,65,10|0|8,0:0|0:0|0:0,0:0:0:0:
108,189,65396,1,0,0:0:0:0:
170,235,65646,2,0,P|233:240|289:209,1,130,8|8,0:0|0:0,0:0:0:0:
322,56,66646,6,0,P|377:24|441:30,1,130,10|8,0:0|0:0,0:0:0:0:
495,87,67396,1,0,0:0:0:0:
470,160,67646,2,0,P|467:192|475:223,2,65,8|0|8,0:0|0:0|0:0,0:0:0:0:
314,140,68646,6,0,L|249:137,1,65,10|0,0:0|0:0,0:0:0:0:
210,69,69146,2,0,L|145:66,1,65,8|0,0:0|0:0,0:0:0:0:
80,20,69646,2,0,P|68:81|104:133,1,130,8|8,0:0|0:0,0:0:0:0:
177,162,70396,1,0,0:0:0:0:
223,224,70646,6,0,L|215:353,1,130,10|8,0:0|0:0,0:0:0:0:
360,295,71646,2,0,L|367:165,1,130,8|8,0:0|0:0,0:0:0:0:
295,26,72646,6,0,P|262:21|231:28,2,65,10|0|8,0:0|0:0|0:0,0:0:0:0:
434,97,73646,1,8,0:0:0:0:
