osu file format v14

[General]
AudioFilename: audio.mp3
AudioLeadIn: 0
PreviewTime: 34343
Countdown: 1
SampleSet: Normal
StackLeniency: 0.7
Mode: 0
LetterboxInBreaks: 0
WidescreenStoryboard: 1

[Editor]
DistanceSpacing: 2
BeatDivisor: 4
GridSize: 4
TimelineZoom: 1.4

[Metadata]
Title:Cesky Minecraft Song!!!
TitleUnicode:Cesky Minecraft Song!!!
Artist:Misha
ArtistUnicode:Misha
Creator:Co0ola
Version:WHO-O-O-O-O-OO
Source:Mishovy šílenosti
Tags:CZ Czech minecraft misha cesky cesko meme youtube
BeatmapID:922586
BeatmapSetID:421647

[Difficulty]
HPDrainRate:5
CircleSize:4
OverallDifficulty:6
ApproachRate:8
SliderMultiplier:1.4
SliderTickRate:0.5

[Events]
//Background and Video events
0,0,"BG.png",0,0
//Break Periods
//Storyboard Layer 0 (Background)
//Storyboard Layer 1 (Fail)
//Storyboard Layer 2 (Pass)
//Storyboard Layer 3 (Foreground)
//Storyboard Sound Samples

[TimingPoints]
1593,500,4,1,0,100,1,0
1593,-66.6666666666667,4,1,0,100,0,0
2343,-100,4,2,0,100,0,0
3218,-66.6666666666667,4,2,0,100,0,0
6343,-50,4,2,0,100,0,0
8718,-133.333333333333,4,2,0,100,0,0
9718,-100,4,2,0,100,0,0
16343,-50,4,1,0,100,0,0
18343,-50,4,2,0,100,0,1
20343,-100,4,2,0,100,0,1
22218,-100,4,2,0,100,0,0
22343,-100,4,2,0,100,0,1
26218,-100,4,2,0,100,0,0
26343,-100,4,2,0,100,0,1
30093,-100,4,2,0,100,0,0
48343,-100,4,1,0,100,0,0
50343,-100,4,2,0,100,0,1
54218,-100,4,2,0,100,0,0
54343,-100,4,2,0,100,0,1
58218,-100,4,2,0,100,0,0
58343,-100,4,2,0,100,0,1
62093,-100,4,2,0,100,0,0
64343,-50,4,2,0,100,0,0

[HitObjects]
224,224,1593,6,0,B|224:168|224:168|280:168|280:168|280:220|280:220|224:220|224:220,1,210
72,340,2343,6,0,P|132:320|168:324,1,70
248,364,2843,1,0,0:0:0:0:
352,308,3093,1,0,0:0:0:0:
392,224,3343,6,0,B|392:172|392:172|420:160|420:160|416:152|416:152|400:156|400:156|384:128|384:128|392:116|392:116|344:92|344:92|320:92,1,210
132,84,4093,1,0,0:0:0:0:
76,208,4343,5,0,0:0:0:0:
156,328,4593,2,0,B|212:344|212:344|204:348|204:348|216:356|216:356|268:352,1,105.000004005432
332,252,5093,5,0,0:0:0:0:
392,108,5343,1,0,0:0:0:0:
448,252,5593,1,0,0:0:0:0:
300,156,5843,1,0,0:0:0:0:
480,156,6093,1,0,0:0:0:0:
332,252,6343,1,0,0:0:0:0:
224,292,6593,6,0,B|148:280|148:280|156:268|156:268|156:248|156:248|152:208,1,140
120,108,7093,5,0,0:0:0:0:
248,56,7343,1,0,0:0:0:0:
256,192,7593,1,0,0:0:0:0:
256,192,7843,2,0,B|312:240|312:240|308:212|308:212|300:200|300:200|328:192,1,140
236,312,8343,1,0,0:0:0:0:
236,312,8593,1,0,0:0:0:0:
112,352,8843,6,8,L|80:328,2,26.2500010013581
84,236,9343,1,8,0:0:0:0:
128,124,9593,1,0,0:0:0:0:
236,68,9843,2,0,B|276:24|276:24|280:24|280:24|292:24|292:24|312:28,1,70
376,60,10343,5,0,0:0:0:0:
376,60,10593,1,0,0:0:0:0:
352,228,10843,5,0,0:0:0:0:
352,228,11093,1,0,0:0:0:0:
256,348,11343,5,0,0:0:0:0:
256,348,11468,1,0,0:0:0:0:
256,348,11593,2,0,B|212:348|212:348|220:344|220:344|208:312,1,70
124,260,12093,5,0,0:0:0:0:
72,172,12343,2,0,B|60:132|60:132|96:100,1,70
152,76,12843,2,0,B|192:48|192:48|228:52,1,70
292,60,13343,2,0,B|336:56|336:56|360:80,1,70
416,124,13843,2,0,B|448:152|448:152|436:192,1,70
256,260,14343,5,0,0:0:0:0:
256,132,14593,1,0,0:0:0:0:
256,260,14843,1,0,0:0:0:0:
256,132,15093,1,0,0:0:0:0:
184,192,15343,5,0,0:0:0:0:
324,192,15593,1,0,0:0:0:0:
184,192,15843,1,0,0:0:0:0:
324,192,16093,1,0,0:0:0:0:
60,296,16343,6,8,L|168:316,1,93.3333333333333
228,328,16676,2,8,B|288:328|288:328|276:332|276:332|328:296,1,93.3333333333333
360,280,17009,2,8,B|400:252|400:252|384:248|384:248|380:256|380:256|392:264|392:264|400:260|396:256,1,93.3333333333333
396,148,17343,5,8,0:0:0:0:
396,148,17509,1,8,0:0:0:0:
396,148,17676,1,8,0:0:0:0:
272,192,18343,2,0,B|280:184|280:184|288:168|288:168|300:160|300:160|312:156|312:156|328:136|328:136|336:120|336:120|352:124|352:124|364:116|364:116|368:108,6,140
72,60,20093,5,0,0:0:0:0:
152,172,20343,1,0,0:0:0:0:
64,272,20593,1,0,0:0:0:0:
160,344,20843,1,0,0:0:0:0:
280,316,21093,1,0,0:0:0:0:
280,316,21343,1,0,0:0:0:0:
372,192,21593,1,0,0:0:0:0:
372,192,21843,1,0,0:0:0:0:
292,80,22093,1,0,0:0:0:0:
104,80,22343,6,0,B|96:84|96:84|76:136|76:136|96:156,6,70
196,168,24093,1,0,0:0:0:0:
288,268,24343,5,0,0:0:0:0:
384,184,24593,1,0,0:0:0:0:
288,268,24843,1,0,0:0:0:0:
160,316,25093,1,0,0:0:0:0:
72,192,25343,1,0,0:0:0:0:
160,80,25593,1,0,0:0:0:0:
264,184,25843,1,0,0:0:0:0:
160,80,26093,1,0,0:0:0:0:
76,232,26343,6,0,B|84:228|84:228|84:236|84:236|80:236|80:236|80:224|80:224|88:224|88:224|88:232|88:232|84:240|84:240|76:224,6,70
184,284,28093,1,0,0:0:0:0:
320,288,28343,5,0,0:0:0:0:
412,216,28593,2,0,P|440:196|444:152,1,70
332,72,29093,1,0,0:0:0:0:
220,124,29343,1,0,0:0:0:0:
104,72,29593,1,0,0:0:0:0:
56,184,29843,1,0,0:0:0:0:
132,280,30093,1,0,0:0:0:0:
132,280,30343,1,0,0:0:0:0:
264,272,30593,1,0,0:0:0:0:
384,224,30843,6,0,B|424:200|424:200|424:152,1,70
312,116,31343,2,0,B|276:144|276:144|280:188,1,70
384,224,31843,2,0,B|424:200|424:200|424:172,1,70
288,280,32343,5,0,0:0:0:0:
180,216,32593,1,0,0:0:0:0:
260,104,32843,1,0,0:0:0:0:
352,164,33093,1,0,0:0:0:0:
444,304,33343,5,8,0:0:0:0:
444,304,33468,1,8,0:0:0:0:
444,304,33593,1,8,0:0:0:0:
444,304,33718,1,8,0:0:0:0:
444,304,33843,1,8,0:0:0:0:
320,292,34093,5,8,0:0:0:0:
320,292,34343,1,0,0:0:0:0:
200,312,34593,2,0,B|192:316|192:316|152:312|144:280,1,70
120,168,35093,5,0,0:0:0:0:
204,104,35343,2,0,B|212:100|212:100|224:72|224:72|228:80|228:80|256:56|256:56|260:68|260:68|296:64|296:64|316:68,1,140
408,88,36093,5,0,0:0:0:0:
396,216,36343,1,0,0:0:0:0:
296,280,36593,1,0,0:0:0:0:
152,280,36843,1,0,0:0:0:0:
232,168,37093,1,0,0:0:0:0:
296,280,37343,1,0,0:0:0:0:
432,248,37593,6,0,B|456:232|456:232|488:224|488:224|484:188,1,70
396,92,38093,1,0,0:0:0:0:
248,72,38343,1,0,0:0:0:0:
124,76,38593,6,0,B|92:76|92:76|68:84|68:84|56:120|56:120,1,70
76,236,39093,1,0,0:0:0:0:
200,268,39343,1,0,0:0:0:0:
76,236,39593,1,0,0:0:0:0:
200,268,39843,1,0,0:0:0:0:
228,144,40093,1,0,0:0:0:0:
200,24,40343,1,0,0:0:0:0:
336,48,40593,6,0,B|376:64|376:64|416:96,1,70,0|8,0:0|0:0,0:0:0:0:
397,80,40968,1,8,0:0:0:0:
397,80,41093,1,8,0:0:0:0:
400,212,41343,5,8,0:0:0:0:
400,212,41593,1,0,0:0:0:0:
240,196,41843,1,0,0:0:0:0:
176,328,42093,6,0,B|120:316|120:316|100:288,1,70
96,140,42593,1,0,0:0:0:0:
96,140,42843,1,0,0:0:0:0:
216,68,43093,1,0,0:0:0:0:
356,84,43343,6,0,L|408:72,2,35
392,228,43843,5,0,0:0:0:0:
320,308,44093,1,0,0:0:0:0:
220,308,44343,2,0,B|208:304|208:304|216:292|216:292|196:288|196:288|208:280|208:280|184:268,1,70
128,224,44843,2,0,B|116:204|116:204|92:208|92:208|108:188|108:188|100:184,1,70
88,96,45343,2,0,B|104:88|104:88|112:68|112:68|136:64|136:64|144:52,1,70
224,44,45843,2,0,B|228:36|228:36|240:40|240:40|256:28|256:28|276:28|276:28|300:32,1,70
392,88,46343,1,0,0:0:0:0:
392,88,46593,1,0,0:0:0:0:
348,208,46843,5,0,0:0:0:0:
348,208,47093,1,0,0:0:0:0:
256,320,47343,5,0,0:0:0:0:
256,320,47593,1,0,0:0:0:0:
104,188,47843,5,0,0:0:0:0:
104,188,48093,1,0,0:0:0:0:
228,76,48343,6,8,B|228:68|228:68|236:68|236:68|276:68,1,46.6666666666667
328,68,48676,2,8,B|360:68|360:68|368:68|368:68|368:76|368:76|368:72,1,46.6666666666667
372,144,49009,2,8,B|372:152|372:152|372:160|372:160|372:160|336:160,1,46.6666666666667
280,160,49343,2,8,B|236:160|236:160|236:152|236:152|236:144|236:144,1,46.6666666666667
160,100,49676,1,8,0:0:0:0:
208,12,50343,5,0,0:0:0:0:
324,88,50593,1,0,0:0:0:0:
216,176,50843,1,0,0:0:0:0:
340,240,51093,1,0,0:0:0:0:
212,300,51343,1,0,0:0:0:0:
340,360,51593,1,0,0:0:0:0:
340,360,51843,1,0,0:0:0:0:
412,248,52093,1,0,0:0:0:0:
416,128,52343,6,0,B|384:92|384:92|360:76|360:76|352:72,1,70
284,56,52843,2,0,B|224:40|224:40|212:44,1,70
132,72,53343,2,0,B|112:72|112:72|80:96|80:96|80:124,1,70
72,200,53843,2,0,B|64:228|76:232|76:232|120:256,1,70
192,368,54343,5,0,0:0:0:0:
312,292,54593,1,0,0:0:0:0:
376,168,54843,1,0,0:0:0:0:
236,152,55093,1,0,0:0:0:0:
348,68,55343,1,0,0:0:0:0:
208,64,55593,1,0,0:0:0:0:
112,164,55843,1,0,0:0:0:0:
112,164,56093,1,0,0:0:0:0:
76,288,56343,6,0,B|96:292|96:292|96:280|96:280|148:272,1,70
224,244,56843,2,0,B|276:216|276:216|284:196|284:196|284:180,1,70
304,96,57343,2,0,B|264:88|264:88|268:72|268:72|232:56,1,70
152,68,57843,2,0,B|132:64|132:64|132:88|132:88|104:84|104:84|104:112,1,70
72,248,58343,5,0,0:0:0:0:
184,164,58593,1,0,0:0:0:0:
288,260,58843,1,0,0:0:0:0:
388,160,59093,1,0,0:0:0:0:
484,260,59343,1,0,0:0:0:0:
372,344,59593,1,0,0:0:0:0:
276,244,59843,1,0,0:0:0:0:
388,160,60093,1,0,0:0:0:0:
292,68,60343,6,0,B|248:52|248:52|220:60,1,70
148,100,60843,2,0,B|128:104|128:104|116:112|116:112|128:128|128:128|116:156,1,70
104,216,61343,2,0,B|88:220|88:220|104:232|104:232|136:280,1,70
192,304,61843,2,0,B|200:300|200:300|200:312|200:312|192:312|192:312|244:308,1,70
384,240,62343,6,8,B|388:236|388:236|388:240|388:240|384:236|384:236|392:240|392:240|380:236,4,35
284,112,63093,5,8,0:0:0:0:
168,248,63343,6,8,B|172:244|172:244|172:248|172:248|168:244|168:244|176:248|176:248|164:244,4,35
284,112,64093,5,8,0:0:0:0:
192,52,64343,6,0,B|180:48|180:48|160:36|160:36|140:40|140:40|116:52|116:52|132:60|132:60|104:68|104:72|116:96,1,140
88,184,64843,1,0,0:0:0:0:
180,296,65093,1,0,0:0:0:0:
280,208,65343,1,0,0:0:0:0:
376,144,65593,1,8,0:0:0:0:
376,144,65843,1,8,0:0:0:0:
376,144,66093,1,8,0:0:0:0:
376,144,66343,1,4,0:0:0:0:
