osu file format v14

[General]
AudioFilename: audio.mp3
AudioLeadIn: 0
PreviewTime: 34343
Countdown: 1
SampleSet: None
StackLeniency: 0.7
Mode: 0
LetterboxInBreaks: 0
WidescreenStoryboard: 1

[Editor]
DistanceSpacing: 4
BeatDivisor: 4
GridSize: 4
TimelineZoom: 1.4

[Metadata]
Title:Cesky Minecraft Song!!!
TitleUnicode:Cesky Minecraft Song!!!
Artist:Misha
ArtistUnicode:Misha
Creator:Co0ola
Version:UH-U-U-U-U-UU
Source:Mishovy šílenosti
Tags:CZ Czech minecraft misha cesky cesko meme youtube
BeatmapID:935426
BeatmapSetID:421647

[Difficulty]
HPDrainRate:6
CircleSize:4
OverallDifficulty:8
ApproachRate:9
SliderMultiplier:1.4
SliderTickRate:1

[Events]
//Background and Video events
0,0,"BG.png",0,0
//Break Periods
//Storyboard Layer 0 (Background)
//Storyboard Layer 1 (Fail)
//Storyboard Layer 2 (Pass)
//Storyboard Layer 3 (Foreground)
//Storyboard Sound Samples

[TimingPoints]
1593,500,4,1,0,100,1,0
2343,-50,4,2,0,100,0,0
6343,-50,4,2,0,100,0,0
16343,-114.942528735632,4,1,0,100,0,0
18343,-50,4,2,0,100,0,1
20343,-100,4,2,0,100,0,1
22218,-100,4,2,0,100,0,0
22343,-50,4,2,0,100,0,1
26218,-100,4,2,0,100,0,0
26343,-50,4,2,0,100,0,1
30093,-100,4,2,0,100,0,0
48343,-100,4,1,0,100,0,0
50343,-100,4,2,0,100,0,1
54218,-100,4,2,0,100,0,0
54343,-100,4,2,0,100,0,1
58218,-100,4,2,0,100,0,0
58343,-100,4,2,0,100,0,1
62093,-100,4,2,0,100,0,0
64343,-50,4,2,0,100,0,0

[HitObjects]
114,96,2343,5,0,0:0:0:0:
184,304,2593,1,0,0:0:0:0:
393,239,2843,1,0,0:0:0:0:
184,304,3093,1,0,0:0:0:0:
51,202,3343,6,0,B|42:103|42:103|100:56|215:130,1,280
480,51,4343,5,0,0:0:0:0:
148,308,4593,1,0,0:0:0:0:
64,8,4843,1,0,0:0:0:0:
394,268,5093,1,0,0:0:0:0:
264,49,5343,5,0,0:0:0:0:
85,353,5593,1,0,0:0:0:0:
394,268,5843,1,0,0:0:0:0:
79,133,6093,2,0,L|150:8,1,140
256,68,6843,5,0,0:0:0:0:
144,268,7093,1,0,0:0:0:0:
476,232,7343,2,2,B|485:331|485:331|427:378|312:304,2,280
356,96,8843,5,0,0:0:0:0:
312,80,8968,1,0,0:0:0:0:
264,68,9093,1,0,0:0:0:0:
108,79,9343,1,0,0:0:0:0:
264,187,9593,1,0,0:0:0:0:
158,300,9843,6,0,B|198:367|198:367|185:366,1,70
225,368,10093,1,0,0:0:0:0:
357,252,10843,5,0,0:0:0:0:
384,197,10968,1,0,0:0:0:0:
389,135,11093,1,0,0:0:0:0:
106,127,11343,2,0,L|49:180,2,70
256,47,11843,5,0,0:0:0:0:
150,225,12093,2,0,P|174:292|249:319,1,140
295,168,12593,1,0,0:0:0:0:
448,131,12843,2,0,P|424:64|349:37,1,140
141,117,13343,1,0,0:0:0:0:
86,311,13593,5,0,0:0:0:0:
208,167,13843,2,0,L|334:275,1,140
355,292,14343,1,0,0:0:0:0:
122,84,15343,5,0,0:0:0:0:
324,80,15843,1,0,0:0:0:0:
103,306,16343,2,0,B|103:233|103:233|171:233|171:233|171:168|171:168|230:168|230:168|230:237|230:237|304:237|304:237|306:323,1,487.200004088745
331,325,18593,6,0,P|392:281|392:281,1,70
433,95,18843,2,0,L|376:47,1,70
162,57,19093,2,0,B|121:113|121:113|117:113,1,70
110,271,19343,2,0,L|176:318,1,70
268,200,19593,2,0,L|267:120,1,70
264,80,19843,1,0,0:0:0:0:
161,289,20343,5,0,0:0:0:0:
158,97,20593,1,0,0:0:0:0:
350,94,20843,1,0,0:0:0:0:
353,286,21093,1,0,0:0:0:0:
132,249,21343,5,0,0:0:0:0:
198,68,21593,1,0,0:0:0:0:
379,134,21843,1,0,0:0:0:0:
313,315,22093,1,0,0:0:0:0:
181,325,22343,6,0,P|120:281|120:281,1,70
79,95,22593,2,0,L|136:47,1,70
350,57,22843,2,0,B|391:113|391:113|395:113,1,70
402,271,23093,2,0,L|336:318,1,70
244,200,23343,2,0,L|245:120,1,70
244,237,23593,2,0,B|244:308|245:308,1,70
248,348,23843,1,0,0:0:0:0:
350,289,24343,5,0,0:0:0:0:
353,97,24593,1,0,0:0:0:0:
161,94,24843,1,0,0:0:0:0:
158,286,25093,1,0,0:0:0:0:
379,249,25343,5,0,0:0:0:0:
313,68,25593,1,0,0:0:0:0:
132,134,25843,1,0,0:0:0:0:
198,315,26093,1,0,0:0:0:0:
391,24,26343,6,0,P|452:68|452:68,1,70
483,330,26593,2,0,L|426:378,1,70
72,382,26843,2,0,B|31:326|31:326|27:326,1,70
28,48,27093,2,0,L|94:1,1,70
256,261,27343,2,0,L|256:340,1,70
256,154,27593,2,0,B|256:82,1,70
256,34,27843,1,0,0:0:0:0:
176,293,28343,5,0,0:0:0:0:
207,72,28593,1,0,0:0:0:0:
384,209,28843,1,0,0:0:0:0:
148,264,29093,1,0,0:0:0:0:
246,62,29343,1,0,0:0:0:0:
372,248,29593,1,0,0:0:0:0:
131,227,29843,1,0,0:0:0:0:
287,66,30093,1,0,0:0:0:0:
349,281,30343,1,0,0:0:0:0:
80,70,30843,5,0,0:0:0:0:
155,318,31843,1,0,0:0:0:0:
368,65,32843,1,0,0:0:0:0:
420,317,33843,1,0,0:0:0:0:
150,103,34343,5,0,0:0:0:0:
135,277,34593,2,0,B|182:299|227:298|227:298,1,70
410,211,35093,1,0,0:0:0:0:
282,48,35343,2,0,B|241:82|211:116|203:157|209:187|209:187,1,140
90,263,36343,6,0,B|113:318|172:279|172:279|187:318,1,140
353,263,37093,1,0,0:0:0:0:
421,121,37343,2,0,B|398:66|339:105|339:105|324:65,1,140
114,128,38093,1,0,0:0:0:0:
98,288,38343,2,0,P|140:302|176:270,1,70
372,289,38843,5,0,0:0:0:0:
360,195,39093,2,0,B|315:155|315:155|342:127|315:79,1,140
170,116,39843,2,0,B|130:161|130:161|102:134|54:161,1,140
99,284,40593,1,0,0:0:0:0:
263,293,40843,6,0,P|284:254|284:254,2,35
466,346,41343,1,0,0:0:0:0:
450,136,41593,2,0,L|446:88,2,35
240,138,42093,1,0,0:0:0:0:
105,301,42843,6,0,B|50:254|93:244,1,70
245,159,43343,2,0,B|279:151|224:104,1,70
72,324,43843,6,0,B|17:277|60:267,1,70
281,139,44343,2,0,B|315:131|260:84,1,70
66,42,44843,2,0,B|31:49|86:96,1,70
268,327,45343,1,0,0:0:0:0:
351,208,45593,1,0,0:0:0:0:
152,138,45843,1,0,0:0:0:0:
344,312,46093,2,0,B|402:302|421:280|421:280|421:279,2,70
195,297,46843,5,0,0:0:0:0:
195,86,47343,1,0,0:0:0:0:
377,192,47843,1,0,0:0:0:0:
147,293,48343,5,0,0:0:0:0:
154,83,48593,1,0,0:0:0:0:
364,90,48843,1,0,0:0:0:0:
357,300,49093,1,0,0:0:0:0:
107,186,49343,1,0,0:0:0:0:
261,43,49593,1,0,0:0:0:0:
404,197,49843,1,0,0:0:0:0:
250,340,50093,1,0,0:0:0:0:
100,244,50343,6,0,L|132:188,1,35
203,35,50593,2,0,L|259:68,1,35,0|0,2:0|2:0,2:0:0:0:
412,140,50843,2,0,L|380:196,1,35
308,348,51093,2,0,L|252:316,1,35
166,230,51343,2,0,L|176:166,1,35
316,83,51593,2,0,L|374:103,1,35
399,217,51843,1,0,0:0:0:0:
350,289,52343,5,0,0:0:0:0:
353,97,52593,1,0,0:0:0:0:
161,94,52843,1,0,0:0:0:0:
158,286,53093,1,0,0:0:0:0:
379,249,53343,5,0,0:0:0:0:
313,68,53593,1,0,0:0:0:0:
132,134,53843,1,0,0:0:0:0:
198,315,54093,1,0,0:0:0:0:
412,244,54343,6,0,L|380:188,1,35
308,35,54593,2,0,L|252:68,1,35,0|0,2:0|2:0,2:0:0:0:
100,140,54843,2,0,L|132:196,1,35
204,348,55093,2,0,L|260:316,1,35
346,230,55343,2,0,L|335:166,1,35
196,83,55593,2,0,L|138:103,1,35
113,217,55843,1,0,0:0:0:0:
162,289,56343,5,0,0:0:0:0:
159,97,56593,1,0,0:0:0:0:
351,94,56843,1,0,0:0:0:0:
354,286,57093,1,0,0:0:0:0:
133,249,57343,5,0,0:0:0:0:
199,68,57593,1,0,0:0:0:0:
380,134,57843,1,0,0:0:0:0:
314,315,58093,1,0,0:0:0:0:
100,140,58343,6,0,L|132:196,1,35
203,348,58593,2,0,L|259:316,1,35,0|0,2:0|2:0,2:0:0:0:
412,244,58843,2,0,L|380:188,1,35
308,36,59093,2,0,L|252:68,1,35
166,154,59343,2,0,L|176:217,1,35
316,301,59593,2,0,L|374:281,1,35
399,167,59843,1,0,0:0:0:0:
350,95,60093,5,0,0:0:0:0:
353,287,60343,1,0,0:0:0:0:
161,290,60593,1,0,0:0:0:0:
158,98,60843,1,0,0:0:0:0:
379,135,61093,5,0,0:0:0:0:
313,316,61343,1,0,0:0:0:0:
132,250,61593,1,0,0:0:0:0:
198,69,61843,1,0,0:0:0:0:
432,70,62093,5,0,0:0:0:0:
357,318,63093,1,0,0:0:0:0:
144,65,64093,5,0,0:0:0:0:
256,192,64343,12,0,66093,0:0:0:0:
255,192,66343,5,0,0:0:0:0:
