osu file format v14

[General]
AudioFilename: audio.mp3
AudioLeadIn: 0
PreviewTime: 34343
Countdown: 1
SampleSet: Soft
StackLeniency: 0.7
Mode: 0
LetterboxInBreaks: 0
WidescreenStoryboard: 1

[Editor]
DistanceSpacing: 2
BeatDivisor: 4
GridSize: 4
TimelineZoom: 1.4

[Metadata]
Title:Cesky Minecraft Song!!!
TitleUnicode:Cesky Minecraft Song!!!
Artist:Misha
ArtistUnicode:Misha
Creator:Co0ola
Version:A HLAVNE TAM NEJSOU ZADNY VOSY
Source:Mishovy ��lenosti
Tags:CZ Czech minecraft misha cesky cesko meme youtube
BeatmapID:927235
BeatmapSetID:421647

[Difficulty]
HPDrainRate:4
CircleSize:3.8
OverallDifficulty:5
ApproachRate:8
SliderMultiplier:1.1
SliderTickRate:0.5

[Events]
//Background and Video events
0,0,"BG.png",0,0
//Break Periods
2,30293,33593
//Storyboard Layer 0 (Background)
//Storyboard Layer 1 (Fail)
//Storyboard Layer 2 (Pass)
//Storyboard Layer 3 (Foreground)
//Storyboard Sound Samples

[TimingPoints]
1593,500,4,1,0,60,1,0
1593,-66.6666666666667,4,1,0,60,0,0
2343,-100,4,2,0,60,0,0
3218,-66.6666666666667,4,2,0,60,0,0
6343,-50,4,2,0,60,0,0
8718,-133.333333333333,4,2,0,60,0,0
9718,-100,4,2,0,60,0,0
16343,-50,4,1,0,60,0,0
18343,-50,4,2,0,60,0,1
20343,-100,4,2,0,60,0,1
22218,-100,4,2,0,60,0,0
22343,-100,4,2,0,60,0,1
26218,-100,4,2,0,60,0,0
26343,-100,4,2,0,60,0,1
30093,-100,4,2,0,60,0,0
48343,-100,4,1,0,60,0,0
50343,-100,4,2,0,60,0,1
54218,-100,4,2,0,60,0,0
54343,-100,4,2,0,60,0,1
58218,-100,4,2,0,60,0,0
58343,-100,4,2,0,60,0,1
62093,-100,4,2,0,60,0,0
64343,-50,4,2,0,60,0,0

[HitObjects]
64,152,2343,6,0,P|92:116|124:100,1,65
152,208,2843,1,0,0:0:0:0:
224,124,3093,1,0,0:0:0:0:
376,56,3343,2,0,P|424:56|420:152,1,165.000006294251
480,304,4093,1,0,0:0:0:0:
316,276,4343,1,0,0:0:0:0:
424,152,4593,1,0,0:0:0:0:
296,48,4843,6,0,P|216:80|204:104,1,82.5000031471254
312,212,5343,2,0,P|284:244|216:252,1,82.5000031471254
120,152,5843,1,0,0:0:0:0:
20,284,6093,1,0,0:0:0:0:
220,372,6343,2,0,L|324:308,1,110
500,200,6843,6,0,P|524:148|496:100,1,110
284,84,7343,2,0,B|252:92|232:108|232:108|208:92|168:84,1,110
156,304,7843,2,0,B|132:296|112:272|112:272|80:288|40:292,1,110
260,196,8343,1,0,0:0:0:0:
468,272,8593,1,0,0:0:0:0:
408,328,8843,2,0,P|364:344|280:332,1,123.750004720688
340,236,9843,1,0,0:0:0:0:
248,180,10093,2,0,B|276:152|296:144|296:144|264:100,1,110
160,132,10843,5,0,0:0:0:0:
156,240,11093,1,0,0:0:0:0:
212,336,11343,2,0,P|244:348|280:336,1,55
252,236,11843,2,0,P|284:228|316:248,3,55
400,292,12843,1,0,0:0:0:0:
424,172,13093,2,0,B|428:112|388:76|388:76|328:96|256:72,1,220
308,184,14343,6,0,L|304:248,1,55
244,316,14843,2,0,L|168:288,1,55
84,308,15343,2,0,L|44:252,1,55
112,172,15843,2,0,L|124:100,1,55
340,112,16343,1,0,0:0:0:0:
340,112,16593,2,0,P|384:168|348:308,1,220
132,304,17343,2,0,P|100:212|144:92,1,220
137,99,18093,1,0,0:0:0:0:
356,80,18343,6,0,P|412:100|432:160,1,110
328,336,18843,2,0,P|260:336|216:308,1,110
60,172,19343,2,0,P|40:104|72:32,1,110
152,108,19718,1,0,0:0:0:0:
364,360,20093,1,0,0:0:0:0:
276,292,20343,1,0,0:0:0:0:
168,292,20593,1,0,0:0:0:0:
72,240,20843,6,0,P|120:184|120:144,1,110
228,172,21593,2,0,P|208:100|224:60,1,110
316,120,22343,1,0,0:0:0:0:
416,164,22593,2,0,L|416:228,1,55
312,256,23093,2,0,L|312:312,1,55
204,284,23593,2,0,L|181:299,1,27.5
84,168,24093,5,0,0:0:0:0:
184,112,24343,2,0,P|256:120|300:92,1,110
388,140,25093,2,0,L|400:208,1,55
424,300,25593,1,0,0:0:0:0:
316,300,25843,1,0,0:0:0:0:
208,296,26093,1,0,0:0:0:0:
80,328,26343,6,0,P|28:288|24:280,1,55
120,228,26843,2,0,L|120:156,1,55
180,80,27343,1,0,0:0:0:0:
284,116,27593,2,0,L|320:144,1,27.5
404,268,28093,1,0,0:0:0:0:
308,324,28343,2,0,B|236:336|236:336|208:324|200:304,1,110
252,216,29093,2,0,P|224:184|196:172,1,55
128,252,29593,2,0,P|88:224|76:200,1,55
28,124,30093,1,0,0:0:0:0:
416,232,34343,6,0,P|404:288|352:276,1,110
280,212,35093,1,0,0:0:0:0:
280,104,35343,2,0,P|220:76|160:84,1,110
84,136,36093,1,0,0:0:0:0:
12,200,36343,2,0,P|20:232|48:264,1,55
120,316,36843,2,0,P|148:328|188:320,1,55
264,268,37343,6,0,P|328:276|296:200,1,165
208,172,38343,1,0,0:0:0:0:
284,92,38593,1,0,0:0:0:0:
184,44,38843,1,0,0:0:0:0:
76,44,39093,2,0,P|80:80|112:108,1,55
8,136,39593,2,0,L|8:204,1,55
72,280,40093,2,0,P|84:316|116:328,1,55
184,256,40593,1,0,0:0:0:0:
292,256,40843,1,0,0:0:0:0:
368,336,41093,6,0,P|404:296|404:232,1,110
468,152,41843,1,0,0:0:0:0:
372,100,42093,1,0,0:0:0:0:
308,188,42343,2,0,P|268:188|252:220,1,55
204,300,42843,5,0,0:0:0:0:
104,348,43093,1,0,0:0:0:0:
104,240,43343,1,0,0:0:0:0:
40,152,43593,6,0,L|84:96,1,55
144,24,44093,2,0,L|204:28,1,55
220,136,44593,2,0,L|296:140,1,55
380,112,45093,2,0,P|404:140|412:160,1,55
432,264,45593,2,0,P|424:292|404:312,1,55
324,236,46093,5,0,0:0:0:0:
260,148,46343,2,0,P|232:160|212:192,1,55
160,272,46843,2,0,L|124:328,2,55
96,180,47593,1,0,0:0:0:0:
148,84,47843,1,0,0:0:0:0:
256,84,48093,1,0,0:0:0:0:
252,192,48343,6,0,P|184:192|160:164,1,110
184,272,49093,1,0,0:0:0:0:
260,352,49343,2,0,L|312:336,1,55
392,260,49843,2,0,L|416:196,1,55
300,168,50343,5,0,0:0:0:0:
232,84,50593,1,0,0:0:0:0:
124,108,50843,2,0,P|144:124|148:176,1,55
56,200,51343,1,0,0:0:0:0:
92,304,51593,2,0,L|120:328,1,27.5
228,204,52093,5,0,0:0:0:0:
268,100,52343,2,0,L|316:148,1,55
396,204,52843,2,0,L|396:272,1,55
308,340,53343,1,0,0:0:0:0:
232,268,53593,1,0,0:0:0:0:
120,268,53843,1,0,0:0:0:0:
40,192,54093,1,0,0:0:0:0:
132,132,54343,6,0,P|160:112|168:76,1,55
276,96,54843,2,0,P|300:60|320:56,1,55
380,140,55343,1,0,0:0:0:0:
452,220,55593,2,0,L|424:256,1,27.5
324,364,56093,1,0,0:0:0:0:
324,256,56343,6,0,L|264:228,1,55
332,136,56843,2,0,L|392:96,1,55
444,196,57343,1,0,0:0:0:0:
448,304,57593,2,0,P|432:336|396:352,1,55
344,264,58093,1,0,0:0:0:0:
240,232,58343,5,0,0:0:0:0:
156,312,58593,2,0,P|104:296|72:248,1,110
140,164,59343,1,0,0:0:0:0:
144,56,59593,2,0,L|196:56,1,27.5
296,164,60093,1,0,0:0:0:0:
404,168,60343,6,0,P|424:192|424:220,1,55
368,308,60843,2,0,P|352:340|284:328,1,110
272,224,61593,1,0,0:0:0:0:
312,120,61843,1,0,0:0:0:0:
208,84,62093,1,0,0:0:0:0:
112,136,62343,6,0,P|104:172|120:208,1,55
216,208,62843,2,0,L|248:268,1,55
288,356,63343,1,0,0:0:0:0:
392,320,63593,2,0,P|452:300|460:260,1,110
459,259,64343,1,0,0:0:0:0:
