osu file format v14

[General]
AudioFilename: audio.mp3
AudioLeadIn: 0
PreviewTime: 67644
Countdown: 0
SampleSet: Soft
StackLeniency: 0.7
Mode: 0
LetterboxInBreaks: 0
WidescreenStoryboard: 1

[Editor]
Bookmarks: 3832,15832,30832,41332,48832,58581,67581,79581,94644,97581,112581
DistanceSpacing: 0.8
BeatDivisor: 4
GridSize: 32
TimelineZoom: 1.6

[Metadata]
Title:To the Shining MiLie
TitleUnicode:キラメクMiLieへ
Artist:Mischievous*Straight
ArtistUnicode:イタズラ☆ストレート
Creator:Kawashiro
Version:Normal
Source:ブルーアーカイブ
Tags:Blue Archive ブルアカ BuruAka Buru Aka NAT Games NEXON Yostar Kirameku MiLie e Itazura*Straight april fools 天童アリス Tendou Aris 田中 美海 Tanaka Minami Ajitani Hifumi 阿慈谷ヒフミ 本渡 楓 Hondo Kaede 陸八魔アル Rikuhachima Aru 近藤 玲奈 Kondo Reina 早瀬ユウカ Hayase Yuuka 春花 らん Haruka Ran Japanese Pop Jpop J-Pop Video Game Soundtrack KuBsNia_ZhoYL_
BeatmapID:3542119
BeatmapSetID:1732966

[Difficulty]
HPDrainRate:2
CircleSize:3.3
OverallDifficulty:4
ApproachRate:5.3
SliderMultiplier:1.2
SliderTickRate:1

[Events]
//Background and Video events
0,0,"bg.jpg",0,0
Video,0,"asdfa.mp4"
//Break Periods
//Storyboard Layer 0 (Background)
//Storyboard Layer 1 (Fail)
//Storyboard Layer 2 (Pass)
//Storyboard Layer 3 (Foreground)
//Storyboard Layer 4 (Overlay)
//Storyboard Sound Samples

[TimingPoints]
3911,375,4,2,0,30,1,0
3911,-125,4,2,0,30,0,0
9911,-125,4,2,0,50,0,0
15911,-100,4,2,0,70,0,0
27911,-100,4,2,0,60,0,0
30911,-100,4,2,0,50,0,0
48905,342.857142857142,3,2,0,50,1,0
58644,375,4,2,0,60,1,0
67644,-100,4,2,0,80,0,1
94831,-125,4,2,0,50,0,1
97644,-100,4,2,0,70,0,0
112644,-100,4,2,0,40,0,0
113019,-100,4,2,0,80,0,0
113112,-100,4,2,0,20,0,0

[Colours]
Combo1 : 255,255,43
Combo2 : 75,232,30
Combo3 : 255,64,64
Combo4 : 49,187,247

[HitObjects]
440,367,3911,6,0,B|442:321|484:334|515:290|507:246|469:218|436:247|436:247|408:207|377:216|352:251|361:288|386:314,1,336,0|0,0:0|0:0,0:0:0:0:
349,340,5411,2,0,B|287:360|229:319|247:248|247:248|263:181|208:135|147:159,1,336,0|0,0:0|0:0,0:0:0:0:
114,152,6911,2,0,B|89:128|89:128|53:132|53:132|71:102|71:102|53:70|53:70|89:77|89:77|114:51|114:51|119:85|119:85|149:101|149:101|119:116|119:116|115:150,1,336,0|0,0:0|0:0,0:0:0:0:
116,134,9911,6,0,P|169:129|212:85,1,96,0|8,0:0|0:0,0:0:0:0:
275,42,10661,2,0,P|313:13|360:11,1,96,0|8,0:0|0:0,0:0:0:0:
403,31,11223,2,0,L|394:130,1,96,0|0,0:0|0:0,0:0:0:0:
424,164,11786,1,8,0:0:0:0:
485,237,12161,2,0,P|452:297|412:309,1,96,0|8,0:0|0:0,0:0:0:0:
392,317,12723,1,0,0:0:0:0:
485,237,15536,1,2,0:0:0:0:
407,294,15911,6,0,L|271:278,1,120,4|8,0:1|0:0,0:0:0:0:
239,277,16473,1,0,0:0:0:0:
210,316,16661,2,0,P|160:355|78:350,1,120,2|8,0:0|0:0,0:0:0:0:
58,346,17223,1,4,0:0:0:0:
107,264,17598,2,0,L|116:167,1,60,0|8,0:0|0:0,0:0:0:0:
104,156,17973,1,0,0:0:0:0:
91,110,18161,2,0,P|150:103|197:52,1,120,2|8,0:0|0:0,0:0:0:0:
206,16,18723,1,4,0:0:0:0:
299,38,19098,6,0,L|368:33,2,60,0|8|0,0:0|0:0|0:0,0:0:0:0:
277,81,19661,2,0,P|316:144|401:148,1,120,2|8,0:0|0:0,0:0:0:0:
404,155,20223,2,0,P|457:178|483:231,1,120,2|0,0:0|0:0,0:0:0:0:
483,279,20786,1,8,0:0:0:0:
412,344,21161,2,0,P|384:334|365:311,1,60,2|8,0:0|0:0,0:0:0:0:
353,264,21536,1,8,0:0:0:0:
262,231,21911,6,0,L|276:99,1,120,4|8,0:0|0:0,0:0:0:0:
239,79,22473,1,0,0:0:0:0:
203,47,22661,2,0,P|155:98|87:102,1,120,2|8,0:0|0:0,0:0:0:0:
60,100,23223,1,4,0:0:0:0:
83,193,23598,2,0,L|75:256,1,60,0|8,0:0|0:0,0:0:0:0:
71,300,23973,1,0,0:0:0:0:
63,347,24161,2,0,P|130:346|170:302,1,120,2|8,0:0|0:0,0:0:0:0:
185,267,24723,1,4,0:0:0:0:
271,224,25098,5,0,0:0:0:0:
319,227,25286,2,0,P|357:252|366:283,1,60,8|0,0:0|0:0,0:0:0:0:
365,311,25661,2,0,L|429:299,2,60,0|0|8,0:0|0:0|0:0,0:0:0:0:
331,345,26223,2,0,P|285:329|252:242,1,120,4|0,0:0|0:0,0:0:0:0:
253,221,26786,2,0,L|261:144,1,60,8|0,0:0|0:0,0:0:0:0:
268,114,27161,2,0,P|305:68|363:58,1,120,2|8,0:0|0:0,0:0:0:0:
449,16,27911,5,4,0:1:0:0:
434,159,28473,1,0,0:0:0:0:
313,238,29036,1,0,0:0:0:0:
173,243,29598,2,0,B|110:242|81:209|60:163|58:110|72:70|116:61|141:81|141:135,1,300,2|2,0:0|0:0,0:0:0:0:
232,162,30911,6,0,L|355:150,2,120,0|8|0,0:0|0:0|0:0,0:0:0:0:
113,242,32223,2,0,P|90:279|94:305,1,60,2|0,0:0|0:0,0:0:0:0:
64,334,32598,2,0,L|183:322,1,120,2|2,0:0|0:0,0:0:0:0:
324,352,33536,1,8,0:0:0:0:
414,319,33911,6,0,P|428:294|424:249,1,60,4|0,0:0|0:0,0:0:0:0:
399,225,34286,1,8,0:0:0:0:
336,152,34661,2,0,P|341:86|401:34,1,120,2|8,0:0|0:0,0:0:0:0:
415,20,35223,2,0,L|275:6,1,120,2|0,0:0|0:0,0:0:0:0:
247,2,35786,1,8,0:0:0:0:
140,92,36348,2,0,L|150:151,2,60,0|8|0,0:0|0:0|0:0,0:0:0:0:
171,55,36911,6,0,P|104:49|56:0,2,120,0|8|0,0:0|0:0|0:0,0:0:0:0:
279,149,38223,2,0,P|313:121|346:119,1,60,2|0,0:0|0:0,0:0:0:0:
361,84,38598,2,0,P|428:90|476:139,1,120,2|2,0:0|0:0,0:0:0:0:
412,256,39536,1,8,0:0:0:0:
323,292,39911,6,0,B|290:289|272:260|272:260|255:234|224:230,1,120,4|8,0:0|0:0,0:0:0:0:
130,215,40661,2,0,L|137:279,2,60,2|0|8,0:0|0:0|0:0,0:0:0:0:
89,188,41223,1,4,0:1:0:0:
60,96,41598,5,0,0:0:0:0:
96,64,41786,2,0,P|131:68|164:101,1,60,8|0,0:0|0:0,0:0:0:0:
187,111,42161,2,0,P|205:70|242:45,2,90,2|0|0,0:0|0:0|0:0,0:0:0:0:
261,172,43098,1,0,0:0:0:0:
308,165,43286,2,0,L|374:153,1,60,8|0,0:0|0:0,0:0:0:0:
400,119,43661,2,0,P|424:190|484:222,1,120,4|8,0:0|0:0,0:0:0:0:
505,224,44223,1,4,0:0:0:0:
490,318,44598,5,0,0:0:0:0:
452,347,44786,2,0,P|411:341|385:307,1,60,8|0,0:0|0:0,0:0:0:0:
365,293,45161,2,0,L|375:202,2,90,2|0|0,0:0|0:0|0:0,0:0:0:0:
276,330,46098,1,0,0:0:0:0:
234,305,46286,2,0,P|212:282|214:227,1,60,8|0,0:0|0:0,0:0:0:0:
170,223,46661,2,0,P|231:196|257:127,1,120,4|8,0:0|0:0,0:0:0:0:
204,69,47411,1,4,0:0:0:0:
204,69,48905,6,0,L|323:55,1,120,2|2,0:0|0:0,0:0:0:0:
370,46,49419,1,2,0:0:0:0:
402,10,49590,1,2,0:0:0:0:
487,57,49933,2,0,L|500:176,1,120,2|2,0:0|0:0,0:0:0:0:
493,223,50447,1,2,0:0:0:0:
453,250,50619,1,2,0:0:0:0:
369,205,50962,6,0,L|249:218,1,120,2|2,0:0|0:0,0:0:0:0:
212,187,51476,1,2,0:0:0:0:
168,167,51647,1,2,0:0:0:0:
76,199,51990,2,0,L|89:318,1,120,2|2,0:0|0:0,0:0:0:0:
123,351,52504,1,2,0:0:0:0:
169,363,52676,1,2,0:0:0:0:
263,337,53019,6,0,L|249:217,1,120,2|2,0:0|0:0,0:0:0:0:
219,180,53533,1,2,0:0:0:0:
190,141,53704,1,2,0:0:0:0:
254,69,54047,2,0,L|373:55,1,120,2|2,0:0|0:0,0:0:0:0:
420,64,54562,1,2,0:0:0:0:
451,100,54733,1,2,0:0:0:0:
418,192,55076,6,0,L|431:311,1,120,2|2,0:0|0:0,0:0:0:0:
389,336,55590,1,2,0:0:0:0:
347,360,55762,1,2,0:0:0:0:
266,307,56104,5,2,0:0:0:0:
468,110,58644,6,0,P|463:147|426:178,1,60,4|0,0:1|0:0,0:0:0:0:
405,184,59019,1,8,0:0:0:0:
357,186,59206,2,0,P|291:146|276:102,1,120,2|2,0:0|0:0,0:0:0:0:
287,61,59769,1,8,0:0:0:0:
195,30,60144,6,0,P|162:82|120:87,1,60,4|0,0:0|0:0,0:0:0:0:
122,100,60518,1,8,0:0:0:0:
79,123,60706,2,0,P|36:164|31:222,1,120,2|2,0:0|0:0,0:0:0:0:
53,265,61269,1,8,0:0:0:0:
140,303,61644,5,12,0:0:0:0:
228,266,62019,1,8,0:0:0:0:
319,294,62394,2,0,P|339:333|377:355,2,90,8|8|8,0:0|0:0|0:0,0:0:0:0:
344,253,63144,1,8,0:0:0:0:
397,173,63519,1,8,0:0:0:0:
437,88,63894,2,0,L|429:-1,2,90,8|8|8,0:0|0:0|0:0,0:0:0:0:
398,117,64644,6,0,L|332:121,1,60,2|2,0:0|0:0,0:0:0:0:
300,90,65019,2,0,L|234:94,1,60,2|2,0:0|0:0,0:0:0:0:
206,59,65394,2,0,L|140:63,1,60,2|2,0:0|0:0,0:0:0:0:
109,31,65769,2,0,L|43:35,1,60,2|2,0:0|0:0,0:0:0:0:
8,9,66144,5,6,0:0:0:0:
109,31,67644,5,4,0:1:0:0:
150,55,67831,1,0,0:0:0:0:
172,97,68019,2,0,L|162:166,1,60,8|0,0:0|0:0,0:0:0:0:
174,203,68394,2,0,P|141:258|76:270,1,120,2|8,0:0|0:0,0:0:0:0:
46,292,68956,2,0,P|101:309|130:361,1,120,4|0,0:0|0:0,0:0:0:0:
176,373,69519,2,0,L|244:362,1,60,8|0,0:0|0:0,0:0:0:0:
281,376,69894,2,0,P|336:358|365:306,1,120,2|8,0:0|0:0,0:0:0:0:
349,260,70456,5,4,0:0:0:0:
328,166,70831,1,0,0:0:0:0:
318,118,71019,2,0,P|336:78|355:69,1,60,8|0,0:0|0:0,0:0:0:0:
392,52,71394,2,0,L|482:58,2,90,2|0|4,0:0|0:0|0:0,0:0:0:0:
247,12,72519,1,8,0:0:0:0:
238,61,72706,2,0,P|187:104|120:99,1,120,2|2,0:0|0:0,0:0:0:0:
92,84,73269,1,8,0:0:0:0:
43,166,73644,6,0,L|49:231,1,60,4|4,0:0|0:0,0:0:0:0:
42,273,74019,2,0,P|83:242|160:241,1,120,2|4,0:0|0:0,0:0:0:0:
239,270,74769,2,0,L|245:205,1,60,4|4,0:0|0:0,0:0:0:0:
238,163,75144,2,0,P|279:194|356:195,1,120,2|4,0:0|0:0,0:0:0:0:
420,137,75894,2,0,L|426:73,1,60,2|2,0:0|0:0,0:0:0:0:
511,110,76456,6,0,B|505:181|505:181|498:208|455:219,1,120,4|0,0:0|0:0,0:0:0:0:
425,226,77019,2,0,P|396:256|396:291,1,60,8|0,0:0|0:0,0:0:0:0:
363,310,77394,2,0,P|381:353|454:374,1,120,2|8,0:0|0:0,0:0:0:0:
486,348,77956,1,4,0:0:0:0:
427,216,78519,2,0,L|418:136,1,60,8|2,0:0|0:0,0:0:0:0:
389,119,78894,2,0,P|412:86|439:82,2,60,2|2|8,0:0|0:0|0:0,0:0:0:0:
314,179,79644,5,4,0:1:0:0:
268,163,79831,1,0,0:0:0:0:
233,129,80019,2,0,P|212:93|214:65,1,60,8|0,0:0|0:0,0:0:0:0:
190,32,80394,2,0,P|156:97|96:117,1,120,2|8,0:0|0:0,0:0:0:0:
68,121,80956,2,0,P|133:155|153:215,1,120,4|0,0:0|0:0,0:0:0:0:
190,223,81519,2,0,L|182:285,1,60,8|0,0:0|0:0,0:0:0:0:
221,310,81894,2,0,P|250:361|304:384,1,120,2|8,0:0|0:0,0:0:0:0:
349,367,82456,5,4,0:0:0:0:
323,274,82831,1,0,0:0:0:0:
335,227,83019,2,0,P|369:189|397:186,1,60,8|0,0:0|0:0,0:0:0:0:
415,159,83394,2,0,P|466:188|479:223,2,90,2|0|4,0:0|0:0|0:0,0:0:0:0:
277,116,84519,1,8,0:0:0:0:
230,103,84706,2,0,B|200:108|185:135|185:135|170:166|137:172,1,120,2|2,0:0|0:0,0:0:0:0:
90,160,85269,1,8,0:0:0:0:
59,248,85644,6,0,L|66:315,1,60,4|0,0:0|0:0,0:0:0:0:
69,355,86019,2,0,P|106:348|149:273,1,120,4|2,0:0|0:0,0:0:0:0:
182,143,86956,2,0,P|206:90|262:71,1,120,4|0,0:0|0:0,0:0:0:0:
310,75,87519,2,0,L|316:134,1,60,8|0,0:0|0:0,0:0:0:0:
295,178,87894,1,2,0:0:0:0:
378,224,88269,2,0,P|406:214|431:177,1,60,8|2,0:0|0:0,0:0:0:0:
451,151,88644,6,0,L|455:80,1,60,4|0,0:0|0:0,0:0:0:0:
456,43,89019,2,0,P|410:79|351:78,1,120,4|2,0:0|0:0,0:0:0:0:
227,145,89956,2,0,P|181:108|122:109,1,120,4|0,0:0|0:0,0:0:0:0:
83,138,90519,2,0,L|79:197,1,60,8|0,0:0|0:0,0:0:0:0:
73,245,90894,1,2,0:0:0:0:
161,281,91269,2,0,P|182:312|182:345,1,60,8|2,0:0|0:0,0:0:0:0:
229,348,91644,6,0,P|253:330|282:327,1,60,4|0,0:0|0:0,0:0:0:0:
328,342,92019,1,4,0:0:0:0:
402,280,92394,2,0,L|416:202,1,60,2|0,0:0|0:0,0:0:0:0:
390,178,92769,1,8,0:0:0:0:
328,103,93144,1,2,0:0:0:0:
303,144,93331,1,2,0:0:0:0:
259,164,93519,2,0,P|219:167|190:152,1,60,2|2,0:0|0:0,0:0:0:0:
161,133,93894,2,0,L|156:64,1,60,2|2,0:0|0:0,0:0:0:0:
120,41,94269,2,0,P|80:38|51:53,1,60,2|2,0:0|0:0,0:0:0:0:
105,90,97644,6,0,L|241:106,1,120,4|8,0:1|0:0,0:0:0:0:
273,107,98206,1,0,0:0:0:0:
302,68,98394,2,0,P|352:29|434:34,1,120,2|8,0:0|0:0,0:0:0:0:
454,38,98956,1,4,0:0:0:0:
405,120,99331,2,0,L|396:217,1,60,0|8,0:0|0:0,0:0:0:0:
408,228,99706,1,0,0:0:0:0:
421,274,99894,2,0,P|362:281|315:332,1,120,2|8,0:0|0:0,0:0:0:0:
306,368,100456,1,4,0:0:0:0:
213,346,100831,6,0,L|144:351,2,60,0|8|0,0:0|0:0|0:0,0:0:0:0:
235,303,101394,2,0,P|196:240|111:236,1,120,2|8,0:0|0:0,0:0:0:0:
108,229,101956,2,0,P|55:206|29:153,1,120,2|0,0:0|0:0,0:0:0:0:
29,105,102519,1,8,0:0:0:0:
100,40,102894,2,0,P|128:50|147:73,1,60,2|8,0:0|0:0,0:0:0:0:
159,120,103269,1,8,0:0:0:0:
250,153,103644,6,0,L|236:285,1,120,4|8,0:0|0:0,0:0:0:0:
273,305,104206,1,0,0:0:0:0:
309,337,104394,2,0,P|357:286|425:282,1,120,2|8,0:0|0:0,0:0:0:0:
452,284,104956,1,4,0:0:0:0:
429,191,105331,2,0,L|437:128,1,60,0|8,0:0|0:0,0:0:0:0:
441,84,105706,1,0,0:0:0:0:
449,37,105894,2,0,P|382:38|342:82,1,120,2|8,0:0|0:0,0:0:0:0:
327,117,106456,1,4,0:0:0:0:
241,160,106831,5,0,0:0:0:0:
193,157,107019,2,0,P|155:132|146:101,1,60,8|0,0:0|0:0,0:0:0:0:
147,73,107394,2,0,L|83:85,2,60,0|0|8,0:0|0:0|0:0,0:0:0:0:
181,39,107956,2,0,P|227:55|260:142,1,120,4|0,0:0|0:0,0:0:0:0:
259,163,108519,2,0,L|251:240,1,60,8|0,0:0|0:0,0:0:0:0:
244,270,108894,2,0,P|207:316|149:326,1,120,2|8,0:0|0:0,0:0:0:0:
63,368,109644,5,4,0:1:0:0:
77,224,110206,1,0,0:0:0:0:
193,139,110769,1,0,0:0:0:0:
337,136,111331,2,0,B|411:137|447:178|474:235|476:301|459:351|404:363|372:338|347:293|364:237|411:221,1,420,2|2,0:0|0:0,0:0:0:0:
502,191,113019,5,4,0:1:0:0:
256,192,113206,12,2,117144,0:0:0:0:
