osu file format v14

[General]
AudioFilename: audio.mp3
AudioLeadIn: 0
PreviewTime: 67644
Countdown: 0
SampleSet: Soft
StackLeniency: 0.7
Mode: 0
LetterboxInBreaks: 0
WidescreenStoryboard: 0

[Editor]
Bookmarks: 3832,15832,30832,41332,48832,58581,67581,79581,94644,97581,112581
DistanceSpacing: 1
BeatDivisor: 4
GridSize: 32
TimelineZoom: 2.1

[Metadata]
Title:To the Shining MiLie
TitleUnicode:キラメクMiLieへ
Artist:Mischievous*Straight
ArtistUnicode:イタズラ☆ストレート
Creator:Kawashiro
Version:Insane
Source:ブルーアーカイブ
Tags:Blue Archive ブルアカ BuruAka Buru Aka NAT Games NEXON Yostar Kirameku MiLie e Itazura*Straight april fools 天童アリス Tendou Aris 田中 美海 Tanaka Minami Ajitani Hifumi 阿慈谷ヒフミ 本渡 楓 Hondo Kaede 陸八魔アル Rikuhachima Aru 近藤 玲奈 Kondo Reina 早瀬ユウカ Hayase Yuuka 春花 らん Haruka Ran Japanese Pop Jpop J-Pop Video Game Soundtrack KuBsNia_ZhoYL_
BeatmapID:3542118
BeatmapSetID:1732966

[Difficulty]
HPDrainRate:6
CircleSize:4
OverallDifficulty:8
ApproachRate:9
SliderMultiplier:1.6
SliderTickRate:1

[Events]
//Background and Video events
0,0,"bg.jpg",0,0
Video,0,"asdfa.mp4"
//Break Periods
//Storyboard Layer 0 (Background)
//Storyboard Layer 1 (Fail)
//Storyboard Layer 2 (Pass)
//Storyboard Layer 3 (Foreground)
//Storyboard Layer 4 (Overlay)
//Storyboard Sound Samples

[TimingPoints]
3911,375,4,2,0,30,1,0
3911,-125,4,2,0,30,0,0
9911,-125,4,2,0,50,0,0
15911,-100,4,2,0,70,0,0
27911,-100,4,2,0,60,0,0
30911,-125,4,2,0,50,0,0
33911,-100,4,2,0,50,0,0
36911,-125,4,2,0,50,0,0
39911,-100,4,2,0,50,0,0
47411,-71.4285714285714,4,2,0,50,0,0
48905,342.857142857142,3,2,0,50,1,0
58644,375,4,2,0,60,1,0
67644,-83.3333333333333,4,2,0,80,0,1
94831,-125,4,2,0,50,0,1
97644,-100,4,2,0,70,0,0
112644,-100,4,2,0,40,0,0
113019,-100,4,2,0,80,0,0
113112,-100,4,2,0,20,0,0

[Colours]
Combo1 : 255,255,43
Combo2 : 75,232,30
Combo3 : 255,64,64
Combo4 : 49,187,247

[HitObjects]
441,362,3911,6,0,B|444:304|512:320|553:263|541:205|493:169|449:207|449:207|414:155|374:167|342:212|353:260|385:293,1,448
378,285,5411,2,0,B|308:332|221:300|218:204|218:204|215:113|130:72|59:123,1,448
61,122,6911,2,0,B|29:91|29:91|-19:96|-19:96|4:56|4:56|-19:13|-19:13|29:23|29:23|62:-12|62:-12|69:33|69:33|109:55|109:55|68:76|68:76|64:120,1,448
65,101,9911,6,0,P|94:119|106:158,1,64
61,324,10286,2,0,P|32:306|15:250,1,96,8|0,0:0|0:0,0:0:0:0:
11,237,10661,2,0,L|99:244,1,64
157,248,11036,1,8,0:0:0:0:
333,352,11223,6,0,B|364:357|390:329|390:329|416:304|448:310,1,128
469,174,11786,2,0,P|499:197|502:246,1,64,8|0,0:0|0:0,0:0:0:0:
269,276,12161,1,0,0:0:0:0:
269,276,12348,1,0,0:0:0:0:
338,229,12536,2,0,L|414:235,1,64,8|0,0:0|0:0,0:0:0:0:
401,234,13098,6,0,P|416:216|416:162,1,64,2|2,0:0|0:0,0:0:0:0:
421,176,13661,2,0,P|406:194|406:248,1,64,2|2,0:0|0:0,0:0:0:0:
401,234,14223,2,0,P|440:211|462:133,1,128,2|2,0:0|0:0,0:0:0:0:
298,87,14786,2,0,P|313:135|344:151,1,64,2|0,2:0|2:0,2:0:0:0:
417,18,15161,1,2,0:0:0:0:
417,18,15536,1,2,0:0:0:0:
116,248,15911,6,0,L|46:240,1,40,4|0,0:1|0:0,0:0:0:0:
204,303,16098,1,0,0:0:0:0:
204,303,16192,1,0,0:0:0:0:
204,303,16286,2,0,P|186:332|163:337,1,40,8|0,0:0|0:0,0:0:0:0:
289,271,16473,1,0,0:0:0:0:
289,271,16567,1,0,0:0:0:0:
289,271,16661,2,0,P|312:295|311:319,1,40,2|0,0:0|0:0,0:0:0:0:
267,378,16848,1,0,0:0:0:0:
187,222,17036,1,8,0:0:0:0:
406,307,17223,2,0,P|449:292|485:213,1,120,4|0,0:0|0:0,0:0:0:0:
483,147,17598,6,0,L|480:101,1,40
478,33,17786,1,8,0:0:0:0:
338,151,17973,1,0,0:0:0:0:
338,151,18067,1,0,0:0:0:0:
338,151,18161,2,0,P|360:140|375:120,1,40,2|0,0:0|0:0,0:0:0:0:
230,64,18348,2,0,P|250:77|275:80,1,40
344,48,18536,1,8,0:0:0:0:
162,192,18723,2,0,B|136:198|109:173|109:173|83:148|53:153,1,120,4|0,0:0|0:0,0:0:0:0:
7,213,19098,6,0,L|14:257,1,40
30,329,19286,1,8,0:0:0:0:
163,178,19473,1,0,0:0:0:0:
33,336,19661,2,0,P|93:311|105:280,1,80,2|0,0:0|0:0,0:0:0:0:
55,142,20036,1,8,0:0:0:0:
191,328,20223,2,0,P|232:297|362:284,1,160,2|0,0:0|0:0,0:0:0:0:
481,320,20786,2,0,P|446:339|407:345,1,80,8|0,0:0|0:0,0:0:0:0:
281,203,21161,2,0,P|274:183|288:154,1,40,2|0,0:0|0:0,0:0:0:0:
333,103,21348,1,8,0:0:0:0:
439,208,21536,2,0,P|400:208|366:187,1,80,8|0,0:0|0:0,0:0:0:0:
160,87,21911,6,0,L|166:42,1,40,4|0,0:0|0:0,0:0:0:0:
96,163,22098,1,0,0:0:0:0:
96,163,22192,1,0,0:0:0:0:
96,163,22286,2,0,P|78:140|58:134,1,40,8|0,0:0|0:0,0:0:0:0:
198,227,22473,1,0,0:0:0:0:
198,227,22567,1,0,0:0:0:0:
198,227,22661,2,0,P|216:204|236:198,1,40,2|0,0:0|0:0,0:0:0:0:
302,234,22848,1,0,0:0:0:0:
113,285,23036,1,8,0:0:0:0:
192,123,23223,2,0,P|232:148|308:144,1,120,4|0,0:0|0:0,0:0:0:0:
375,110,23598,6,0,L|385:68,1,40
344,0,23786,1,8,0:0:0:0:
468,129,23973,1,0,0:0:0:0:
468,129,24067,1,0,0:0:0:0:
468,129,24161,2,0,L|478:171,1,40,2|0,0:0|0:0,0:0:0:0:
332,270,24348,2,0,L|322:231,1,40
299,150,24536,1,8,0:0:0:0:
457,40,24723,1,4,0:0:0:0:
457,40,25098,6,0,P|497:82|496:122,1,80,0|8,0:0|0:0,0:0:0:0:
432,243,25473,1,0,0:0:0:0:
226,174,25661,2,0,P|274:141|313:149,1,80
438,250,26036,1,8,0:0:0:0:
161,361,26223,6,0,P|114:344|78:243,1,160,4|0,0:0|0:0,0:0:0:0:
290,267,26786,2,0,P|253:308|214:311,1,80,8|0,0:0|0:0,0:0:0:0:
127,163,27161,2,0,P|73:141|46:88,1,120,2|0,0:0|0:0,0:0:0:0:
36,89,27536,2,0,L|43:10,1,80,8|0,0:0|0:0,0:0:0:0:
263,135,27911,5,4,0:1:0:0:
201,198,28098,2,0,L|158:193,2,40,0|0|8,0:0|0:0|0:0,0:0:0:0:
306,282,28473,2,0,B|350:293|383:272|411:238|402:200|378:198|369:225,1,160,0|8,0:0|0:0,0:0:0:0:
180,348,29036,2,0,B|135:359|102:338|74:304|83:266|107:264|116:291,1,160,0|8,0:0|0:0,0:0:0:0:
274,379,29598,6,0,P|328:365|419:368,1,120,2|0,0:0|0:0,0:0:0:0:
477,384,29973,1,8,0:0:0:0:
478,376,30161,1,2,0:0:0:0:
481,367,30348,1,2,0:0:0:0:
483,359,30536,1,2,0:0:0:0:
485,351,30723,1,2,0:0:0:0:
366,235,30911,6,0,P|390:276|423:287,1,64
501,174,31286,2,0,P|460:198|451:229,1,64,8|0,0:0|0:0,0:0:0:0:
296,316,31661,2,0,P|283:302|165:270,1,128,0|8,0:0|0:0,0:0:0:0:
90,288,32223,5,2,0:0:0:0:
82,296,32598,1,2,0:0:0:0:
74,304,32973,1,2,0:0:0:0:
69,312,33348,2,0,P|56:293|60:267,1,32
31,205,33536,2,0,L|117:214,1,64,8|0,0:0|0:0,0:0:0:0:
315,126,33911,6,0,L|439:116,1,120,4|0,0:0|0:0,0:0:0:0:
453,128,34286,2,0,P|493:99|492:50,1,80,8|0,0:0|0:0,0:0:0:0:
296,137,34661,1,2,0:0:0:0:
393,263,34848,2,0,L|458:259,1,40
502,219,35036,1,8,0:0:0:0:
325,366,35223,6,0,P|299:332|163:301,1,160,2|0,0:0|0:0,0:0:0:0:
64,194,35786,1,8,0:0:0:0:
9,371,35973,2,0,P|61:365|93:334,1,80,2|0,0:0|0:0,0:0:0:0:
226,172,36348,2,0,L|237:87,1,80,0|8,0:0|0:0,0:0:0:0:
59,202,36723,1,0,0:0:0:0:
327,276,36911,6,0,P|371:251|381:217,1,64
479,201,37286,2,0,P|454:157|419:148,1,64,8|0,0:0|0:0,0:0:0:0:
367,67,37661,2,0,P|326:113|309:189,1,128,0|8,0:0|0:0,0:0:0:0:
236,254,38223,5,2,0:0:0:0:
244,262,38598,1,2,0:0:0:0:
252,270,38973,1,2,0:0:0:0:
257,278,39348,2,0,P|271:263|274:236,1,32
175,307,39536,2,0,L|93:315,1,64,8|0,0:0|0:0,0:0:0:0:
331,370,39911,6,0,P|383:361|424:290,1,120,4|0,0:0|0:0,0:0:0:0:
429,293,40286,2,0,L|426:208,1,80,8|0,0:0|0:0,0:0:0:0:
271,59,40661,2,0,L|268:138,1,80,2|0,0:0|0:0,0:0:0:0:
217,292,41036,1,8,0:0:0:0:
437,205,41223,2,0,P|388:167|338:176,1,80,4|0,0:1|0:0,0:0:0:0:
209,301,41598,5,0,0:0:0:0:
286,343,41786,2,0,P|324:332|350:303,1,80,8|0,0:0|0:0,0:0:0:0:
152,213,42161,2,0,L|57:224,1,80,2|0,0:0|0:0,0:0:0:0:
56,224,42442,1,0,0:0:0:0:
40,226,42536,1,8,0:0:0:0:
228,105,42723,2,0,L|307:114,1,80
138,6,43098,5,0,0:0:0:0:
70,61,43286,2,0,P|80:106|118:131,1,80,8|0,0:0|0:0,0:0:0:0:
216,318,43661,2,0,P|254:310|306:234,1,120,4|0,0:0|0:0,0:0:0:0:
306,232,44036,2,0,L|310:182,1,40,8|0,0:0|0:0,0:0:0:0:
316,108,44223,1,4,0:0:0:0:
316,108,44598,5,0,0:0:0:0:
391,62,44786,2,0,P|442:82|465:119,1,80,8|0,0:0|0:0,0:0:0:0:
223,169,45161,2,0,L|137:157,1,80,2|0,0:0|0:0,0:0:0:0:
127,156,45442,1,0,0:0:0:0:
111,154,45536,1,8,0:0:0:0:
335,264,45723,2,0,L|421:252,1,80
236,384,46098,5,0,0:0:0:0:
175,319,46286,2,0,P|196:271|234:250,1,80,8|0,0:0|0:0,0:0:0:0:
360,97,46661,2,0,P|408:118|429:156,1,80,4|0,0:0|0:0,0:0:0:0:
429,154,46942,1,0,0:0:0:0:
430,169,47036,2,0,L|423:273,1,80,8|0,0:0|0:0,0:0:0:0:
215,324,47411,6,0,B|118:415|28:370|-18:326|-28:272|-37:220|-20:180|12:107|104:57|176:100|219:158|222:203|224:265|166:288|151:300|114:298|95:300|64:286|52:235|104:222,1,783.999976074219,4|0,0:0|0:0,0:0:0:0:
99,223,48905,6,0,L|189:233,1,80,2|0,0:0|0:0,0:0:0:0:
195,234,49162,1,2,0:0:0:0:
210,236,49247,1,2,0:0:0:0:
275,295,49419,1,2,0:0:0:0:
350,259,49590,2,0,P|361:255|383:178,1,80,2|0,0:0|0:0,0:0:0:0:
343,118,49933,6,2,L|253:108,1,80
247,107,50190,1,2,0:0:0:0:
232,105,50275,1,2,0:0:0:0:
167,46,50447,1,2,0:0:0:0:
92,82,50618,2,0,P|81:86|59:163,1,80,2|0,0:0|0:0,0:0:0:0:
3,223,50962,6,0,P|7:234|84:256,1,80,2|0,0:0|0:0,0:0:0:0:
79,262,51219,1,2,0:0:0:0:
93,254,51304,1,2,0:0:0:0:
166,201,51476,1,2,0:0:0:0:
210,271,51647,2,0,L|217:360,1,80,2|0,0:0|0:0,0:0:0:0:
296,303,51990,6,0,P|300:292|377:270,1,80,2|0,0:0|0:0,0:0:0:0:
372,264,52247,1,2,0:0:0:0:
386,272,52332,1,2,0:0:0:0:
459,325,52504,1,2,0:0:0:0:
503,255,52675,2,0,L|510:166,1,80,2|0,0:0|0:0,0:0:0:0:
487,91,53019,6,0,P|458:122|403:129,1,80,2|0,0:0|0:0,0:0:0:0:
406,129,53276,1,2,0:0:0:0:
391,121,53362,1,2,0:0:0:0:
321,73,53533,1,2,0:0:0:0:
242,33,53704,2,0,P|204:44|177:73,1,80,2|0,0:0|0:0,0:0:0:0:
88,102,54047,6,0,P|86:144|120:188,1,80,2|0,0:0|0:0,0:0:0:0:
118,186,54304,1,2,0:0:0:0:
134,191,54390,1,2,0:0:0:0:
218,206,54561,1,2,0:0:0:0:
302,224,54732,2,0,P|320:258|318:298,1,80,2|0,0:0|0:0,0:0:0:0:
290,384,55076,6,0,L|381:372,1,80,2|0,0:0|0:0,0:0:0:0:
385,372,55333,1,2,0:0:0:0:
401,371,55419,1,2,0:0:0:0:
471,317,55590,1,2,0:0:0:0:
422,241,55762,2,0,L|431:155,1,80,2|0,0:0|0:0,0:0:0:0:
440,74,56104,1,2,0:0:0:0:
440,74,58644,6,0,P|406:111|351:108,1,80,4|0,0:1|0:0,0:0:0:0:
127,63,59019,1,8,0:0:0:0:
296,156,59206,2,0,P|235:116|213:26,1,160,2|2,0:0|0:0,0:0:0:0:
439,74,59769,2,0,P|416:105|378:115,1,80,8|0,0:0|0:0,0:0:0:0:
54,232,60144,6,0,P|88:269|143:266,1,80,4|0,0:0|0:0,0:0:0:0:
367,221,60519,1,8,0:0:0:0:
198,314,60706,2,0,P|259:274|281:184,1,160,2|2,0:0|0:0,0:0:0:0:
54,232,61269,2,0,P|77:263|115:273,1,80,8|0,0:0|0:0,0:0:0:0:
398,381,61644,6,0,L|497:368,1,80,12|0,0:0|0:0,0:0:0:0:
203,275,62019,2,0,L|104:262,1,80,8|0,0:0|0:0,0:0:0:0:
423,119,62394,2,0,P|376:157|372:196,1,80,8|0,0:0|0:0,0:0:0:0:
297,204,62675,2,0,P|306:263|338:286,1,80,8|0,0:0|0:0,0:0:0:0:
386,314,62956,1,8,0:0:0:0:
512,151,63144,6,0,L|509:60,1,80,8|0,0:0|0:0,0:0:0:0:
311,270,63519,2,0,L|308:349,1,80,8|0,0:0|0:0,0:0:0:0:
505,232,63894,2,0,P|480:200|444:186,1,80,8|0,0:0|0:0,0:0:0:0:
389,135,64175,2,0,P|349:140|318:164,1,80,8|0,0:0|0:0,0:0:0:0:
266,232,64456,1,8,0:0:0:0:
165,372,64644,5,2,0:0:0:0:
124,365,64737,1,2,0:0:0:0:
92,342,64831,1,2,0:0:0:0:
82,302,64925,1,2,0:0:0:0:
95,264,65019,1,2,0:0:0:0:
109,227,65113,1,2,0:0:0:0:
99,187,65207,1,2,0:0:0:0:
67,163,65301,1,2,0:0:0:0:
26,158,65394,6,2,L|-18:168,1,40
190,116,65581,2,2,L|234:126,1,40
39,77,65769,2,2,L|-5:87,1,40
177,32,65956,2,2,L|221:42,1,40
92,0,66144,1,6,0:0:0:0:
256,192,66237,12,0,67456,0:0:0:0:
141,339,67644,5,4,0:1:0:0:
95,140,67831,1,0,0:0:0:0:
0,240,68019,2,0,P|35:279|96:279,1,95.9999970703126,8|0,0:0|0:0,0:0:0:0:
221,168,68394,2,0,P|289:149|327:76,1,143.999995605469,2|0,0:0|0:0,0:0:0:0:
326,68,68769,2,0,L|321:15,1,47.9999985351563,8|0,0:0|0:0,0:0:0:0:
463,140,68956,6,0,L|451:250,1,95.9999970703126,4|0,0:0|0:0,0:0:0:0:
434,376,69331,1,0,0:0:0:0:
299,249,69519,2,0,P|331:311|356:320,1,95.9999970703126,8|0,0:0|0:0,0:0:0:0:
512,161,69894,2,0,P|498:206|459:231,1,95.9999970703126,2|0,0:0|0:0,0:0:0:0:
192,266,70269,2,0,L|197:313,1,47.9999985351563,8|0,0:0|0:0,0:0:0:0:
252,368,70456,6,0,B|201:374|166:332|166:332|131:292|82:299,1,191.999994140625,4|0,0:0|0:0,0:0:0:0:
39,145,71019,2,0,P|1:191|5:245,1,95.9999970703126,8|0,0:0|0:0,0:0:0:0:
217,122,71394,2,0,P|210:75|176:41,1,95.9999970703126,2|0,0:0|0:0,0:0:0:0:
159,33,71675,1,0,0:0:0:0:
139,31,71769,1,8,0:0:0:0:
191,254,71956,6,0,B|241:260|276:218|276:218|311:178|360:185,1,191.999994140625,4|0,0:0|0:0,0:0:0:0:
437,59,72519,2,0,P|462:69|478:104,1,47.9999985351563,8|0,0:0|0:0,0:0:0:0:
512,164,72706,5,2,0:0:0:0:
510,178,72800,1,2,0:0:0:0:
508,196,72894,2,0,L|498:282,1,47.9999985351563,2|0,0:0|0:0,0:0:0:0:
490,327,73081,1,2,0:0:0:0:
370,182,73269,2,0,L|381:282,1,95.9999970703126,8|0,0:0|0:0,0:0:0:0:
131,376,73644,5,4,0:0:0:0:
271,234,73831,1,4,0:0:0:0:
74,264,74019,1,2,0:0:0:0:
252,356,74206,1,4,0:0:0:0:
161,178,74394,1,4,0:0:0:0:
409,227,74769,5,4,0:0:0:0:
269,85,74956,1,4,0:0:0:0:
466,115,75144,1,2,0:0:0:0:
288,207,75331,1,4,0:0:0:0:
379,29,75519,1,4,0:0:0:0:
185,107,75894,5,2,0:0:0:0:
97,142,76081,2,0,P|57:132|20:87,1,95.9999970703126,2|0,0:0|0:0,0:0:0:0:
225,195,76456,6,0,P|158:260|61:268,1,191.999994140625,4|0,0:0|0:0,0:0:0:0:
194,104,77019,2,0,L|300:125,1,95.9999970703126,8|0,0:0|0:0,0:0:0:0:
8,194,77394,1,2,0:0:0:0:
168,19,77581,1,2,0:0:0:0:
244,244,77769,1,8,0:0:0:0:
21,197,77956,6,0,B|70:204|105:164|105:164|140:122|191:128,1,191.999994140625,4|0,0:0|0:0,0:0:0:0:
493,166,78519,2,0,L|445:169,1,47.9999985351563,8|0,0:0|0:0,0:0:0:0:
346,205,78706,5,2,0:0:0:0:
328,197,78800,1,2,0:0:0:0:
314,183,78894,2,0,P|294:155|293:123,1,47.9999985351563,2|0,0:0|0:0,0:0:0:0:
373,76,79081,2,0,P|387:44|414:27,1,47.9999985351563,2|0,0:0|0:0,0:0:0:0:
495,64,79269,1,8,0:0:0:0:
382,354,79456,5,0,0:0:0:0:
382,354,79550,1,0,0:0:0:0:
382,354,79644,1,4,0:1:0:0:
228,274,79831,1,0,0:0:0:0:
507,199,80019,2,0,P|467:244|420:247,1,95.9999970703126,8|0,0:0|0:0,0:0:0:0:
232,366,80394,2,0,P|176:353|119:263,1,143.999995605469,2|0,0:0|0:0,0:0:0:0:
117,267,80769,2,0,L|121:214,1,47.9999985351563,8|0,0:0|0:0,0:0:0:0:
16,106,80956,6,0,L|22:207,1,95.9999970703126,4|0,0:0|0:0,0:0:0:0:
165,19,81331,1,0,0:0:0:0:
291,127,81519,2,0,P|261:163|215:174,1,95.9999970703126,8|0,0:0|0:0,0:0:0:0:
0,58,81894,2,0,P|45:68|75:105,1,95.9999970703126,2|0,0:0|0:0,0:0:0:0:
220,267,82269,2,0,L|217:314,1,47.9999985351563,8|0,0:0|0:0,0:0:0:0:
159,376,82456,6,0,B|210:382|245:340|245:340|280:300|329:307,1,191.999994140625,4|0,0:0|0:0,0:0:0:0:
509,251,83019,2,0,L|501:352,1,95.9999970703126,8|0,0:0|0:0,0:0:0:0:
252,202,83394,2,0,L|244:106,1,95.9999970703126,2|0,0:0|0:0,0:0:0:0:
256,91,83675,1,0,0:0:0:0:
267,75,83769,1,8,0:0:0:0:
512,220,83956,6,0,B|463:227|428:187|428:187|393:145|343:151,1,191.999994140625,4|0,0:0|0:0,0:0:0:0:
171,61,84519,2,0,P|146:71|130:106,1,47.9999985351563,8|0,0:0|0:0,0:0:0:0:
106,167,84706,5,2,0:0:0:0:
108,181,84800,1,2,0:0:0:0:
110,199,84894,2,0,L|120:285,1,47.9999985351563,2|0,0:0|0:0,0:0:0:0:
128,330,85081,1,2,0:0:0:0:
12,210,85269,2,0,L|28:308,1,95.9999970703126,8|0,0:0|0:0,0:0:0:0:
245,378,85644,6,0,P|301:352|317:310,1,95.9999970703126,4|0,0:0|0:0,0:0:0:0:
392,120,86019,2,0,L|376:25,1,95.9999970703126,4|0,0:0|0:0,0:0:0:0:
297,232,86394,1,2,0:0:0:0:
498,160,86581,2,0,P|512:138|509:104,1,47.9999985351563
464,52,86769,1,8,0:0:0:0:
397,248,86956,6,0,B|391:316|421:354|460:370|483:356|488:325|459:309,1,191.999994140625,4|0,0:0|0:0,0:0:0:0:
271,283,87519,2,0,L|156:293,1,95.9999970703126,8|0,0:0|0:0,0:0:0:0:
382,381,87894,1,2,0:0:0:0:
312,167,88081,1,2,0:0:0:0:
512,91,88269,1,8,0:0:0:0:
456,305,88456,1,2,0:0:0:0:
308,163,88644,6,0,P|281:123|237:106,1,95.9999970703126,4|0,0:0|0:0,0:0:0:0:
61,288,89019,2,0,L|69:383,1,95.9999970703126,4|0,0:0|0:0,0:0:0:0:
275,259,89394,1,2,0:0:0:0:
0,167,89581,2,0,P|7:189|26:203,1,47.9999985351563
112,215,89769,1,8,0:0:0:0:
188,41,89956,6,0,B|119:35|81:65|65:104|79:127|110:132|126:103,1,191.999994140625,4|0,0:0|0:0,0:0:0:0:
284,249,90519,2,0,P|300:228|300:147,1,95.9999970703126,8|0,0:0|0:0,0:0:0:0:
131,310,90894,1,2,0:0:0:0:
356,355,91081,1,2,0:0:0:0:
442,138,91269,1,8,0:0:0:0:
217,183,91456,1,2,0:0:0:0:
364,363,91644,6,0,P|406:329|413:271,1,95.9999970703126,4|0,0:0|0:0,0:0:0:0:
122,323,92019,2,0,L|19:336,1,95.9999970703126,4|0,0:0|0:0,0:0:0:0:
241,384,92394,1,2,0:0:0:0:
329,225,92581,2,0,P|309:183|276:174,1,47.9999985351563
229,152,92768,1,8,0:0:0:0:
343,373,92956,5,2,0:0:0:0:
375,366,93050,1,2,0:0:0:0:
404,348,93144,1,2,0:0:0:0:
415,316,93237,1,2,0:0:0:0:
413,281,93331,1,2,0:0:0:0:
410,247,93425,1,2,0:0:0:0:
407,213,93519,1,2,0:0:0:0:
404,178,93613,1,2,0:0:0:0:
401,143,93707,1,2,0:0:0:0:
413,111,93800,1,2,0:0:0:0:
442,94,93894,1,2,0:0:0:0:
477,94,93988,1,2,0:0:0:0:
504,117,94081,2,0,B|516:136|516:136|508:187,1,47.9999985351563,2|0,0:0|0:0,0:0:0:0:
338,98,94269,2,0,B|326:80|326:80|334:32,1,47.9999985351563,2|0,0:0|0:0,0:0:0:0:
443,0,94456,2,0,P|460:-7|449:9,1,47.9999985351563,2|0,0:0|0:0,0:0:0:0:
449,7,94831,6,0,P|434:25|434:79,1,64,2|2,0:0|0:0,0:0:0:0:
429,65,95394,2,0,P|444:47|444:-7,1,64,2|2,0:0|0:0,0:0:0:0:
449,7,95956,2,0,P|410:30|388:108,1,128,2|2,0:0|0:0,0:0:0:0:
445,229,96519,2,0,P|470:210|476:179,1,64,2|0,0:0|0:0,0:0:0:0:
365,16,96894,1,2,0:0:0:0:
365,16,97269,1,2,0:0:0:0:
338,297,97644,6,0,L|332:342,1,40,4|0,0:1|0:0,0:0:0:0:
402,221,97831,1,0,0:0:0:0:
402,221,97925,1,0,0:0:0:0:
402,221,98019,2,0,P|420:244|440:250,1,40,8|0,0:0|0:0,0:0:0:0:
300,157,98206,1,0,0:0:0:0:
300,157,98300,1,0,0:0:0:0:
300,157,98394,2,0,P|282:180|262:186,1,40,2|0,0:0|0:0,0:0:0:0:
194,169,98581,1,0,0:0:0:0:
363,73,98769,1,8,0:0:0:0:
348,259,98956,2,0,B|322:253|295:278|295:278|269:303|239:298,1,120,4|0,0:0|0:0,0:0:0:0:
159,265,99331,6,0,L|149:307,1,40
190,375,99519,1,8,0:0:0:0:
84,227,99706,1,0,0:0:0:0:
84,227,99800,1,0,0:0:0:0:
84,227,99894,2,0,L|74:185,1,40,2|0,0:0|0:0,0:0:0:0:
0,300,100081,2,0,P|3:319|25:335,1,40
94,374,100269,1,8,0:0:0:0:
196,198,100456,2,0,P|241:181|281:111,1,120,4|0,0:0|0:0,0:0:0:0:
358,98,100831,6,0,P|359:72|342:47,1,40
301,0,101019,1,8,0:0:0:0:
181,201,101206,1,0,0:0:0:0:
407,222,101394,2,0,P|429:201|435:132,1,80,2|0,0:0|0:0,0:0:0:0:
293,8,101769,1,8,0:0:0:0:
123,83,101956,2,0,B|164:73|195:106|195:106|226:137|269:126,1,160,2|0,0:0|0:0,0:0:0:0:
503,95,102519,2,0,P|455:68|413:77,1,80,8|0,0:0|0:0,0:0:0:0:
269,237,102894,2,0,P|274:266|299:293,1,40,2|0,0:0|0:0,0:0:0:0:
350,313,103081,1,8,0:0:0:0:
413,174,103269,2,0,P|366:202|353:243,1,80,8|0,0:0|0:0,0:0:0:0:
84,342,103644,6,0,L|14:350,1,40,4|0,0:0|0:0,0:0:0:0:
164,279,103831,1,0,0:0:0:0:
164,279,103925,1,0,0:0:0:0:
164,279,104019,2,0,P|146:250|123:245,1,40,8|0,0:0|0:0,0:0:0:0:
257,319,104206,1,0,0:0:0:0:
257,319,104300,1,0,0:0:0:0:
257,319,104394,2,0,P|280:295|279:271,1,40,2|0,0:0|0:0,0:0:0:0:
235,212,104581,1,0,0:0:0:0:
155,368,104769,1,8,0:0:0:0:
354,325,104956,2,0,P|414:327|475:376,1,120,4|0,0:0|0:0,0:0:0:0:
512,301,105331,6,0,L|509:255,1,40
507,187,105519,1,8,0:0:0:0:
306,162,105706,1,0,0:0:0:0:
306,162,105800,1,0,0:0:0:0:
306,162,105894,2,0,P|325:193|355:202,1,40,2|0,0:0|0:0,0:0:0:0:
465,113,106081,2,0,P|479:99|486:80,1,40
355,13,106269,1,8,0:0:0:0:
422,226,106456,1,4,0:0:0:0:
422,226,106831,6,0,P|405:290|371:309,1,80,0|8,0:0|0:0,0:0:0:0:
195,384,107206,1,0,0:0:0:0:
249,148,107394,2,0,P|295:194|295:233,1,80,2|0,0:0|0:0,0:0:0:0:
195,384,107769,1,8,0:0:0:0:
0,314,107956,6,0,B|39:318|70:281|70:281|96:245|138:250,1,160,4|0,0:0|0:0,0:0:0:0:
386,304,108519,2,0,P|350:332|301:329,1,80,8|0,0:0|0:0,0:0:0:0:
196,186,108894,2,0,P|142:163|109:84,1,120,2|0,0:0|0:0,0:0:0:0:
101,107,109269,2,0,L|105:22,1,80,8|0,0:0|0:0,0:0:0:0:
5,222,109644,5,4,0:0:0:0:
61,287,109831,2,0,L|56:330,2,40,0|0|8,0:0|0:0|0:0,0:0:0:0:
176,216,110206,2,0,B|220:227|253:206|281:172|272:134|248:132|239:159,1,160,0|8,0:0|0:0,0:0:0:0:
100,138,110769,2,0,B|87:93|52:75|8:68|-19:94|-9:116|18:111,1,160,0|8,0:0|0:0,0:0:0:0:
190,46,111331,6,0,P|244:32|335:35,1,120,2|0,0:0|0:0,0:0:0:0:
396,6,111706,1,8,0:0:0:0:
397,14,111894,1,2,0:0:0:0:
400,23,112081,1,2,0:0:0:0:
402,31,112269,1,2,0:0:0:0:
404,39,112456,1,2,0:0:0:0:
507,115,112644,6,0,L|502:142,6,20,2|0|0|0|0|0|0,0:0|0:0|0:0|0:0|0:0|0:0|0:0,0:0:0:0:
458,201,113019,1,4,0:1:0:0:
256,192,113112,12,2,117144,0:0:0:0:
