osu file format v14

[General]
AudioFilename: audio.mp3
AudioLeadIn: 0
PreviewTime: 67644
Countdown: 0
SampleSet: Soft
StackLeniency: 0.7
Mode: 0
LetterboxInBreaks: 0
WidescreenStoryboard: 1

[Editor]
Bookmarks: 3832,15832,30832,41332,48832,58581,67581,79581,94644,97581,112581
DistanceSpacing: 1.1
BeatDivisor: 4
GridSize: 32
TimelineZoom: 3.199999

[Metadata]
Title:To the Shining MiLie
TitleUnicode:キラメクMiLieへ
Artist:Mischievous*Straight
ArtistUnicode:イタズラ☆ストレート
Creator:Kawashiro
Version:Hard
Source:ブルーアーカイブ
Tags:Blue Archive ブルアカ BuruAka Buru Aka NAT Games NEXON Yostar Kirameku MiLie e Itazura*Straight april fools 天童アリス Tendou Aris 田中 美海 Tanaka Minami Ajitani Hifumi 阿慈谷ヒフミ 本渡 楓 Hondo Kaede 陸八魔アル Rikuhachima Aru 近藤 玲奈 Kondo Reina 早瀬ユウカ Hayase Yuuka 春花 らん Haruka Ran Japanese Pop Jpop J-Pop Video Game Soundtrack KuBsNia_ZhoYL_
BeatmapID:3542117
BeatmapSetID:1732966

[Difficulty]
HPDrainRate:4
CircleSize:3.7
OverallDifficulty:6
ApproachRate:7.8
SliderMultiplier:1.4
SliderTickRate:1

[Events]
//Background and Video events
0,0,"bg.jpg",0,0
Video,0,"asdfa.mp4"
//Break Periods
//Storyboard Layer 0 (Background)
//Storyboard Layer 1 (Fail)
//Storyboard Layer 2 (Pass)
//Storyboard Layer 3 (Foreground)
//Storyboard Layer 4 (Overlay)
//Storyboard Sound Samples

[TimingPoints]
3911,375,4,2,0,30,1,0
3911,-125,4,2,0,30,0,0
9911,-125,4,2,0,50,0,0
15911,-100,4,2,0,70,0,0
27911,-100,4,2,0,60,0,0
30911,-100,4,2,0,50,0,0
48905,342.857142857142,3,2,0,50,1,0
58644,375,4,2,0,60,1,0
67644,-83.3333333333333,4,2,0,80,0,1
94831,-125,4,2,0,50,0,1
97644,-100,4,2,0,70,0,0
112644,-100,4,2,0,40,0,0
113019,-100,4,2,0,80,0,0
113112,-100,4,2,0,20,0,0

[Colours]
Combo1 : 255,255,43
Combo2 : 75,232,30
Combo3 : 255,64,64
Combo4 : 49,187,247

[HitObjects]
438,357,3911,6,0,B|440:305|500:319|536:269|526:218|483:186|445:220|445:220|414:174|378:184|350:224|360:266|388:296,1,392,0|0,0:0|0:0,0:0:0:0:
379,285,5411,2,0,B|317:326|240:298|238:213|238:213|235:133|160:97|98:142,1,392,0|0,0:0|0:0,0:0:0:0:
102,139,6911,2,0,B|74:112|74:112|32:116|32:116|52:81|52:81|32:44|32:44|74:52|74:52|102:22|102:22|108:61|108:61|143:80|143:80|108:98|108:98|104:137,1,392,0|0,0:0|0:0,0:0:0:0:
105,123,9911,6,0,L|111:236,1,112,0|8,0:0|0:0,0:0:0:0:
75,316,10473,1,0,0:0:0:0:
156,353,10661,2,0,P|187:331|197:299,1,56,0|0,0:0|0:0,0:0:0:0:
217,228,11036,1,8,0:0:0:0:
284,286,11223,6,0,P|324:292|399:244,1,112,0|0,0:0|0:0,0:0:0:0:
450,199,11786,2,0,L|463:131,1,56,8|0,0:0|0:0,0:0:0:0:
373,121,12161,2,0,L|362:65,1,56,0|0,0:0|0:0,0:0:0:0:
279,100,12536,2,0,L|229:65,1,56,8|0,0:0|0:0,0:0:0:0:
233,67,15536,1,2,0:0:0:0:
43,270,15911,6,0,P|57:319|87:336,1,70,4|0,0:1|0:0,0:0:0:0:
94,344,16192,1,0,0:0:0:0:
121,348,16286,2,0,L|201:339,1,70,8|0,0:0|0:0,0:0:0:0:
272,300,16661,2,0,L|352:309,1,70,2|0,0:0|0:0,0:0:0:0:
431,322,17036,1,8,0:0:0:0:
328,218,17223,6,0,P|349:152|407:114,1,140,4|0,0:0|0:0,0:0:0:0:
456,37,17786,2,0,L|376:27,1,70,8|0,0:0|0:0,0:0:0:0:
360,39,18067,1,0,0:0:0:0:
335,52,18161,2,0,L|261:59,1,70,2|0,0:0|0:0,0:0:0:0:
175,72,18536,1,8,0:0:0:0:
44,109,18723,6,0,B|79:119|91:157|91:157|101:191|137:206,1,140,4|0,0:0|0:0,0:0:0:0:
203,267,19286,2,0,P|229:220|258:202,1,70,8|0,0:0|0:0,0:0:0:0:
327,180,19661,2,0,L|402:191,2,70,2|0|8,0:0|0:0|0:0,0:0:0:0:
273,106,20223,2,0,P|247:52|167:21,1,140,2|0,0:0|0:0,0:0:0:0:
89,48,20786,2,0,P|64:88|72:129,1,70,8|0,0:0|0:0,0:0:0:0:
119,239,21161,1,2,0:0:0:0:
188,186,21348,2,0,P|184:151|163:124,1,70,8|8,0:0|0:0,0:0:0:0:
25,355,21911,6,0,L|96:347,1,70,4|0,0:0|0:0,0:0:0:0:
119,359,22192,1,0,0:0:0:0:
144,370,22286,2,0,P|183:349|195:301,1,70,8|0,0:0|0:0,0:0:0:0:
286,312,22661,2,0,P|287:267|252:233,1,70,2|0,0:0|0:0,0:0:0:0:
223,171,23036,1,8,0:0:0:0:
359,205,23223,2,0,B|368:128|368:128|375:88|420:87,1,140,4|0,0:0|0:0,0:0:0:0:
476,150,23786,6,0,L|467:221,1,70,8|0,0:0|0:0,0:0:0:0:
480,244,24067,1,0,0:0:0:0:
489,270,24161,2,0,P|471:306|430:326,1,70,2|0,0:0|0:0,0:0:0:0:
355,318,24536,1,8,0:0:0:0:
409,188,24723,1,4,0:0:0:0:
409,188,25098,6,0,P|389:146|351:136,1,70,0|8,0:0|0:0,0:0:0:0:
287,95,25473,1,0,0:0:0:0:
206,138,25661,2,0,L|212:209,2,70,0|0|8,0:0|0:0|0:0,0:0:0:0:
92,224,26223,6,0,P|152:234|206:304,1,140,4|0,0:0|0:0,0:0:0:0:
290,266,26786,2,0,L|280:348,1,70,8|0,0:0|0:0,0:0:0:0:
372,338,27161,2,0,B|379:266|379:266|389:226|442:220,1,140,2|8,0:0|0:0,0:0:0:0:
512,248,27723,1,0,0:0:0:0:
435,135,27911,6,0,L|439:55,2,70,4|0|8,0:1|0:0|0:0,0:0:0:0:
389,213,28473,2,0,P|334:174|319:107,1,140,0|8,0:0|0:0,0:0:0:0:
299,17,29036,2,0,P|283:83|222:125,1,140
106,193,29598,6,0,B|76:197|56:172|58:147|58:147|69:85,1,140,2|8,0:0|0:0,0:0:0:0:
155,74,30161,1,2,0:0:0:0:
220,130,30348,2,0,L|207:204,1,70,2|2,0:0|0:0,0:0:0:0:
187,287,30723,1,2,0:0:0:0:
212,376,30911,6,0,P|167:329|80:322,2,140,0|8|0,0:0|0:0|0:0,0:0:0:0:
212,376,32036,1,8,0:0:0:0:
292,334,32223,2,0,L|305:248,1,70,2|0,0:0|0:0,0:0:0:0:
393,254,32598,2,0,L|406:168,1,70,2|0,0:0|0:0,0:0:0:0:
479,134,32973,1,2,0:0:0:0:
479,134,33348,2,0,P|502:102|503:67,2,70,0|8|0,0:0|0:0|0:0,0:0:0:0:
394,167,33911,6,0,L|249:153,1,140,4|8,0:0|0:0,0:0:0:0:
174,196,34473,1,0,0:0:0:0:
108,132,34661,2,0,P|121:100|149:80,2,70,2|0|8,0:0|0:0|0:0,0:0:0:0:
35,187,35223,2,0,P|43:238|116:284,1,140,2|0,0:0|0:0,0:0:0:0:
181,343,35786,1,8,0:0:0:0:
270,325,35973,2,0,P|293:299|301:265,1,70,2|0,0:0|0:0,0:0:0:0:
336,181,36348,2,0,L|327:107,2,70,0|8|0,0:0|0:0|0:0,0:0:0:0:
432,263,36911,6,0,B|447:184|447:184|453:148|501:144,2,140,0|8|0,0:0|0:0|0:0,0:0:0:0:
432,263,38036,1,8,0:0:0:0:
360,319,38223,2,0,L|290:328,1,70,2|0,0:0|0:0,0:0:0:0:
200,342,38598,2,0,L|130:351,1,70,2|0,0:0|0:0,0:0:0:0:
45,321,38972,1,2,0:0:0:0:
45,321,39348,2,0,P|10:298|2:263,2,70,0|8|0,0:0|0:0|0:0,0:0:0:0:
106,253,39911,6,0,P|120:179|184:137,1,140,4|8,0:0|0:0,0:0:0:0:
231,76,40473,1,0,0:0:0:0:
321,89,40661,2,0,P|388:97|434:148,1,140,2|8,0:0|0:0,0:0:0:0:
512,266,41223,6,0,P|485:288|451:293,1,70,4|0,0:1|0:0,0:0:0:0:
392,223,41598,1,0,0:0:0:0:
313,270,41786,2,0,L|317:346,1,70,8|0,0:0|0:0,0:0:0:0:
229,365,42161,2,0,L|223:237,2,105,2|0|0,0:0|0:0|0:0,0:0:0:0:
229,365,43098,5,0,0:0:0:0:
142,335,43286,2,0,P|106:283|113:252,1,70,8|0,0:0|0:0,0:0:0:0:
138,194,43661,2,0,P|160:156|152:207,1,140,4|8,0:0|0:0,0:0:0:0:
19,249,44223,6,0,L|9:174,1,70,4|0,0:0|0:0,0:0:0:0:
4,95,44598,1,0,0:0:0:0:
86,78,44786,2,0,P|131:89|156:114,1,70,8|0,0:0|0:0,0:0:0:0:
202,170,45161,2,0,P|245:128|308:116,2,105,2|0|0,0:0|0:0|0:0,0:0:0:0:
202,170,46098,1,0,0:0:0:0:
264,236,46286,2,0,L|256:309,1,70,8|0,0:0|0:0,0:0:0:0:
332,355,46661,2,0,B|370:355|391:326|391:326|416:295|453:298,2,140,4|8|4,0:0|0:0|0:0,0:0:0:0:
332,355,48905,6,0,L|321:278,1,70,2|0,0:0|0:0,0:0:0:0:
251,237,49247,1,2,0:0:0:0:
251,237,49419,1,2,0:0:0:0:
297,158,49590,2,0,L|380:152,1,70,2|0,0:0|0:0,0:0:0:0:
386,63,49933,6,0,L|316:68,1,70,2|2,0:0|0:0,0:0:0:0:
239,18,50276,1,2,0:0:0:0:
239,18,50447,1,2,0:0:0:0:
168,76,50619,2,0,L|173:145,1,70,2|0,0:0|0:0,0:0:0:0:
95,193,50962,6,0,L|100:262,1,70,2|0,0:0|0:0,0:0:0:0:
40,331,51304,1,2,0:0:0:0:
40,331,51476,1,2,0:0:0:0:
113,384,51647,2,0,L|182:378,1,70,2|0,0:0|0:0,0:0:0:0:
228,299,51990,6,0,L|297:293,1,70,2|0,0:0|0:0,0:0:0:0:
353,222,52333,1,2,0:0:0:0:
353,222,52504,1,2,0:0:0:0:
416,287,52676,2,0,L|421:356,1,70,2|0,0:0|0:0,0:0:0:0:
506,323,53019,6,0,L|500:253,1,70,2|0,0:0|0:0,0:0:0:0:
491,162,53362,1,2,0:0:0:0:
491,162,53533,1,2,0:0:0:0:
414,211,53704,2,0,L|344:216,1,70,2|0,0:0|0:0,0:0:0:0:
266,168,54047,6,0,L|196:173,1,70,2|0,0:0|0:0,0:0:0:0:
119,222,54389,1,2,0:0:0:0:
119,222,54562,1,2,0:0:0:0:
109,130,54732,2,0,L|103:60,1,70,2|0,0:0|0:0,0:0:0:0:
22,102,55076,6,0,L|27:171,1,70,2|0,0:0|0:0,0:0:0:0:
41,266,55419,1,2,0:0:0:0:
41,266,55590,1,2,0:0:0:0:
13,353,55762,2,0,L|82:347,1,70,2|0,0:0|0:0,0:0:0:0:
169,374,56104,1,2,0:0:0:0:
169,374,58644,6,0,P|210:342|216:302,1,70,4|0,0:1|0:0,0:0:0:0:
208,235,59019,1,8,0:0:0:0:
303,325,59206,2,0,B|338:336|369:312|369:312|403:285|433:298,1,140,2|2,0:0|0:0,0:0:0:0:
509,348,59769,1,8,0:0:0:0:
333,177,60144,6,0,L|345:102,1,70,4|0,0:0|0:0,0:0:0:0:
355,17,60519,1,8,0:0:0:0:
252,95,60706,2,8,P|188:102|104:46,1,140,10|10,0:0|0:0,0:0:0:0:
62,0,61269,1,8,0:0:0:0:
21,251,61644,6,0,L|32:324,1,70,12|0,0:0|0:0,0:0:0:0:
109,273,62019,2,0,L|120:346,1,70,8|0,0:0|0:0,0:0:0:0:
196,293,62394,2,0,B|202:348|202:348|211:381|246:377,2,105,8|8|8,0:0|0:0|0:0,0:0:0:0:
271,241,63144,6,0,L|282:168,1,70,8|0,0:0|0:0,0:0:0:0:
359,219,63519,2,0,L|370:146,1,70,8|0,0:0|0:0,0:0:0:0:
446,199,63894,2,0,B|452:143|452:143|461:111|496:115,2,105,8|8|8,0:0|0:0|0:0,0:0:0:0:
502,271,64644,6,0,P|489:303|472:310,3,35,2|2|2|2,0:0|0:0|0:0|0:0,0:0:0:0:
414,340,65019,2,0,P|403:325|401:308,3,35,2|2|2|2,0:0|0:0|0:0|0:0,0:0:0:0:
337,253,65394,1,2,0:0:0:0:
317,238,65487,1,2,0:0:0:0:
295,244,65581,2,0,P|284:262|283:281,1,35,2|2,0:0|0:0,0:0:0:0:
205,270,65769,2,0,P|203:287|209:303,3,35,2|2|2|0,0:0|0:0|0:0|0:0,0:0:0:0:
266,360,66144,5,6,0:0:0:0:
256,192,66237,12,0,67269,0:0:0:0:
39,271,67644,6,0,P|92:255|118:209,1,83.9999974365235,4|0,0:1|0:0,0:0:0:0:
149,150,68019,1,8,0:0:0:0:
140,58,68206,1,0,0:0:0:0:
174,144,68394,2,0,P|207:179|247:195,1,83.9999974365235,2|0,0:0|0:0,0:0:0:0:
267,201,68675,1,0,0:0:0:0:
296,198,68769,1,8,0:0:0:0:
402,280,68956,6,0,P|321:292|273:359,1,167.999994873047,4|0,0:0|0:0,0:0:0:0:
180,370,69519,2,0,L|96:362,1,83.9999974365235,8|0,0:0|0:0,0:0:0:0:
95,269,69894,2,0,L|11:261,1,83.9999974365235,2|0,0:0|0:0,0:0:0:0:
5,232,70175,1,0,0:0:0:0:
0,203,70269,1,8,0:0:0:0:
129,168,70456,6,0,P|207:146|243:73,1,167.999994873047,4|0,0:0|0:0,0:0:0:0:
317,16,71019,2,0,P|356:40|370:84,1,83.9999974365235,8|0,0:0|0:0,0:0:0:0:
356,165,71394,2,0,B|408:160|408:160|422:173|422:173|476:167,2,125.999996154785,2|0|4,0:0|0:0|0:0,0:0:0:0:
284,224,72144,5,0,0:0:0:0:
154,28,72519,1,8,0:0:0:0:
75,73,72706,2,0,P|82:144|108:164,1,83.9999974365235,2|2,0:0|0:0,0:0:0:0:
166,201,73081,1,2,0:0:0:0:
84,157,73269,2,0,L|-3:148,1,83.9999974365235,8|0,0:0|0:0,0:0:0:0:
177,113,73644,6,0,L|264:104,1,83.9999974365235,4|4,0:0|0:0,0:0:0:0:
335,49,74019,1,2,0:0:0:0:
409,104,74207,2,0,P|397:143|362:165,1,83.9999974365235,4|4,0:0|0:0,0:0:0:0:
232,297,74769,6,0,L|145:288,1,83.9999974365235,4|4,0:0|0:0,0:0:0:0:
74,233,75144,1,2,0:0:0:0:
0,288,75332,2,0,P|11:327|46:349,1,83.9999974365235,4|4,0:0|0:0,0:0:0:0:
295,363,75894,5,2,0:0:0:0:
365,303,76081,2,0,L|463:298,1,83.9999974365235,2|0,0:0|0:0,0:0:0:0:
327,227,76456,6,0,B|282:228|256:267|256:267|229:312|190:309,1,167.999994873047,4|0,0:0|0:0,0:0:0:0:
105,346,77019,2,0,P|63:319|53:281,1,83.9999974365235,8|0,0:0|0:0,0:0:0:0:
117,222,77394,2,0,P|120:173|148:145,1,83.9999974365235,2|2,0:0|0:0,0:0:0:0:
232,126,77769,1,8,0:0:0:0:
359,178,77956,6,0,B|366:268|366:268|371:316|319:325,1,167.999994873047,4|0,0:0|0:0,0:0:0:0:
212,214,78519,2,0,P|242:245|289:250,1,83.9999974365235,8|2,0:0|0:0,0:0:0:0:
443,231,78894,1,2,0:0:0:0:
467,224,78987,1,0,0:0:0:0:
485,206,79081,1,2,0:0:0:0:
493,182,79175,1,0,0:0:0:0:
493,157,79269,2,0,L|486:113,2,41.9999987182618,8|0|0,0:0|0:0|0:0,0:0:0:0:
386,53,79644,6,0,P|331:72|310:111,1,83.9999974365235,4|0,0:1|0:0,0:0:0:0:
286,178,80019,1,8,0:0:0:0:
303,268,80206,1,0,0:0:0:0:
263,183,80394,2,0,P|209:160|155:180,1,83.9999974365235,2|0,0:0|0:0,0:0:0:0:
159,177,80675,1,0,0:0:0:0:
139,198,80769,1,8,0:0:0:0:
25,261,80956,6,0,P|78:324|160:334,1,167.999994873047,4|0,0:0|0:0,0:0:0:0:
250,353,81519,2,0,L|237:269,1,83.9999974365235,8|0,0:0|0:0,0:0:0:0:
298,200,81894,2,0,L|286:117,1,83.9999974365235,2|0,0:0|0:0,0:0:0:0:
301,91,82175,1,0,0:0:0:0:
313,64,82269,1,8,0:0:0:0:
430,112,82456,6,0,P|489:169|492:250,1,167.999994873047,4|0,0:0|0:0,0:0:0:0:
512,341,83019,2,0,P|476:376|416:379,1,83.9999974365235,8|0,0:0|0:0,0:0:0:0:
371,327,83394,2,0,P|399:277|396:197,2,125.999996154785,2|0|4,0:0|0:0|0:0,0:0:0:0:
294,379,84144,5,0,0:0:0:0:
104,164,84519,1,8,0:0:0:0:
26,215,84706,2,0,P|7:252|14:293,1,83.9999974365235,2|2,0:0|0:0,0:0:0:0:
76,361,85081,1,2,0:0:0:0:
135,291,85269,2,0,L|232:277,1,83.9999974365235,8|0,0:0|0:0,0:0:0:0:
291,335,85644,5,4,0:0:0:0:
416,199,86019,1,4,0:0:0:0:
297,59,86394,1,2,0:0:0:0:
256,141,86581,2,0,P|264:181|292:211,1,83.9999974365235,0|8,0:0|0:0,0:0:0:0:
414,289,86956,6,0,P|465:268|505:139,1,167.999994873047,4|0,0:0|0:0,0:0:0:0:
440,110,87519,2,0,L|356:119,1,83.9999974365235,8|0,0:0|0:0,0:0:0:0:
293,54,87894,1,2,0:0:0:0:
232,124,88081,2,0,P|240:164|268:194,2,83.9999974365235,2|8|2,0:0|0:0|0:0,0:0:0:0:
293,54,88644,5,4,0:0:0:0:
152,173,89019,1,4,0:0:0:0:
260,324,89394,1,2,0:0:0:0:
315,250,89581,2,0,P|306:209|278:179,1,83.9999974365235,0|8,0:0|0:0,0:0:0:0:
178,100,89956,6,0,P|127:121|87:250,1,167.999994873047,4|0,0:0|0:0,0:0:0:0:
62,309,90519,2,0,L|146:300,1,83.9999974365235,8|0,0:0|0:0,0:0:0:0:
231,334,90894,1,2,0:0:0:0:
296,269,91081,2,0,P|287:228|259:198,2,83.9999974365235,2|8|2,0:0|0:0|0:0,0:0:0:0:
236,339,91644,5,4,0:0:0:0:
400,255,92019,1,4,0:0:0:0:
377,73,92394,1,2,0:0:0:0:
297,26,92581,2,0,P|258:55|248:93,1,83.9999974365235,0|8,0:0|0:0,0:0:0:0:
159,171,92956,6,0,P|178:207|216:224,1,83.9999974365235,2|2,0:0|0:0,0:0:0:0:
303,214,93331,1,2,0:0:0:0:
318,207,93425,1,2,0:0:0:0:
329,195,93519,2,0,P|346:166|344:141,3,41.9999987182618,2|2|2|2,0:0|0:0|0:0|0:0,0:0:0:0:
289,96,93894,2,0,P|284:75|271:59,3,41.9999987182618,2|2|2|0,0:0|0:0|0:0|0:0,0:0:0:0:
191,29,94269,1,2,0:0:0:0:
114,150,94456,1,2,0:0:0:0:
114,150,97269,1,2,0:0:0:0:
173,334,97644,6,0,P|206:311|217:274,1,70,4|0,0:1|0:0,0:0:0:0:
223,257,97925,1,0,0:0:0:0:
221,229,98019,2,0,L|217:153,1,70,8|0,0:0|0:0,0:0:0:0:
181,82,98394,2,0,P|160:54|128:42,1,70,2|0,0:0|0:0,0:0:0:0:
47,67,98769,1,8,0:0:0:0:
201,84,98956,6,0,B|238:87|263:56|263:56|284:27|322:27,1,140,4|0,0:0|0:0,0:0:0:0:
406,27,99519,2,0,P|449:60|455:91,1,70,8|0,0:0|0:0,0:0:0:0:
462,99,99800,1,0,0:0:0:0:
458,126,99894,2,0,P|432:174|403:185,1,70,2|0,0:0|0:0,0:0:0:0:
338,201,100269,1,8,0:0:0:0:
211,250,100456,6,0,P|245:310|310:331,1,140,4|0,0:0|0:0,0:0:0:0:
391,357,101019,2,0,L|397:280,1,70,8|0,0:0|0:0,0:0:0:0:
409,204,101394,2,0,P|422:180|466:164,2,70,2|0|8,0:0|0:0|0:0,0:0:0:0:
389,286,101956,2,0,P|359:232|274:195,1,140,2|0,0:0|0:0,0:0:0:0:
221,148,102519,2,0,P|169:174|157:204,1,70,8|0,0:0|0:0,0:0:0:0:
44,214,102894,1,2,0:0:0:0:
81,288,103081,2,0,P|104:313|138:322,1,70,8|8,0:0|0:0,0:0:0:0:
329,284,103644,6,0,L|410:273,1,70,4|0,0:0|0:0,0:0:0:0:
426,282,103925,1,0,0:0:0:0:
452,290,104019,2,0,P|477:277|496:233,1,70,8|0,0:0|0:0,0:0:0:0:
434,173,104394,2,0,P|436:144|407:106,1,70,2|0,0:0|0:0,0:0:0:0:
324,92,104769,1,8,0:0:0:0:
234,170,104956,6,0,P|216:227|123:263,1,140,4|0,0:0|0:0,0:0:0:0:
76,219,105519,2,0,P|45:192|38:152,1,70,8|0,0:0|0:0,0:0:0:0:
52,141,105800,1,0,0:0:0:0:
70,119,105894,2,0,L|147:125,1,70,2|0,0:0|0:0,0:0:0:0:
223,133,106269,1,8,0:0:0:0:
316,13,106456,1,4,0:0:0:0:
316,13,106831,5,0,0:0:0:0:
394,43,107019,2,0,P|409:75|406:109,1,70,8|0,0:0|0:0,0:0:0:0:
361,180,107394,2,0,L|430:193,2,70,2|0|8,0:0|0:0|0:0,0:0:0:0:
243,118,107956,6,0,B|208:142|215:179|215:179|231:248,1,140,4|0,0:0|0:0,0:0:0:0:
273,318,108519,2,0,P|254:363|223:375,1,70,8|0,0:0|0:0,0:0:0:0:
160,336,108894,2,0,P|113:311|91:224,1,140,2|8,0:0|0:0,0:0:0:0:
129,159,109456,1,0,0:0:0:0:
51,55,109644,6,0,P|24:72|5:123,2,70,4|0|8,0:0|0:0|0:0,0:0:0:0:
118,5,110206,2,0,P|162:51|236:65,1,140,0|8,0:0|0:0,0:0:0:0:
299,119,110769,2,0,P|366:107|415:58,1,140,0|8,0:0|0:0,0:0:0:0:
504,150,111331,6,0,B|515:212|515:212|520:257|478:272,1,140,2|8,0:0|0:0,0:0:0:0:
427,338,111894,2,0,P|391:325|367:287,1,70,2|2,0:0|0:0,0:0:0:0:
295,265,112269,2,0,P|300:230|323:204,1,70,2|2,0:0|0:0,0:0:0:0:
398,169,112644,1,2,0:0:0:0:
257,105,113019,5,4,0:1:0:0:
256,192,113112,12,2,117144,0:0:0:0:
