osu file format v14

[General]
AudioFilename: audio.mp3
AudioLeadIn: 0
PreviewTime: 49692
Countdown: 0
SampleSet: Soft
StackLeniency: 0.7
Mode: 0
LetterboxInBreaks: 0
WidescreenStoryboard: 0

[Editor]
DistanceSpacing: 0.9
BeatDivisor: 4
GridSize: 32
TimelineZoom: 1.26

[Metadata]
Title:Infinia
TitleUnicode:インフィニア
Artist:Misawa Sachika
ArtistUnicode:三澤紗千香
Creator:Astarte
Version:Normal
Source:とある科学の超電磁砲S
Tags:DavidEd Toaru Kagaku no Railgun S A Certain Scientific season 2 ending insert misaka mikoto shirai kuroko uiharu kazari saten ruiko tv size
BeatmapID:1179972
BeatmapSetID:557699

[Difficulty]
HPDrainRate:4
CircleSize:3.5
OverallDifficulty:4
ApproachRate:5
SliderMultiplier:1.2
SliderTickRate:1

[Events]
//Background and Video events
Video,1600,"ending.avi"
0,0,"bg.jpg",0,0
//Break Periods
2,75049,76878
//Storyboard Layer 0 (Background)
//Storyboard Layer 1 (Fail)
//Storyboard Layer 2 (Pass)
//Storyboard Layer 3 (Foreground)
//Storyboard Sound Samples

[TimingPoints]
610,379.746835443038,4,2,1,50,1,0
2888,-100,4,2,1,50,0,0
3268,-100,4,2,1,50,0,0
3647,-100,4,2,1,50,0,0
4977,-100,4,3,1,50,0,0
5356,-100,4,3,1,50,0,0
5546,-100,4,2,1,50,0,0
5926,-100,4,1,1,50,0,0
6306,-100,4,2,1,50,0,0
6685,-100,4,3,1,50,0,0
9534,-100,4,2,1,50,0,0
10103,-100,4,3,1,50,0,0
10293,-100,4,2,1,50,0,0
10483,-100,4,3,1,50,0,0
10863,-100,4,3,1,50,0,0
13141,-100,4,2,1,40,0,0
15799,-100,4,3,1,40,0,0
16179,-100,4,2,1,40,0,0
18837,-100,4,3,1,40,0,0
19217,-100,4,2,1,40,0,0
19407,-100,4,2,1,40,0,0
24913,-100,4,3,1,50,0,0
30989,-100,4,2,1,50,0,0
31369,-100,4,3,1,50,0,0
31559,-100,4,3,1,50,0,0
32318,-100,4,2,1,50,0,0
32698,-100,4,3,1,50,0,0
32888,-100,4,3,1,50,0,0
34597,-100,4,1,1,50,0,0
34977,-100,4,1,1,50,0,0
35356,-100,4,1,1,50,0,0
37065,-100,4,2,1,50,0,0
37445,-100,4,3,1,50,0,0
37635,-100,4,3,1,50,0,0
38584,-100,4,2,1,50,0,0
38964,-100,4,3,1,50,0,0
39154,-100,4,3,1,50,0,0
40103,-100,4,2,1,50,0,0
40483,-100,4,3,1,50,0,0
40673,-100,4,3,1,50,0,0
41812,-100,4,3,1,50,0,0
43141,-100,4,2,1,50,0,0
43521,-100,4,3,1,35,0,0
43901,-100,4,3,1,35,0,0
44850,-100,4,3,1,40,0,0
45230,-100,4,3,1,40,0,0
45799,-100,4,3,1,45,0,0
45989,-100,4,3,1,50,0,0
47318,-100,4,1,1,50,0,0
47508,-100,4,2,1,50,0,0
50356,-100,4,2,1,50,0,0
50736,-100,4,2,1,60,0,1
61369,-100,4,2,1,50,0,0
61749,-100,4,2,1,50,0,0
62888,-100,4,2,1,60,0,1
69154,-100,4,3,1,60,0,1
69534,-100,4,3,1,60,0,1
75040,-100,4,3,1,60,0,0
77698,-100,4,3,1,30,0,0
78078,-100,4,2,1,60,0,1
83584,-100,4,2,1,60,0,1
84154,-100,4,3,1,50,0,1
88901,-100,4,2,1,40,0,1
89280,-100,4,2,1,40,0,1
90230,-100,4,2,1,40,0,0
90420,-100,4,2,1,40,0,0
91179,-100,4,2,1,50,0,0
91749,-100,4,2,1,60,0,0
91939,-100,4,2,1,40,0,0
92508,-100,4,2,1,35,0,0
93268,-100,4,2,1,30,0,0
94027,-100,4,2,1,25,0,0
94787,-100,4,2,1,20,0,0
95546,-100,4,2,1,15,0,0
96306,-100,4,2,1,5,0,0

[Colours]
Combo1 : 255,128,128
Combo2 : 255,155,55

[HitObjects]
144,152,610,6,0,P|208:144|292:152,1,120,12|0,1:0|0:0,1:0:0:0:
368,176,1369,2,0,L|364:100,2,60,0|2|2,0:0|0:0|0:0,0:0:0:0:
336,220,1939,2,0,P|340:288|384:348,1,120,2|2,0:0|0:0,0:0:0:0:
416,348,2508,1,2,0:0:0:0:
452,248,2888,1,0,0:0:0:0:
432,140,3268,1,0,0:0:0:0:
340,80,3647,6,0,L|204:68,1,120,6|0,0:0|0:0,0:0:0:0:
116,104,4407,2,0,P|68:100|40:88,2,60,8|0|0,1:0|0:0|0:0,1:0:0:0:
156,140,4977,2,0,L|148:276,1,120,8|4,0:0|0:0,0:0:0:0:
128,312,5546,1,0,0:0:0:0:
228,352,5926,1,12,0:0:0:0:
308,280,6306,1,0,0:0:0:0:
408,320,6685,6,0,L|416:396,2,60,12|12|12,0:0|0:0|0:0,0:0:0:0:
484,176,7635,2,0,L|488:100,2,60,12|12|12,0:0|0:0|0:0,0:0:0:0:
384,220,8394,1,12,0:0:0:0:
384,220,8584,2,0,P|308:212|244:220,1,120,12|0,0:0|0:0,0:0:0:0:
184,288,9344,1,12,0:0:0:0:
184,288,9534,6,0,L|168:160,1,120,4|0,0:0|0:0,0:0:0:0:
204,128,10103,2,0,P|216:100|220:60,1,60,12|0,0:0|0:0,0:0:0:0:
208,20,10483,2,0,P|272:52|344:44,1,120,12|12,0:0|0:0,0:0:0:0:
372,36,11053,1,12,0:0:0:0:
372,36,12761,5,12,0:0:0:0:
456,104,13141,1,2,0:0:0:0:
456,104,13331,2,0,P|464:176|456:240,1,120,2|2,0:0|0:0,0:0:0:0:
392,308,14091,2,0,B|304:336|304:280|204:320,1,180,2|2,0:0|0:0,0:0:0:0:
164,300,14850,2,0,P|140:232|148:176,1,120,2|2,0:0|0:0,0:0:0:0:
184,148,15420,2,0,P|192:116|187:70,1,60,2|2,0:0|0:0,0:0:0:0:
178,36,15799,6,0,L|257:26,1,60,12|12,0:0|0:0,0:0:0:0:
289,48,16179,1,0,0:0:0:0:
372,116,16559,2,0,P|364:180|384:244,1,120,0|2,0:0|0:0,0:0:0:0:
412,276,17128,1,0,0:0:0:0:
396,328,17318,2,0,L|256:340,1,120,0|0,0:0|0:0,0:0:0:0:
172,304,18078,2,0,P|156:256|156:212,1,60,2|2,0:0|0:0,0:0:0:0:
188,204,18458,2,0,P|204:156|204:112,1,60,2|2,0:0|0:0,0:0:0:0:
180,100,18837,6,0,P|256:108|336:104,1,120,12|2,0:0|0:0,0:0:0:0:
348,80,19407,2,0,P|404:80|428:140,1,120,2|0,0:0|0:0,0:0:0:0:
456,236,20166,2,0,P|368:236|308:248,1,120,2|8,0:0|0:0,0:0:0:0:
260,316,20926,2,0,P|188:316|156:268,1,120,2|2,0:0|0:0,0:0:0:0:
184,232,21496,2,0,P|192:192|184:148,1,60,2|2,0:0|0:0,0:0:0:0:
160,128,21875,5,8,3:0:0:0:
160,128,22065,2,0,L|292:120,1,120,8|2,3:0|0:0,3:0:0:0:
384,88,22825,2,0,L|400:16,2,60,2|4|4,0:0|3:0|3:0,0:0:0:0:
412,136,23394,2,0,P|440:196|420:268,1,120,8|0,0:0|0:0,0:0:0:0:
348,312,24154,2,0,L|268:320,1,60,0|2,0:0|0:0,0:0:0:0:
240,296,24534,2,0,L|180:290,1,60,0|2,0:0|0:0,0:0:0:0:
132,312,24913,6,0,P|116:256|128:164,1,120,4|4,0:0|0:0,0:0:0:0:
156,92,25673,1,8,0:0:0:0:
248,148,26053,1,4,0:0:0:0:
248,148,26242,2,0,P|320:160|388:152,1,120,0|8,0:0|0:0,0:0:0:0:
416,180,26812,2,0,L|424:276,1,60,4|0,0:0|0:0,0:0:0:0:
376,340,27382,1,0,0:0:0:0:
292,272,27761,6,0,P|212:260|112:280,1,180,0|4,0:0|0:0,0:0:0:0:
60,272,28521,1,0,0:0:0:0:
60,272,28711,2,0,L|56:144,1,120,8|4,0:0|0:0,0:0:0:0:
118,63,29470,2,0,P|182:67|254:35,1,120,4|4,0:0|0:0,0:0:0:0:
340,72,30230,2,0,P|348:104|348:148,1,60,8|0,0:0|0:0,0:0:0:0:
312,172,30610,2,0,P|313:201|321:230,1,60,4|0,0:0|0:0,0:0:0:0:
356,272,30989,6,0,P|264:268|220:280,1,120,4|8,0:0|2:0,0:0:0:0:
188,300,31559,2,0,L|184:180,1,120,0|0,0:0|0:0,0:0:0:0:
152,76,32318,2,0,B|216:60|216:92|284:72,1,120,4|4,0:0|0:0,0:0:0:0:
320,56,32888,1,8,2:0:0:0:
412,108,33268,2,0,P|416:144|408:188,1,60,4|0,0:0|0:0,0:0:0:0:
368,196,33647,2,0,P|364:232|372:276,1,60,8|0,2:0|0:0,2:0:0:0:
392,304,34027,6,0,L|256:312,1,120,4|8,0:0|2:0,0:0:0:0:
228,276,34597,2,0,P|180:228|112:240,1,120,12|12,0:0|0:0,0:0:0:0:
40,288,35356,2,0,P|23:230|40:172,1,120,12|0,0:0|2:0,0:0:0:0:
84,140,35926,1,12,0:0:0:0:
84,140,37065,6,0,L|208:136,1,120,4|4,0:0|0:0,0:0:0:0:
248,168,37635,2,0,P|316:180|368:156,1,120,0|0,0:0|0:0,0:0:0:0:
452,100,38394,1,4,0:0:0:0:
452,100,38584,2,0,P|470:156|432:244,1,120,4|4,0:0|0:0,0:0:0:0:
404,224,39154,2,0,P|336:228|296:296,1,120,4|8,0:0|0:0,0:0:0:0:
248,356,39913,1,4,0:0:0:0:
248,356,40103,6,0,L|118:343,1,120,4|4,0:0|0:0,0:0:0:0:
75,355,40673,1,0,0:0:0:0:
21,261,41053,2,0,P|51:249|78:245,1,60,0|4,0:0|0:0,0:0:0:0:
132,248,41432,2,0,P|156:188|120:112,1,120,4|0,0:0|0:0,0:0:0:0:
76,52,42192,2,0,P|136:92|204:72,1,120,0|0,0:0|0:0,0:0:0:0:
215,45,42761,2,0,P|249:40|279:49,1,60,8|8,0:0|0:0,0:0:0:0:
304,91,43141,6,0,L|307:211,1,120,4|4,0:0|0:0,0:0:0:0:
288,320,43901,2,0,P|356:312|408:256,1,120,4|4,0:0|0:0,0:0:0:0:
420,232,44470,2,0,L|427:112,1,120,4|4,0:0|0:0,0:0:0:0:
348,40,45230,2,0,B|272:24|256:72|160:36,1,180,4|4,0:0|0:0,0:0:0:0:
120,24,45989,1,8,0:0:0:0:
80,60,46179,6,0,L|84:208,1,120,8|4,0:0|0:0,0:0:0:0:
48,281,46939,2,0,B|92:273|92:273|173:289,1,120,4|8,0:0|0:0,0:0:0:0:
196,332,47508,2,0,P|260:332|296:284,1,120,6|2,0:0|0:0,0:0:0:0:
300,239,48078,6,0,P|432:188|381:321,1,360,6|0,0:0|0:0,0:0:0:0:
220,332,49787,1,2,0:0:0:0:
220,332,49977,2,0,P|184:272|192:184,1,120,2|2,0:0|0:0,0:0:0:0:
216,120,50736,6,0,P|132:128|68:100,1,120,4|8,2:0|1:0,2:0:0:0:
52,92,51306,2,0,L|48:224,1,120,0|4,0:0|3:0,0:0:0:0:
20,256,51875,1,8,1:0:0:0:
20,256,52065,2,0,P|112:260|172:324,1,180,4|8,0:0|1:0,0:0:0:0:
159,373,52825,2,0,L|288:361,1,120,0|4,0:0|3:0,0:0:0:0:
360,292,53584,1,0,0:0:0:0:
360,292,53774,6,0,L|364:146,1,120,4|8,3:0|1:0,3:0:0:0:
273,110,54534,1,4,0:0:0:0:
273,110,54723,2,0,P|240:113|200:104,1,60,4|8,3:0|1:0,3:0:0:0:
170,75,55103,2,0,P|99:78|55:126,1,120,12|12,3:0|3:0,3:0:0:0:
88,216,55863,1,12,3:0:0:0:
52,320,56242,2,0,B|120:340|120:304|184:328,1,120,4|8,3:0|1:0,0:0:0:0:
212,360,56812,6,0,L|224:196,1,120,4|8,0:0|1:0,0:0:0:0:
168,144,57572,1,0,0:0:0:0:
168,144,57761,2,0,P|164:108|164:76,2,60,4|8|4,3:0|1:0|3:0,3:0:0:0:
220,240,58521,2,0,P|260:236|304:244,1,60,4|8,3:0|1:0,3:0:0:0:
324,272,58901,2,0,P|353:273|383:269,1,60,0|4,0:0|3:0,0:0:0:0:
408,224,59280,2,0,P|404:192|408:160,1,60,4|8,3:0|1:0,0:0:0:0:
440,124,59660,6,0,L|296:100,1,120,4|4,0:0|3:0,0:0:0:0:
276,132,60230,2,0,P|232:140|188:132,1,60,8|4,1:0|0:0,0:0:0:0:
128,76,60799,2,0,L|120:4,2,60,4|8|4,3:0|1:0|0:0,3:0:0:0:
40,212,61749,1,8,1:0:0:0:
96,304,62128,1,4,3:0:0:0:
204,316,62508,1,8,1:0:0:0:
280,240,62888,6,0,P|348:224|424:232,1,120,4|8,0:0|1:0,0:0:0:0:
444,252,63458,1,0,0:0:0:0:
492,156,63837,2,0,P|484:104|488:64,1,60,4|8,3:0|1:0,3:0:0:0:
500,44,64217,2,0,L|316:32,1,180,4|8,0:0|1:0,0:0:0:0:
276,64,64977,1,0,0:0:0:0:
172,36,65356,2,0,P|168:72|180:116,1,60,4|8,3:0|1:0,3:0:0:0:
196,144,65736,6,0,P|128:148|76:192,1,120,4|4,0:0|3:0,0:0:0:0:
40,276,66496,2,0,L|184:288,1,120,4|4,0:0|3:0,0:0:0:0:
248,348,67255,2,0,P|304:324|366:330,1,120,4|4,0:0|3:0,0:0:0:0:
412,352,67825,1,8,1:0:0:0:
412,352,68015,2,0,L|420:228,1,120,4|8,0:0|1:0,0:0:0:0:
388,188,68584,2,0,P|380:152|388:100,1,60,8|8,1:0|1:0,0:0:0:0:
412,84,68964,6,0,L|284:76,1,120,4|4,0:0|0:0,0:0:0:0:
248,108,69534,1,0,0:0:0:0:
248,108,69723,2,0,P|180:132|120:120,1,120,4|4,0:0|0:0,0:0:0:0:
30,93,70483,2,0,L|40:236,1,120,4|4,2:0|0:0,2:0:0:0:
60,268,71053,1,0,0:0:0:0:
60,268,71242,2,0,P|128:264|176:296,1,120,4|4,0:0|0:0,0:0:0:0:
252,364,72002,6,0,L|376:356,1,120,4|4,2:0|0:0,2:0:0:0:
412,320,72572,1,0,0:0:0:0:
412,320,72761,2,0,P|400:256|416:188,1,120,4|4,0:0|0:0,0:0:0:0:
476,116,73521,2,0,L|468:32,2,60,8|0|0,0:0|0:0|0:0,0:0:0:0:
508,160,74091,1,8,0:0:0:0:
409,202,74470,2,0,P|340:200|289:209,1,120,8|4,0:0|1:0,0:0:0:0:
290,208,78078,6,0,P|216:208|168:236,1,120,4|8,0:0|1:0,0:0:0:0:
128,252,78647,1,0,0:0:0:0:
84,220,78837,2,0,L|96:96,1,120,4|8,3:0|1:0,0:0:0:0:
76,48,79407,2,0,P|128:60|212:32,1,120,4|4,3:0|3:0,3:0:0:0:
236,16,79977,1,8,1:0:0:0:
320,84,80356,1,4,3:0:0:0:
420,44,80736,1,8,1:0:0:0:
488,128,81116,6,0,L|476:260,1,120,4|8,3:0|1:0,3:0:0:0:
432,276,81685,1,0,0:0:0:0:
380,256,81875,2,0,P|312:252|252:268,1,120,4|8,3:0|1:0,3:0:0:0:
212,288,82445,1,12,0:0:0:0:
212,288,82635,2,0,P|216:328|212:356,2,60,0|8|0,0:0|1:0|0:0,0:0:0:0:
176,248,83204,2,0,P|152:208|164:124,2,120,12|12|8,1:0|1:0|3:0,1:0:0:0:
212,288,84154,6,0,L|296:292,2,60,12|12|12,0:0|0:0|0:0,0:0:0:0:
72,204,85103,2,0,L|-12:208,2,60,12|12|12,0:0|0:0|0:0,0:0:0:0:
160,144,85863,1,4,0:0:0:0:
160,144,86053,2,0,P|216:162|279:153,1,120,8|4,0:0|0:0,0:0:0:0:
372,104,86812,1,8,0:0:0:0:
372,104,87002,6,0,L|365:227,1,120,4|4,2:0|0:0,2:0:0:0:
316,248,87572,2,0,P|308:290|320:332,1,60,8|4,0:0|0:0,0:0:0:0:
344,348,87951,2,0,L|220:348,1,120,8|8,0:0|0:0,0:0:0:0:
180,316,88521,2,0,P|144:312|112:320,2,60,8|8|8,1:0|1:0|1:0,0:0:0:0:
240,224,89280,2,0,L|252:132,1,60,0|8,0:0|1:0,0:0:0:0:
328,92,89850,2,0,L|316:0,1,60,4|0,3:0|0:0,0:0:0:0:
212,44,90420,6,0,P|180:52|152:52,1,60,0|2,0:0|0:0,0:0:0:0:
100,40,90799,2,0,P|100:72|96:104,1,60,2|2,0:0|0:0,0:0:0:0:
68,148,91179,2,0,P|136:160|168:208,1,120,2|2,0:0|0:0,0:0:0:0:
165,252,91749,5,4,0:0:0:0:
256,192,91939,12,0,96306,0:0:0:0:
