osu file format v14

[General]
AudioFilename: audio.mp3
AudioLeadIn: 0
PreviewTime: 131079
Countdown: 0
SampleSet: Soft
StackLeniency: 0.7
Mode: 0
LetterboxInBreaks: 0
WidescreenStoryboard: 1

[Editor]
Bookmarks: 1534,23352,45170,66988,88806,110624,132443,154261,176079,195170,196193
DistanceSpacing: 1.3
BeatDivisor: 4
GridSize: 32
TimelineZoom: 1

[Metadata]
Title:samsara
TitleUnicode:samsara
Artist:Misawa Aki
ArtistUnicode:三澤秋
Creator:eiri-
Version:Hard
Source:東方永夜抄 ~ Imperishable Night.
Tags:Ayyri 東方Project Touhou ZUN Team Shanghai Alice nekono Keine Kamishirasawa プレインエイジア Eiyashou Plain Asia Eternal Night Vignette 上白沢 慧音 RED Comiket 78 C78 TH08 REDALiCE ALiCE'S EMOTiON
BeatmapID:1696556
BeatmapSetID:808482

[Difficulty]
HPDrainRate:6
CircleSize:4
OverallDifficulty:5.5
ApproachRate:6
SliderMultiplier:1.6
SliderTickRate:1

[Events]
//Background and Video events
0,0,"Mokou Keine 287.JPG",0,0
//Break Periods
2,29006,44120
2,94461,109574
//Storyboard Layer 0 (Background)
//Storyboard Layer 1 (Fail)
//Storyboard Layer 2 (Pass)
//Storyboard Layer 3 (Foreground)
//Storyboard Sound Samples

[TimingPoints]
1534,681.818181818182,4,2,2,40,1,0
11079,-100,4,2,1,40,0,0
11420,-100,4,2,2,40,0,0
45170,-100,4,2,2,50,0,0
45511,-100,4,2,2,30,0,0
50624,-100,4,2,2,50,0,0
50965,-100,4,2,2,30,0,0
56079,-100,4,2,2,50,0,0
56420,-100,4,2,2,30,0,0
61534,-100,4,2,2,50,0,0
61874,-100,4,2,2,30,0,0
66988,-100,4,2,2,50,0,1
76534,-100,4,2,1,50,0,1
76874,-100,4,2,2,50,0,1
88806,-100,4,2,2,50,0,0
110624,-100,4,2,2,50,0,0
110965,-100,4,2,2,30,0,0
116079,-100,4,2,2,50,0,0
116420,-100,4,2,2,30,0,0
121534,-100,4,2,2,50,0,0
122215,-100,4,2,2,30,0,0
131079,-100,4,2,2,35,0,0
131420,-100,4,2,2,40,0,0
131761,-100,4,2,2,45,0,0
132102,-100,4,2,2,50,0,0
132443,-100,4,2,2,60,0,1
141988,-100,4,2,1,60,0,1
142329,-100,4,2,2,60,0,1
154261,-100,4,2,2,50,0,0
163806,-100,4,2,1,50,0,0
164147,-100,4,2,2,50,0,0
176079,-100,4,2,2,60,0,1
176249,-100,4,2,2,50,0,0
185624,-100,4,2,1,50,0,0
185965,-100,4,2,2,50,0,0
186988,-100,4,2,2,60,0,1
187159,-100,4,2,2,50,0,0
195170,-100,4,2,2,5,0,0
195965,-100,4,2,2,25,0,0
196193,-100,4,3,3,40,0,0

[Colours]
Combo1 : 175,43,247
Combo2 : 252,193,105
Combo3 : 198,4,139
Combo4 : 74,58,214
SliderBorder : 248,193,255

[HitObjects]
210,97,170,5,2,0:2:0:0:
297,78,511,1,2,0:2:0:0:
346,152,852,1,2,0:2:0:0:
296,225,1193,1,2,0:2:0:0:
209,206,1534,6,0,L|186:283,1,80,0|0,3:2|0:0,0:0:0:0:
94,332,2215,2,0,P|72:290|77:241,1,80,8|0,0:2|0:0,0:0:0:0:
96,156,2897,2,0,L|1:167,2,80,8|0|8,0:2|0:2|0:2,0:0:0:0:
198,38,4090,5,0,0:2:0:0:
228,80,4261,2,0,L|243:173,1,80,8|0,0:2|0:2,0:0:0:0:
279,255,4943,2,0,P|315:223|353:220,1,80,8|0,0:2|0:2,0:0:0:0:
443,252,5624,1,8,0:2:0:0:
492,160,5965,1,0,0:2:0:0:
388,172,6306,1,8,0:1:0:0:
437,80,6647,1,0,0:2:0:0:
341,39,6988,6,0,L|251:44,1,80,8|0,0:2|0:2,0:0:0:0:
158,25,7670,2,0,P|175:75|170:109,1,80,8|0,0:2|0:0,0:0:0:0:
105,181,8352,1,8,0:2:0:0:
146,276,8693,1,0,0:2:0:0:
227,211,9034,1,8,0:2:0:0:
268,306,9375,1,0,0:2:0:0:
340,232,9715,6,0,L|430:238,1,80,8|0,0:2|0:2,0:0:0:0:
480,152,10397,2,0,L|390:146,1,80,8|0,0:2|0:2,0:0:0:0:
304,103,11079,1,8,0:2:0:0:soft-hitclap.wav
256,12,11420,1,0,0:2:0:0:
208,103,11761,1,8,0:2:0:0:
13,30,12443,6,0,L|26:135,1,80,8|0,3:2|0:0,0:0:0:0:
97,182,13124,2,0,P|79:228|82:269,1,80,8|0,0:2|0:0,0:0:0:0:
160,323,13806,2,0,L|266:317,2,80,8|0|8,0:2|0:2|0:2,0:0:0:0:
7,358,14999,5,0,0:2:0:0:
16,306,15170,2,0,P|11:239|-4:207,1,80,8|0,3:2|0:2,0:0:0:0:
82,155,15852,2,0,P|87:222|102:254,1,80,8|0,0:2|0:2,0:0:0:0:
152,318,16534,1,8,0:2:0:0:
246,274,16874,1,0,0:2:0:0:
229,376,17215,1,8,0:1:0:0:
323,332,17555,1,0,0:2:0:0:
313,228,17897,6,0,L|320:129,1,80,8|0,0:2|0:0,0:0:0:0:
288,48,18579,2,0,P|337:46|379:22,1,80,8|0,0:2|0:2,0:0:0:0:
464,1,19261,1,8,0:2:0:0:
494,100,19602,1,0,0:2:0:0:
396,64,19943,1,8,0:2:0:0:
366,163,20284,1,0,0:2:0:0:
404,259,20624,6,0,P|347:281|326:302,1,80,8|0,3:2|0:2,0:0:0:0:
238,336,21306,2,0,P|181:314|160:293,1,80,8|0,0:2|0:2,0:0:0:0:
169,197,21988,2,0,P|173:298|79:261,1,240,8|0,0:2|0:2,0:0:0:0:
80,140,23352,5,8,1:2:0:0:
256,192,23693,12,4,28806,0:3:0:0:
414,338,45170,5,0,1:2:0:0:
445,238,45511,2,0,L|361:233,1,80,0|8,0:2|0:2,0:0:0:0:
286,164,46193,1,0,0:2:0:0:
241,258,46534,2,0,P|193:273|145:266,2,80,8|0|8,0:2|0:2|0:2,0:0:0:0:
184,170,47556,1,0,0:2:0:0:
88,210,47897,6,0,L|70:113,1,80,8|0,3:2|3:2,0:0:0:0:
55,28,48579,1,8,0:2:0:0:
157,11,48920,1,0,0:2:0:0:
229,85,49261,2,0,P|275:104|328:98,1,80,8|0,0:2|0:2,0:0:0:0:
402,68,49943,1,8,0:1:0:0:
480,256,50624,5,8,1:2:0:0:
380,225,50965,2,0,P|334:231|300:255,1,80,0|8,0:2|0:2,0:0:0:0:
256,340,51647,1,0,0:2:0:0:
205,248,51988,2,0,P|171:228|132:225,1,80,8|0,0:2|0:2,0:0:0:0:
32,256,52670,2,0,L|14:149,1,80,8|0,0:2|0:2,0:0:0:0:
55,79,53352,5,8,3:2:0:0:
149,35,53693,1,0,3:2:0:0:
212,117,54034,2,0,L|194:224,1,80,8|0,0:2|0:2,0:0:0:0:
269,272,54715,2,0,P|316:262|354:233,1,80,8|0,0:2|0:2,0:0:0:0:
364,142,55397,1,8,0:2:0:0:
311,52,55738,1,0,0:2:0:0:
177,26,56079,5,8,1:2:0:0:
98,94,56420,2,0,P|97:143|114:180,1,80,0|8,0:2|0:2,0:0:0:0:
177,249,57102,1,0,0:2:0:0:
263,191,57443,2,0,P|317:185|360:206,1,80,8|0,0:2|0:2,0:0:0:0:
379,287,58124,2,0,P|325:293|282:272,1,80,8|0,0:2|0:2,0:0:0:0:
340,193,58806,5,8,3:2:0:0:
301,102,59147,1,0,3:2:0:0:
340,11,59488,2,0,L|439:18,1,80,8|0,0:2|0:2,0:0:0:0:
488,95,60170,2,0,P|463:133|414:145,1,80,8|0,0:2|0:2,0:0:0:0:
330,123,60852,1,8,0:1:0:0:
256,320,61534,5,8,1:2:0:0:
175,255,61874,2,0,P|128:243|89:251,1,80,0|8,0:2|0:2,0:0:0:0:
4,295,62556,1,0,0:2:0:0:
28,193,62897,2,0,L|19:108,1,80,8|0,0:2|0:2,0:0:0:0:
85,32,63579,2,0,L|164:23,1,80,8|0,0:2|0:2,0:0:0:0:
260,64,64261,1,8,3:2:0:0:
246,167,64602,1,0,3:2:0:0:
340,122,64943,2,0,L|446:118,1,80,8|0,0:2|0:2,0:0:0:0:
488,315,65965,5,2,0:2:0:0:
417,355,66306,1,10,0:2:0:0:
309,301,66647,1,2,0:2:0:0:
335,167,66988,6,0,L|430:149,1,80,0|0,3:2|0:0,0:0:0:0:
463,42,67670,2,0,L|368:23,1,80,8|0,0:2|0:0,0:0:0:0:
274,74,68352,2,0,P|269:126|249:153,2,80,0|0|8,3:2|0:2|0:2,0:0:0:0:
108,3,69545,5,0,0:2:0:0:
82,48,69715,2,0,L|93:140,1,80,0|0,3:2|0:2,0:0:0:0:
112,245,70397,2,0,P|75:217|22:213,1,80,8|0,0:2|0:2,0:0:0:0:
1,323,71079,1,0,3:2:0:0:
111,369,71420,1,0,3:2:0:0:
227,340,71761,1,8,0:1:0:0:
283,216,72102,1,0,3:2:0:0:
208,102,72443,6,0,L|314:87,1,80,0|0,3:2|0:0,0:0:0:0:
376,10,73124,2,0,L|482:25,1,80,8|0,0:2|0:2,0:0:0:0:
500,132,73806,1,0,3:2:0:0:
453,242,74147,1,2,0:2:0:0:
342,194,74488,1,10,0:2:0:0:
364,311,74829,1,2,0:2:0:0:
251,269,75170,6,0,P|208:277|170:308,1,80,0|0,3:2|0:2,0:0:0:0:
91,380,75852,1,8,0:2:0:0:
41,270,76193,1,0,0:2:0:0:
125,185,76534,2,0,L|116:88,2,80,8|0|8,3:2|0:2|0:1,0:0:0:0:
178,297,77556,1,0,3:2:0:0:
293,330,77897,6,0,P|336:322|374:291,1,80,0|0,3:2|0:0,0:0:0:0:
407,188,78579,2,0,L|316:168,1,80,8|0,0:2|0:2,0:0:0:0:
288,57,79261,2,0,P|339:42|384:53,2,80,0|0|8,3:2|0:2|0:2,0:0:0:0:
212,220,80454,5,0,0:2:0:0:
174,255,80624,2,0,P|123:270|78:259,1,80,0|0,3:2|0:2,0:0:0:0:
7,186,81306,1,8,0:2:0:0:
33,68,81647,1,0,0:2:0:0:
140,14,81988,2,0,L|237:33,1,80,0|0,3:2|0:2,0:0:0:0:
285,129,82670,1,8,0:1:0:0:
393,47,83011,1,0,3:2:0:0:
449,170,83352,6,0,L|442:268,1,80,0|0,3:2|0:0,0:0:0:0:
330,290,84034,2,0,L|323:192,1,80,8|0,0:2|0:2,0:0:0:0:
254,112,84715,2,0,P|216:145|206:182,1,80,0|0,3:2|0:2,0:0:0:0:
187,290,85397,2,0,P|151:272|124:234,1,80,8|0,0:2|0:2,0:0:0:0:
121,120,86079,5,0,3:2:0:0:
193,24,86420,1,0,3:2:0:0:
313,24,86761,1,8,0:2:0:0:
241,120,87102,1,0,0:2:0:0:
335,213,87443,2,0,P|376:264|424:152,1,240,0|0,3:2|0:2,0:0:0:0:
354,68,88806,5,4,3:2:0:0:
256,192,89147,12,4,94261,0:3:0:0:
92,60,110624,5,8,1:2:0:0:
155,142,110965,2,0,P|147:187|115:219,2,80,0|8|0,0:2|0:2|0:2,0:0:0:0:
235,75,111988,2,0,P|277:67|328:80,1,80,8|0,0:2|0:2,0:0:0:0:
400,130,112670,1,8,0:2:0:0:
486,72,113011,1,0,0:2:0:0:
511,172,113352,6,0,L|458:243,1,80,8|0,0:2|0:2,0:0:0:0:
396,316,114034,2,0,P|364:286|310:282,1,80,8|0,0:2|0:2,0:0:0:0:
230,308,114715,1,8,0:2:0:0:
174,219,115056,1,0,0:2:0:0:
83,270,115397,1,8,0:1:0:0:
22,70,116079,5,8,1:2:0:0:
106,130,116420,2,0,P|160:126|203:101,1,80,0|8,0:2|0:2,0:0:0:0:
256,40,117102,1,0,0:2:0:0:
329,115,117443,1,8,0:2:0:0:
420,65,117784,2,0,P|465:55|508:62,2,80,0|8|0,0:2|0:2|0:2,0:0:0:0:
466,157,118806,5,8,0:2:0:0:
396,234,119147,1,0,0:2:0:0:
302,189,119488,2,0,P|285:140|298:96,1,80,8|0,0:2|0:2,0:0:0:0:
340,22,120170,2,0,L|173:27,1,160,8|8,0:2|0:2,0:0:0:0:
33,175,121534,5,8,1:2:0:0:
117,364,122215,2,0,P|152:334|166:292,1,80,8|0,0:2|0:2,0:0:0:0:
216,213,122897,2,0,P|251:243|265:285,1,80,8|0,0:2|0:2,0:0:0:0:
315,364,123579,2,0,P|350:334|364:292,1,80,8|0,0:2|0:2,0:0:0:0:
324,206,124261,6,0,P|367:305|468:263,1,240,8|0,3:2|0:0,0:0:0:0:
506,167,125624,2,0,P|463:68|362:110,1,240,8|0,0:2|0:0,0:0:0:0:
325,207,126988,5,0,1:2:0:0:
129,279,127670,1,8,0:1:0:0:
221,92,128352,1,0,0:2:0:0:
200,194,128693,1,8,0:1:0:0:
96,199,129034,1,0,0:2:0:0:
256,320,129715,2,0,P|319:311|344:318,1,80,0|0,3:2|3:2,0:0:0:0:
428,358,130397,1,8,0:1:0:0:
507,165,131079,5,2,3:2:0:0:
426,208,131420,1,2,0:2:0:0:
349,159,131761,1,2,3:2:0:0:
356,67,132102,1,10,0:2:0:0:
458,22,132443,6,0,L|472:127,1,80,4|0,3:2|0:0,0:0:0:0:
368,181,133124,2,0,P|322:150|280:146,1,80,8|0,0:2|0:0,0:0:0:0:
187,210,133806,2,0,L|71:216,2,80,0|0|8,3:2|0:2|0:2,0:0:0:0:
327,341,134999,5,0,0:2:0:0:
373,365,135170,2,0,P|435:361|466:345,1,80,0|0,3:2|0:2,0:0:0:0:
480,229,135852,2,0,P|418:233|387:249,1,80,8|0,0:2|0:2,0:0:0:0:
327,341,136534,1,0,3:2:0:0:
245,242,136874,1,0,0:2:0:0:
276,117,137215,1,8,0:1:0:0:
161,30,137555,1,8,0:2:0:0:
99,160,137897,6,0,L|110:257,1,80,0|0,3:2|0:2,0:0:0:0:
215,309,138579,2,0,L|226:212,1,80,8|0,0:2|0:0,0:0:0:0:
254,104,139261,1,0,3:2:0:0:
346,192,139602,1,2,0:2:0:0:
371,66,139943,1,10,0:2:0:0:
461,156,140284,1,2,0:2:0:0:
419,276,140624,6,0,L|388:356,1,80,0|0,3:2|0:2,0:0:0:0:
262,367,141306,1,8,0:2:0:0:
226,243,141647,1,0,0:2:0:0:
139,337,141988,2,0,L|44:338,2,80,8|0|8,3:2|0:2|0:2,0:0:0:0:
250,272,143011,1,0,0:2:0:0:
196,155,143352,6,0,P|127:147|106:134,1,80,0|0,3:2|0:0,0:0:0:0:
183,31,144034,2,0,P|252:39|273:52,1,80,8|0,0:2|0:2,0:0:0:0:
306,162,144715,2,0,L|297:257,2,80,0|0|8,3:2|0:2|0:2,0:0:0:0:
433,17,145909,5,0,0:2:0:0:
463,59,146079,2,0,P|474:111|469:151,1,80,0|0,3:2|0:2,0:0:0:0:
502,262,146761,2,0,P|491:314|496:354,1,80,8|0,0:2|0:2,0:0:0:0:
370,378,147443,1,0,3:2:0:0:
273,294,147784,1,0,0:2:0:0:
319,175,148124,1,8,0:1:0:0:
460,148,148465,1,8,0:2:0:0:
363,41,148806,6,0,L|259:35,1,80,0|0,3:2|0:0,0:0:0:0:
139,20,149488,2,0,P|110:57|58:70,1,80,8|0,0:2|0:2,0:0:0:0:
8,175,150170,2,0,L|19:276,1,80,0|0,3:2|0:2,0:0:0:0:
138,294,150852,2,0,L|127:193,1,80,8|0,0:2|0:2,0:0:0:0:
141,86,151534,5,0,3:2:0:0:
24,138,151874,1,0,0:2:0:0:
129,214,152215,1,8,0:2:0:0:
12,266,152555,1,0,0:2:0:0:
125,341,152897,2,0,P|171:364|184:229,1,240,0|0,3:2|0:2,0:0:0:0:
154,122,154261,5,4,3:2:0:0:
280,97,154602,1,0,3:2:0:0:
280,97,154772,1,0,3:2:0:0:
280,97,154943,2,0,P|302:143|303:177,1,80,8|0,0:1|0:2,0:0:0:0:
274,271,155624,1,0,3:2:0:0:
362,325,155965,2,0,P|410:321|443:303,1,80,0|8,0:2|0:1,0:0:0:0:
493,218,156647,1,8,2:2:0:0:
493,218,156818,1,8,0:2:0:0:
493,218,156988,6,0,L|501:129,1,80,0|0,3:2|0:2,0:0:0:0:
432,58,157670,2,0,P|388:64|354:88,1,80,8|0,0:1|0:2,0:0:0:0:
295,166,158352,1,0,3:2:0:0:
236,80,158693,2,0,L|151:76,2,80,0|8|8,0:2|0:1|0:2,0:0:0:0:
312,192,159715,5,0,3:2:0:0:
264,284,160056,1,0,3:2:0:0:
264,284,160227,1,0,3:2:0:0:
264,284,160397,2,0,P|205:291|172:280,1,80,8|0,0:1|0:2,0:0:0:0:
94,236,161079,1,0,3:2:0:0:
68,135,161420,2,0,L|76:30,1,80,0|8,0:2|0:1,0:0:0:0:
173,23,162102,1,8,0:2:0:0:
173,23,162272,1,8,0:2:0:0:
173,23,162443,6,0,L|181:128,1,80,0|0,3:2|0:2,0:0:0:0:
252,176,163124,2,0,P|290:148|333:152,1,80,8|0,0:1|0:2,0:0:0:0:
419,184,163806,1,8,3:2:0:0:
459,279,164147,2,0,L|395:355,2,80,0|8|8,0:2|0:2|0:2,0:0:0:0:
500,145,165170,5,0,3:2:0:0:
444,57,165511,1,0,3:2:0:0:
444,57,165681,1,0,3:2:0:0:
444,57,165852,2,0,L|354:52,1,80,8|0,0:1|0:2,0:0:0:0:
265,17,166534,1,0,3:2:0:0:
221,111,166874,2,0,P|248:161|250:189,1,80,0|8,0:2|0:1,0:0:0:0:
201,275,167556,1,8,0:2:0:0:
201,275,167727,1,8,0:2:0:0:
201,275,167897,6,0,L|297:301,1,80,0|0,3:2|0:2,0:0:0:0:
360,231,168579,2,0,P|362:177|375:144,1,80,8|0,0:1|0:2,0:0:0:0:
435,71,169261,1,0,3:2:0:0:
493,157,169602,2,0,L|501:256,2,80,0|8|8,0:2|0:1|0:2,0:0:0:0:
409,49,170624,5,0,3:2:0:0:
317,98,170965,1,0,3:2:0:0:
317,98,171136,1,0,3:2:0:0:
317,98,171306,2,0,P|271:98|219:73,1,80,8|0,0:1|0:2,0:0:0:0:
149,33,171988,1,0,3:2:0:0:
88,117,172329,2,0,L|79:226,1,80,0|8,0:2|0:1,0:0:0:0:
44,294,173011,1,8,0:2:0:0:
44,294,173181,1,8,0:2:0:0:
44,294,173352,6,0,P|94:288|134:298,1,80,0|0,3:2|0:2,0:0:0:0:
209,351,174034,2,0,P|203:301|213:261,1,80,8|0,0:1|0:2,0:0:0:0:
264,184,174715,1,2,3:2:0:0:
346,166,175056,1,2,0:2:0:0:
405,226,175397,1,10,0:2:0:0:
371,341,175738,1,2,0:2:0:0:
237,317,176079,6,0,L|224:215,1,80,4|0,3:2|0:2,0:0:0:0:
192,138,176761,2,0,P|141:162|107:162,1,80,8|8,0:1|0:2,0:0:0:0:
79,154,177272,1,8,0:2:0:0:
45,131,177443,1,0,3:2:0:0:
65,28,177784,2,0,L|179:35,1,80,0|8,0:2|0:1,0:0:0:0:
242,68,178465,1,8,0:2:0:0:
242,68,178636,1,8,0:2:0:0:
242,68,178806,6,0,P|260:119|289:144,1,80,0|0,3:2|0:2,0:0:0:0:
358,70,179488,2,0,P|395:31|432:20,1,80,8|0,0:1|0:2,0:0:0:0:
510,72,180170,1,0,3:2:0:0:
483,172,180511,2,0,L|500:262,2,80,0|8|8,0:2|0:1|0:2,0:0:0:0:
367,99,181534,5,0,3:2:0:0:
324,193,181874,1,0,3:2:0:0:
324,193,182045,1,0,3:2:0:0:
324,193,182215,2,0,P|271:175|252:135,1,80,8|0,0:1|0:2,0:0:0:0:
242,53,182897,1,0,3:2:0:0:
138,69,183238,2,0,P|109:96|102:134,1,80,0|8,0:2|0:1,0:0:0:0:
132,234,183920,1,8,0:2:0:0:
132,234,184090,1,8,0:2:0:0:
132,234,184261,6,0,L|224:245,1,80,0|0,3:2|0:2,0:0:0:0:
282,319,184943,2,0,P|240:355|194:360,1,80,8|0,0:1|0:2,0:0:0:0:
113,372,185624,1,8,3:2:0:0:
36,321,185965,1,2,0:2:0:0:
43,230,186306,1,10,0:0:0:0:
152,179,186647,1,2,0:0:0:0:
240,282,186988,6,0,L|332:271,1,80,0|0,3:2|3:2,0:0:0:0:
359,275,187499,1,0,3:2:0:0:
390,299,187670,1,8,0:1:0:0:
475,358,188011,2,0,L|491:255,1,80,0|0,0:2|3:2,0:0:0:0:
475,175,188693,2,0,P|427:189|380:178,1,80,8|8,0:2|0:1,0:0:0:0:
319,117,189374,1,8,0:2:0:0:
319,117,189545,1,8,0:2:0:0:
319,117,189715,6,0,P|326:64|315:21,1,80,0|0,3:2|0:2,0:0:0:0:
222,72,190397,2,0,P|217:111|224:150,1,80,8|0,0:1|0:2,0:0:0:0:
270,244,191079,1,0,3:2:0:0:
367,207,191420,2,0,P|416:194|472:204,2,80,0|8|8,0:2|0:1|0:2,0:0:0:0:
282,268,192443,5,0,3:2:0:0:
184,231,192784,1,0,3:2:0:0:
184,231,192954,1,0,3:2:0:0:
184,231,193124,2,0,L|172:139,1,80,8|0,0:1|0:2,0:0:0:0:
107,71,193806,1,0,3:2:0:0:
34,145,194147,2,0,P|44:194|32:238,1,80,0|8,0:2|0:1,0:0:0:0:
0,313,194829,1,8,0:2:0:0:
0,313,194999,2,0,L|14:358,1,40,8|0,0:2|0:2,0:0:0:0:
256,352,195965,6,0,L|256:320,2,26.6666666666667,2|0|4,0:2|0:2|0:3,0:0:0:0:
