osu file format v14

[General]
AudioFilename: to_love-ru_-_golden_trancer_konjike_-svWDC3c7WAI_fmt135.mp3
AudioLeadIn: 0
PreviewTime: 48755
Countdown: 1
SampleSet: Soft
StackLeniency: 0.7
Mode: 0
LetterboxInBreaks: 0
WidescreenStoryboard: 1

[Editor]
DistanceSpacing: 1.1
BeatDivisor: 4
GridSize: 16
TimelineZoom: 0.9

[Metadata]
Title:Golden Trancer
TitleUnicode:Golden Trancer
Artist:Misato Fukuen
ArtistUnicode:Misato Fukuen
Creator:Flutteh
Version:Hard
Source:To Love Ru Darkness
Tags:Yami To Love Ru Darkness Misato Fukuen Golden Trancer
BeatmapID:908037
BeatmapSetID:413633

[Difficulty]
HPDrainRate:6
CircleSize:4
OverallDifficulty:5
ApproachRate:8
SliderMultiplier:1.1
SliderTickRate:1

[Events]
//Background and Video events
0,0,"Yami #77.jpg",0,0
//Break Periods
2,4195,17684
2,43018,48165
//Storyboard Layer 0 (Background)
//Storyboard Layer 1 (Fail)
//Storyboard Layer 2 (Pass)
//Storyboard Layer 3 (Foreground)
//Storyboard Sound Samples

[TimingPoints]
1750,320.855614973262,4,2,1,100,1,0
48755,-100,4,2,1,100,0,1
67204,-100,4,2,1,100,0,0
107953,-100,4,2,1,100,0,1
122872,-100,4,2,1,100,0,0
153995,-100,4,2,1,100,0,1
168621,-100,4,2,1,100,0,0

[Colours]
Combo1 : 255,128,0
Combo2 : 255,255,128
Combo3 : 255,0,0
Combo4 : 255,255,0

[HitObjects]
128,160,1750,2,0,P|144:96|192:96,1,110
224,144,2231,2,0,P|256:208|224:224,1,110
144,240,2872,2,0,L|96:272,1,55
224,288,3193,1,0,0:0:0:0:
128,336,3354,1,0,0:0:0:0:
256,352,3514,1,0,0:0:0:0:
400,336,3675,2,0,P|432:288|432:224,1,110
80,128,18434,5,4,0:0:0:0:
176,64,18755,2,0,B|252:71|252:71|288:112,1,110
208,176,19397,1,4,0:0:0:0:
192,272,19717,1,0,0:0:0:0:
240,288,19878,2,0,L|304:304,1,55
336,208,20359,5,4,0:0:0:0:
432,160,20680,1,0,0:0:0:0:
400,48,21001,1,4,0:0:0:0:
352,64,21161,2,0,L|288:96,1,55
256,112,21482,1,4,0:0:0:0:
272,192,21643,1,0,0:0:0:0:
176,160,21963,5,4,0:0:0:0:
128,64,22284,1,4,0:0:0:0:
64,144,22605,2,0,B|64:208|64:208|80:256,1,110
144,336,23247,1,4,0:0:0:0:
256,320,23568,6,0,B|288:272|288:272|240:224,1,110
288,160,24209,1,4,0:0:0:0:
320,64,24530,2,0,L|272:32,2,55
400,144,25172,2,4,B|400:208|400:208|416:272,1,110
384,304,25653,2,0,L|320:320,1,55
256,336,25974,1,4,0:0:0:0:
256,336,26135,1,4,0:0:0:0:
304,240,26455,1,4,0:0:0:0:
384,160,26776,6,4,B|368:96|368:96|320:96,1,110
256,160,27258,1,2,0:0:0:0:
176,112,27418,2,0,B|128:48|128:48|80:48,1,110
80,128,27899,2,4,L|48:192,1,55
48,256,28381,1,4,0:0:0:0:
128,320,28701,2,0,B|192:300|192:300|256:320,1,110
352,288,29343,1,4,0:0:0:0:
400,176,29664,1,0,0:0:0:0:
304,96,29985,2,4,L|176:96,1,110,0|4,0:0|0:0,0:0:0:0:
112,176,30627,1,0,0:0:0:0:
112,304,30947,1,4,0:0:0:0:
240,288,31268,2,0,L|320:208,1,110,0|4,0:0|0:0,0:0:0:0:
272,128,31910,5,0,0:0:0:0:
192,320,32231,1,4,0:0:0:0:
80,192,32552,1,0,0:0:0:0:
160,48,32872,2,0,L|272:112,1,110,4|0,0:0|0:0,0:0:0:0:
384,208,33514,2,4,B|352:288|352:288|368:320,1,110,4|0,0:0|0:0,0:0:0:0:
240,320,34156,5,4,0:0:0:0:
160,224,34477,2,0,L|32:224,2,110,4|0|4,0:0|0:0|0:0,0:0:0:0:
288,96,35439,2,0,L|416:96,2,110,0|4|0,0:0|0:0|0:0,0:0:0:0:
352,256,36402,2,0,P|368:304|336:368,1,110,4|0,0:0|0:0,0:0:0:0:
288,304,37044,1,4,0:0:0:0:
144,192,37364,2,0,B|208:160|208:160|272:160,1,110,0|4,0:0|0:0,0:0:0:0:
416,192,38006,2,0,B|400:128|368:112|336:112,1,110,0|4,0:0|0:0,0:0:0:0:
240,176,38648,5,0,0:0:0:0:
176,64,38969,2,0,B|240:64|240:64|288:112,1,110,0|4,0:0|0:0,0:0:0:0:
288,176,39610,2,0,B|240:240|240:240|208:240,1,110
160,128,40252,1,0,0:0:0:0:
64,272,40894,5,0,0:0:0:0:
176,304,41215,2,0,L|240:304,1,55
288,288,41536,2,0,L|368:192,1,110
240,176,42017,2,0,L|208:128,1,55
144,112,42338,1,0,0:0:0:0:
176,80,42498,2,0,L|304:80,1,110
112,128,48915,6,0,B|176:112|176:112|224:128,1,110
272,160,49397,1,0,0:0:0:0:
192,176,49557,2,0,L|128:272,1,110
192,288,50038,1,0,0:0:0:0:
192,288,50199,1,0,0:0:0:0:
256,288,50359,2,0,B|304:224|304:224|272:128,1,165
240,96,51001,1,0,0:0:0:0:
240,96,51161,1,0,0:0:0:0:
