osu file format v14

[General]
AudioFilename: Aki Misato - Sayonara Kimi no Koe.mp3
AudioLeadIn: 1996
PreviewTime: 61830
Countdown: 0
SampleSet: Soft
StackLeniency: 0.4
Mode: 0
LetterboxInBreaks: 1
WidescreenStoryboard: 0

[Editor]
DistanceSpacing: 1
BeatDivisor: 4
GridSize: 4
TimelineZoom: 1

[Metadata]
Title:Sayonara Kimi no Koe
TitleUnicode:さよなら君の声
Artist:Misato Aki
ArtistUnicode:美郷あき
Creator:abalee
Version:Normal
Source:ましろ色シンフォニー-Love is pure white-
Tags:
BeatmapID:155142
BeatmapSetID:50452

[Difficulty]
HPDrainRate:4
CircleSize:4
OverallDifficulty:4
ApproachRate:4
SliderMultiplier:1.2
SliderTickRate:1

[Events]
//Background and Video events
0,0,"BG.png",0,0
//Break Periods
2,32148,34685
2,76719,81926
2,139389,148354
2,163389,168926
//Storyboard Layer 0 (Background)
//Storyboard Layer 1 (Fail)
//Storyboard Layer 2 (Pass)
//Storyboard Layer 3 (Foreground)
//Storyboard Sound Samples

[TimingPoints]
434,428.571428571429,4,2,1,80,1,0
13188,-200,4,2,1,40,0,0
15223,-100,4,2,1,80,0,0
28616,-100,4,2,1,5,0,0
31402,-100,4,2,1,80,0,0
36330,-100,4,2,1,5,0,0
36545,-100,4,2,1,80,0,0
37616,-100,4,2,1,5,0,0
37830,-100,4,2,1,80,0,0
38045,-100,4,2,1,5,0,0
38259,-100,4,2,1,80,0,0
49188,-100,4,2,1,40,0,0
49402,-100,4,2,1,80,0,0
76723,666.666666666667,4,2,1,80,1,0
79389,428.571428571429,4,2,1,80,1,0
83567,-100,4,2,1,5,0,0
83781,-100,4,2,1,80,0,0
83996,-100,4,2,1,5,0,0
84210,-100,4,2,1,80,0,0
86567,-100,4,2,1,5,0,0
86781,-100,4,2,1,80,0,0
88281,-100,4,2,1,5,0,0
88496,-100,4,2,1,80,0,0
88710,-100,4,2,1,5,0,0
88924,-100,4,2,1,80,0,0
93424,-100,4,2,1,5,0,0
93639,-100,4,2,1,80,0,0
96424,-100,4,2,1,50,0,0
96639,-100,4,2,1,80,0,0
99853,-100,4,2,1,50,0,0
100067,-100,4,2,1,80,0,0
103281,-100,4,2,1,50,0,0
103496,-100,4,2,1,80,0,0
105424,-100,4,1,0,60,0,0
105639,-100,4,2,1,80,0,0
107139,-100,4,2,1,50,0,0
107353,-100,4,2,1,80,0,0
107781,-100,4,1,0,60,0,0
108103,-100,4,1,0,30,0,0
108424,-100,4,2,1,40,0,0
108639,-100,4,2,1,80,0,0
109281,-100,4,1,0,60,0,0
110031,-100,4,2,1,80,0,0
122781,-100,4,1,0,60,0,0
123853,-100,4,2,1,80,0,0
135960,-100,4,2,1,5,0,0
139067,-100,4,2,1,80,0,0
149567,-100,4,2,1,40,0,0
149781,-100,4,2,1,80,0,0
175924,-100,4,1,0,40,0,0
176567,-100,4,1,0,60,0,0
176996,-100,4,2,1,80,0,0
189639,-100,4,1,0,40,0,0
190281,-100,4,1,0,60,0,0
190710,-100,4,2,1,80,0,0
192210,-100,4,2,1,50,0,0
192424,-100,4,2,1,80,0,0
203567,-100,4,1,0,50,0,0
203996,-100,4,1,0,60,0,0
204424,-100,4,2,1,80,0,0
205067,-100,4,2,1,50,0,0
205281,-100,4,2,1,80,0,0
213639,-100,4,2,1,50,0,0
213853,-100,4,2,1,80,0,0

[Colours]
Combo1 : 255,81,168
Combo2 : 149,149,202
Combo3 : 255,255,255

[HitObjects]
428,304,434,1,0,0:0:0:0:
472,192,862,1,0,0:0:0:0:
432,80,1291,2,0,B|372:96|296:72,1,120
260,184,2148,1,0,0:0:0:0:
216,296,2576,2,0,B|156:296,1,60
64,220,3219,2,0,B|36:152|68:88,1,120
61,103,3862,5,0,0:0:0:0:
172,56,4291,1,0,0:0:0:0:
288,84,4719,2,0,B|420:100,1,120
452,140,5362,2,0,B|452:212,1,60
340,244,6005,2,0,B|340:320,1,60
220,288,6648,2,0,B|220:160,1,120
220,168,7291,1,0,0:0:0:0:
40,328,8148,5,0,0:0:0:0:
136,108,9005,1,0,0:0:0:0:
252,316,9862,1,0,0:0:0:0:
360,100,10719,1,0,0:0:0:0:
468,316,11576,2,0,B|424:272|428:188,1,120
368,196,12219,2,0,B|240:216,1,120
256,192,13291,12,0,15005,0:0:0:0:
224,56,16719,6,0,B|296:72|364:52,1,120
400,76,17362,2,0,B|420:152,1,60
248,296,18434,2,0,B|120:316,1,120
72,296,19076,2,0,B|96:228|68:160,1,120
232,88,20148,6,0,B|264:148|240:228,1,120
296,236,20791,2,0,B|376:252,1,60
176,100,21862,2,0,B|56:120,1,120
40,176,22505,2,0,B|80:224|76:308,1,120
252,320,23576,6,0,B|388:304,1,120
371,305,24219,1,0,0:0:0:0:
440,208,24648,2,0,B|412:80,1,120
296,80,25505,2,0,B|168:100,1,120
88,180,26362,6,0,B|164:232|148:352,1,180
388,304,27862,1,0,0:0:0:0:
256,192,28719,12,0,31291,0:0:0:0:
404,88,36005,6,0,B|304:120|208:88,1,180
104,228,37291,2,0,B|208:224|296:284,2,180
84,108,39005,1,0,0:0:0:0:
216,116,39434,6,0,B|288:120,1,60
396,128,40076,2,0,B|392:252,1,120,0|0,0:0|0:0,0:0:0:0:
392,247,40719,1,0,0:0:0:0:
216,284,41362,1,0,0:0:0:0:
316,132,42005,5,0,0:0:0:0:
216,68,42434,2,0,B|92:80,1,120
60,128,43076,2,0,B|108:176|96:260,1,120
216,256,43934,1,0,0:0:0:0:
336,276,44362,1,0,0:0:0:0:
368,160,44791,1,0,0:0:0:0:
400,44,45219,1,0,0:0:0:0:
280,48,45648,6,0,B|200:52,1,60
116,108,46291,2,0,B|120:192,1,60
196,260,46933,2,0,B|272:256,1,60
364,308,47576,1,0,0:0:0:0:
456,84,48433,1,0,0:0:0:0:
216,68,49291,6,0,B|160:96|80:84,1,120,4|0,0:0|0:0,0:0:0:0:
98,86,49933,1,8,0:0:0:0:
48,260,50576,1,0,0:0:0:0:
148,328,51005,1,0,0:0:0:0:
368,228,51862,1,0,0:0:0:0:
128,224,52719,6,0,B|148:160|128:92,1,120
131,105,53362,1,8,0:0:0:0:
300,44,54005,2,0,B|440:64,1,120
224,204,55291,1,0,0:0:0:0:
48,44,56148,6,0,B|80:96|64:180,1,120
67,160,56791,1,8,0:0:0:0:
120,268,57219,2,0,B|252:280,1,120
239,278,57862,1,0,0:0:0:0:
304,176,58291,1,0,0:0:0:0:
364,72,58719,1,0,0:0:0:0:
244,60,59148,1,0,0:0:0:0:
124,48,59576,6,0,B|84:100|96:172,1,120
94,161,60219,1,8,0:0:0:0:
168,256,60648,2,0,B|296:292,1,120
340,304,61291,2,0,B|368:248|344:172,2,120
240,88,63005,6,0,B|104:104,2,120,4|8|0,0:0|0:0|0:0,0:0:0:0:
360,104,64291,2,0,B|376:180,1,60,8|0,0:0|0:0,0:0:0:0:
316,268,64933,2,0,B|244:280,1,60,0|8,0:0|0:0,0:0:0:0:
140,260,65576,6,0,B|100:196|108:136,2,120,0|8|0,0:0|0:0|0:0,0:0:0:0:
228,176,66862,2,0,B|240:108|200:44,1,120,8|0,0:0|0:0,0:0:0:0:
328,68,67719,1,8,0:0:0:0:
444,104,68148,2,0,B|400:156|420:236,1,120,0|8,0:0|0:0,0:0:0:0:
364,324,69005,1,0,0:0:0:0:
244,332,69433,1,8,0:0:0:0:
160,244,69862,6,0,B|288:232,1,120,4|8,0:0|0:0,0:0:0:0:
292,172,70505,2,0,B|312:108|276:40,1,120,4|0,0:0|0:0,0:0:0:0:
283,55,71148,1,8,0:0:0:0:
164,36,71576,2,0,B|32:48,1,120,0|8,0:0|0:0,0:0:0:0:
24,104,72219,2,0,B|60:156|36:244,1,120
41,219,72862,1,8,0:0:0:0:
140,288,73291,6,0,B|280:276,1,120,0|8,0:0|0:0,0:0:0:0:
259,277,73933,1,0,0:0:0:0:
356,204,74362,1,0,0:0:0:0:
300,96,74791,1,0,0:0:0:0:
208,172,75219,2,0,B|136:180,1,60,0|8,0:0|0:0,0:0:0:0:
376,96,83246,6,0,B|296:68|184:76,2,180
388,276,85174,1,0,0:0:0:0:
216,324,85817,1,0,0:0:0:0:
104,276,86246,2,0,B|80:176|160:84,1,180
264,104,87317,1,0,0:0:0:0:
404,216,87960,2,0,B|368:312|268:324,2,180
356,104,89674,5,0,0:0:0:0:
180,64,90317,1,0,0:0:0:0:
104,228,90960,1,0,0:0:0:0:
260,316,91603,2,0,B|328:328|396:308,2,120
348,160,93103,6,0,B|256:132|152:164,1,180
72,312,94388,1,0,0:0:0:0:
192,316,94817,1,0,0:0:0:0:
412,220,95674,1,0,0:0:0:0:
228,64,96531,6,0,B|356:56,1,120,4|0,0:0|0:0,0:0:0:0:
347,56,97174,1,8,0:0:0:0:
432,216,97817,1,0,0:0:0:0:
364,316,98246,2,0,B|244:323,1,120,0|0,0:0|0:0,0:0:0:0:
144,260,99103,1,0,0:0:0:0:
384,236,99960,6,0,B|348:168|388:100,1,120,4|0,0:0|0:0,0:0:0:0:
377,120,100603,1,8,0:0:0:0:
212,48,101246,2,0,B|76:68,1,120
80,184,102103,2,0,B|216:164,1,120
420,68,103388,6,0,B|388:128|416:204,1,120,4|0,0:0|0:0,0:0:0:0:
409,184,104031,1,8,0:0:0:0:
368,296,104460,2,0,B|224:312,1,120
248,309,105103,1,0,0:0:0:0:
192,204,105531,1,0,0:0:0:0:
136,100,105960,1,0,0:0:0:0:
252,64,106388,1,0,0:0:0:0:
368,36,106817,6,0,B|404:80|396:164,1,120,0|4,0:0|0:0,0:0:0:0:
397,149,107460,1,0,0:0:0:0:
344,256,107888,2,0,B|216:292,1,120
168,300,108531,2,0,B|132:256|132:172,2,120,4|0|0,0:0|0:0|0:0,0:0:0:0:
224,196,109817,1,0,0:0:0:0:
264,84,110246,6,0,B|392:104,2,120,4|8|0,0:0|0:0|0:0,0:0:0:0:
156,132,111531,2,0,B|140:208,1,60,8|0,0:0|0:0,0:0:0:0:
216,288,112174,2,0,B|288:300,1,60,0|8,0:0|0:0,0:0:0:0:
388,256,112817,6,0,B|428:212|424:124,2,120,0|8|0,0:0|0:0|0:0,0:0:0:0:
296,176,114103,2,0,B|296:112|336:60,1,120,8|0,0:0|0:0,0:0:0:0:
212,64,114960,1,8,0:0:0:0:
92,76,115388,2,0,B|128:128|120:208,1,120,0|8,0:0|0:0,0:0:0:0:
116,252,116031,2,0,B|240:264,1,120
235,263,116674,1,8,0:0:0:0:
316,176,117103,6,0,B|184:164,1,120,4|8,0:0|0:0,0:0:0:0:
140,148,117746,2,0,B|124:76|156:8,1,120
147,29,118388,1,8,0:0:0:0:
268,36,118817,2,0,B|412:48,1,120,4|8,0:0|0:0,0:0:0:0:
436,84,119460,2,0,B|396:144|424:224,1,120
416,198,120103,1,8,0:0:0:0:
368,296,120531,6,0,B|228:284,1,120,0|8,0:0|0:0,0:0:0:0:
248,285,121174,1,0,0:0:0:0:
156,212,121603,1,0,0:0:0:0:
208,104,122031,1,0,0:0:0:0:
324,128,122460,2,0,B|400:128,1,60,0|8,0:0|0:0,0:0:0:0:
340,240,123103,5,0,0:0:0:0:
292,352,123531,1,0,0:0:0:0:
172,352,123960,2,0,B|28:352,1,120,4|8,0:0|0:0,0:0:0:0:
76,236,124817,1,0,0:0:0:0:
104,120,125246,2,0,B|228:120,2,120,8|0|8,0:0|0:0|0:0,0:0:0:0:
172,216,126531,6,0,B|296:216,1,120,0|8,0:0|0:0,0:0:0:0:
368,312,127388,2,0,B|232:312,1,120,4|8,0:0|0:0,0:0:0:0:
188,312,128031,2,0,B|112:312,1,60,0|0,0:0|0:0,0:0:0:0:
160,196,128674,1,8,0:0:0:0:
200,84,129103,2,0,B|328:84,3,120,0|8|0|8,0:0|0:0|0:0|0:0,0:0:0:0:
404,168,130817,6,0,B|272:168,1,120,4|8,0:0|0:0,0:0:0:0:
228,192,131460,2,0,B|252:260|224:328,1,120
180,340,132103,2,0,B|56:340,1,120,8|4,0:0|0:0,0:0:0:0:
80,220,132960,2,0,B|96:140,1,60,8|0,0:0|0:0,0:0:0:0:
112,44,133603,6,0,B|176:44,1,60,0|8,0:0|0:0,0:0:0:0:
268,116,134246,2,0,B|260:192,1,60
248,232,134674,2,0,B|192:248|128:228,1,120,8|0,0:0|0:0,0:0:0:0:
129,228,135317,1,0,0:0:0:0:
148,108,135746,1,0,0:0:0:0:
256,192,136174,12,0,138960,0:0:0:0:
404,324,149674,6,0,B|348:344|268:320,1,120,4|0,0:0|0:0,0:0:0:0:
285,324,150317,1,0,0:0:0:0:
244,212,150746,1,0,0:0:0:0:
244,212,150960,1,8,0:0:0:0:
212,96,151389,6,0,B|96:104,2,90
272,96,152246,2,0,B|316:144|316:216,1,120
232,292,153103,2,0,B|176:312|100:296,1,120
113,298,153746,1,0,0:0:0:0:
136,180,154174,2,0,B|156:100,1,60,0|8,0:0|0:0,0:0:0:0:
252,56,154817,2,0,B|316:80|380:64,1,120
408,112,155460,2,0,B|372:168|396:248,1,120
390,227,156103,1,8,0:0:0:0:
284,280,156531,6,0,B|152:292,1,120
164,290,157174,1,0,0:0:0:0:
152,172,157603,2,0,B|232:164,1,60,0|8,0:0|0:0,0:0:0:0:
332,156,158246,5,0,0:0:0:0:
416,244,158674,2,0,B|408:320,1,60
292,316,159317,1,0,0:0:0:0:
292,316,159531,2,0,B|160:308,2,120,8|0|0,0:0|0:0|0:0,0:0:0:0:
336,276,160603,2,0,B|368:212|352:144,1,120
304,128,161246,2,0,B|160:116,1,120,8|0,0:0|0:0,0:0:0:0:
388,88,170246,5,0,0:0:0:0:
208,108,170889,2,0,B|76:124,2,120
60,296,172603,1,0,0:0:0:0:
240,312,173246,5,0,0:0:0:0:
208,196,173674,2,0,B|332:204,1,120
388,212,174317,2,0,B|408:280|376:356,3,120
324,340,175817,1,0,0:0:0:0:
204,332,176246,5,0,0:0:0:0:
112,256,176674,1,0,0:0:0:0:
152,144,177103,2,0,B|212:168|280:152,1,120,4|8,0:0|0:0,0:0:0:0:
269,154,177746,1,4,0:0:0:0:
384,192,178174,2,0,B|404:272,1,60,0|8,0:0|0:0,0:0:0:0:
328,348,178817,2,0,B|184:356,1,120,0|8,0:0|0:0,0:0:0:0:
204,236,179674,6,0,B|336:228,1,120,0|8,0:0|0:0,0:0:0:0:
316,108,180531,2,0,B|176:116,1,120,0|8,0:0|0:0,0:0:0:0:
196,114,181174,1,0,0:0:0:0:
132,216,181603,1,0,0:0:0:0:
132,216,181817,1,8,0:0:0:0:
84,328,182246,2,0,B|212:320,1,120,0|8,0:0|0:0,0:0:0:0:
324,308,183103,2,0,B|396:300,2,60,0|0|8,0:0|0:0|0:0,0:0:0:0:
328,188,183960,5,4,0:0:0:0:
300,72,184389,2,0,B|220:76,1,60,8|0,0:0|0:0,0:0:0:0:
184,180,185031,1,0,0:0:0:0:
184,180,185246,1,8,0:0:0:0:
140,292,185674,2,0,B|272:292,1,120,4|8,0:0|0:0,0:0:0:0:
312,260,186317,2,0,B|344:200|312:124,1,120
319,143,186960,1,8,0:0:0:0:
212,92,187389,6,0,B|128:112,1,60
112,148,187817,2,0,B|152:192|148:276,1,120,8|0,0:0|0:0,0:0:0:0:
172,316,188460,2,0,B|248:324,1,60,0|8,0:0|0:0,0:0:0:0:
344,280,189103,2,0,B|376:224|360:152,1,120,0|8,0:0|0:0,0:0:0:0:
284,72,189960,5,0,0:0:0:0:
260,192,190389,1,0,0:0:0:0:
160,124,190817,2,0,B|128:192|156:268,1,120,4|8,0:0|0:0,0:0:0:0:
147,241,191460,1,4,0:0:0:0:
232,328,191889,2,0,B|312:332,2,60,0|8|4,0:0|0:0|0:0,0:0:0:0:
304,232,192746,2,0,B|380:236,1,60,0|8,0:0|0:0,0:0:0:0:
388,116,193389,6,0,B|244:108,1,120,0|8,0:0|0:0,0:0:0:0:
244,228,194246,2,0,B|116:220,1,120,4|8,0:0|0:0,0:0:0:0:
88,172,194889,2,0,B|68:96|104:32,1,120
136,16,195531,2,0,B|272:24,2,120,8|0|8,0:0|0:0|0:0,0:0:0:0:
196,120,196817,2,0,B|332:128,1,120,0|8,0:0|0:0,0:0:0:0:
308,244,197674,6,0,B|448:252,1,120,4|8,0:0|0:0,0:0:0:0:
427,250,198317,1,0,0:0:0:0:
404,132,198746,2,0,B|400:56,1,60,0|8,0:0|0:0,0:0:0:0:
280,84,199389,2,0,B|144:76,1,120,4|8,0:0|0:0,0:0:0:0:
160,76,200031,1,0,0:0:0:0:
96,180,200460,6,0,B|84:260,1,60,0|8,0:0|0:0,0:0:0:0:
112,292,200889,2,0,B|180:300,1,60
292,312,201531,2,0,B|280:240|312:184,1,120,8|0,0:0|0:0,0:0:0:0:
360,172,202174,2,0,B|444:188,1,60,0|8,0:0|0:0,0:0:0:0:
476,168,202603,2,0,B|504:112|476:40,1,120
480,51,203246,1,8,0:0:0:0:
360,56,203674,5,0,0:0:0:0:
252,108,204103,1,0,0:0:0:0:
212,220,204531,1,4,0:0:0:0:
224,340,204960,2,0,B|304:352,1,60,8|4,0:0|0:0,0:0:0:0:
384,280,205603,2,0,B|304:264,1,60,0|8,0:0|0:0,0:0:0:0:
292,152,206246,1,0,0:0:0:0:
212,64,206674,6,0,B|140:88|112:164,1,120,8|0,0:0|0:0,0:0:0:0:
128,196,207317,2,0,B|160:268,1,60,0|8,0:0|0:0,0:0:0:0:
256,192,207960,1,4,0:0:0:0:
359,133,208389,2,0,B|384:188,1,60,8|4,0:0|0:0,0:0:0:0:
390,245,208817,2,0,B|368:304|300:320,2,120,0|8|0,0:0|0:0|0:0,0:0:0:0:
300,168,210103,2,0,B|168:148,2,120,8|0|8,0:0|0:0|0:0,0:0:0:0:
392,244,211389,5,4,0:0:0:0:
228,320,212031,1,0,0:0:0:0:
96,196,212674,1,8,0:0:0:0:
128,80,213103,1,4,0:0:0:0:
304,112,213746,1,4,0:0:0:0:
344,288,214389,5,8,0:0:0:0:
228,316,214817,1,0,0:0:0:0:
108,332,215246,2,0,B|96:256,1,60,8|0,0:0|0:0,0:0:0:0:
84,152,215889,2,0,B|164:140,1,60,0|8,0:0|0:0,0:0:0:0:
260,124,216531,5,0,0:0:0:0:
308,236,216960,2,0,B|392:224,1,60,0|0,0:0|0:0,0:0:0:0:
284,312,217603,2,0,B|214:323,1,60,0|0,0:0|0:0,0:0:0:0:
112,280,218246,5,0,0:0:0:0:
160,172,218674,2,0,B|144:88,1,60,0|0,0:0|0:0,0:0:0:0:
260,68,219317,2,0,B|288:200,1,120
284,185,219960,1,0,0:0:0:0:
