osu file format v12

[General]
AudioFilename: Aki Misato - Sayonara Kimi no Koe.mp3
AudioLeadIn: 1996
PreviewTime: 61830
Countdown: 0
SampleSet: Soft
StackLeniency: 0.4
Mode: 0
LetterboxInBreaks: 1
WidescreenStoryboard: 0

[Editor]
DistanceSpacing: 1
BeatDivisor: 4
GridSize: 4

[Metadata]
Title:Sayonara Kimi no Koe
TitleUnicode:さよなら君の声
Artist:Misato Aki
ArtistUnicode:美郷あき
Creator:abalee
Version:Easy
Source:ましろ色シンフォニー-Love is pure white-
Tags:
BeatmapID:158272
BeatmapSetID:50452

[Difficulty]
HPDrainRate:3
CircleSize:3
OverallDifficulty:2
ApproachRate:2
SliderMultiplier:0.9
SliderTickRate:1

[Events]
//Background and Video events
0,0,"BG.png",0,0
//Break Periods
2,32148,34445
2,76719,81686
2,139389,148114
2,163588,168686
//Storyboard Layer 0 (Background)
//Storyboard Layer 1 (Fail)
//Storyboard Layer 2 (Pass)
//Storyboard Layer 3 (Foreground)
//Storyboard Sound Samples
//Background Colour Transformations
3,100,163,162,255

[TimingPoints]
434,428.571428571429,4,2,1,80,1,0
13080,-100,4,2,1,40,0,0
15223,-100,4,2,1,80,0,0
28509,-100,4,2,1,5,0,0
31509,-100,4,2,1,80,0,0
49080,-100,4,2,1,40,0,0
49509,-100,4,2,1,80,0,0
76723,666.666666666667,4,2,1,80,1,0
79389,428.571428571429,4,2,1,80,1,0
99746,-100,4,2,1,50,0,0
100174,-100,4,2,1,80,0,0
135960,-100,4,2,1,5,0,0
139174,-100,4,2,1,80,0,0
149460,-100,4,2,1,40,0,0
149889,-100,4,2,1,80,0,0
161460,-100,4,2,1,40,0,0
163603,-100,4,2,1,80,0,0
185460,-100,4,2,1,60,0,0
185889,-100,4,2,1,80,0,0
204960,-100,4,2,1,60,0,0
205389,-100,4,2,1,80,0,0

[Colours]
Combo1 : 255,81,168
Combo2 : 149,149,202
Combo3 : 255,255,255

[HitObjects]
256,212,434,1,0,0:0:0:0:
344,56,1291,2,0,B|256:24|156:56,1,180
256,156,2791,1,0,0:0:0:0:
400,328,3862,2,0,B|304:324|248:308|208:328,2,180
436,200,6219,1,0,0:0:0:0:
56,56,8148,5,0,0:0:0:0:
88,232,9005,1,0,0:0:0:0:
192,84,9862,1,0,0:0:0:0:
240,256,10719,1,0,0:0:0:0:
360,120,11576,6,0,B|440:216|388:344,1,225
256,192,13291,12,0,15005,0:0:0:0:
80,56,16719,6,0,B|228:56,1,135
428,128,18433,2,0,B|284:128,1,135
108,256,20148,6,0,B|243:256,1,135
448,348,21862,2,0,B|300:348,1,135
92,316,23576,6,0,B|64:248|80:176,1,135
268,64,25291,2,0,B|292:116|280:204,1,135
464,328,27005,6,0,B|492:252|456:140,1,180
256,192,28719,12,0,31291,0:0:0:0:
80,276,36005,6,0,B|96:136,1,135
216,84,37291,2,0,B|280:112|352:104,1,135
464,296,39005,1,0,0:0:0:0:
332,328,39648,2,0,B|232:312,1,90
204,184,40719,2,0,B|132:184|72:240,1,135
296,164,42434,6,0,B|396:160|436:120,2,135
184,88,44362,1,0,0:0:0:0:
100,120,44791,1,0,0:0:0:0:
16,152,45219,1,0,0:0:0:0:
68,276,45862,6,0,B|216:284,1,135
428,296,47576,1,0,0:0:0:0:
384,120,48434,1,0,0:0:0:0:
208,88,49291,6,0,B|68:108,1,135,4|8,0:0|0:0,0:0:0:0:
56,332,51005,1,0,0:0:0:0:
236,316,51862,1,0,0:0:0:0:
416,296,52719,6,0,B|456:168,1,135,0|8,0:0|0:0,0:0:0:0:
232,156,54434,1,0,0:0:0:0:
52,136,55291,1,0,0:0:0:0:
156,284,56148,6,0,B|22:264,2,135,0|8|0,0:0|0:0|0:0,0:0:0:0:
244,296,57862,1,0,0:0:0:0:
320,244,58291,1,0,0:0:0:0:
392,192,58719,1,0,0:0:0:0:
460,132,59148,1,0,0:0:0:0:
376,100,59576,6,0,B|312:112|228:88,2,135,0|8|0,0:0|0:0|0:0,0:0:0:0:
356,188,61291,2,0,B|308:268|336:368,1,180
156,332,63005,6,0,B|44:312,2,90,4|0|0,0:0|0:0|0:0,0:0:0:0:
84,168,64719,2,0,B|261:200,1,180
356,52,66434,6,0,B|468:72,2,90
428,216,68148,2,0,B|250:183,1,180
72,152,69862,5,4,0:0:0:0:
52,284,70505,1,4,0:0:0:0:
272,320,71576,1,0,0:0:0:0:
404,344,72219,1,0,0:0:0:0:
436,120,73291,6,0,B|372:124|276:96,1,135
216,80,74362,1,0,0:0:0:0:
132,112,74791,2,0,B|112:168|128:272,1,135
424,300,83246,6,0,B|400:148,1,135
296,84,84531,2,0,B|232:112|160:104,1,135
48,296,86246,1,0,0:0:0:0:
180,328,86888,2,0,B|280:312,1,90
308,184,87960,2,0,B|380:184|440:240,1,135
220,156,89674,6,0,B|120:152|80:112,2,135
328,76,91603,1,0,0:0:0:0:
412,112,92031,1,0,0:0:0:0:
492,148,92460,1,0,0:0:0:0:
444,276,93103,6,0,B|296:284,1,135
84,296,94817,1,0,0:0:0:0:
128,120,95674,1,0,0:0:0:0:
304,88,96531,6,0,B|444:108,1,135,4|8,0:0|0:0,0:0:0:0:
456,332,98246,1,0,0:0:0:0:
276,316,99103,1,0,0:0:0:0:
96,296,99960,6,0,B|56:168,1,135,4|8,0:0|0:0,0:0:0:0:
280,156,101674,1,0,0:0:0:0:
460,136,102531,1,0,0:0:0:0:
356,284,103389,6,0,B|489:264,2,135,4|8|0,0:0|0:0|0:0,0:0:0:0:
268,296,105103,1,0,0:0:0:0:
192,244,105532,1,0,0:0:0:0:
120,192,105960,1,0,0:0:0:0:
52,132,106389,1,0,0:0:0:0:
136,100,106817,6,0,B|200:112|284:88,2,135
156,188,108531,2,0,B|204:268|176:368,1,180,4|0,0:0|0:0,0:0:0:0:
356,332,110246,6,0,B|468:312,2,90,4|0|0,0:0|0:0|0:0,0:0:0:0:
428,168,111960,2,0,B|251:200,1,180
156,52,113674,6,0,B|44:72,2,90
84,216,115388,2,0,B|262:183,1,180
440,152,117103,5,4,0:0:0:0:
460,284,117746,1,0,0:0:0:0:
240,320,118817,1,4,0:0:0:0:
108,344,119460,1,0,0:0:0:0:
76,120,120531,6,0,B|140:124|236:96,1,135
296,80,121603,1,0,0:0:0:0:
380,112,122031,2,0,B|400:168|384:272,1,135
316,300,123103,6,0,B|216:312,1,90
136,320,123960,1,4,0:0:0:0:
92,144,124817,1,0,0:0:0:0:
168,92,125246,2,0,B|264:92|356:64,1,180
492,292,127388,5,4,0:0:0:0:
320,340,128246,1,0,0:0:0:0:
232,320,128674,2,0,B|152:288|48:284,1,180
260,108,130817,5,4,0:0:0:0:
380,172,131460,2,0,B|392:232|376:320,1,135
288,316,132531,2,0,B|232:308|136:324,1,135,4|0,0:0|0:0,0:0:0:0:
124,188,133817,5,0,0:0:0:0:
144,100,134246,2,0,B|216:80|292:84,1,135
324,160,135317,2,0,B|384:164|436:148,1,90
256,192,136174,12,0,138960,0:0:0:0:
260,80,149674,6,0,B|263:114|247:170|259:214,2,135,4|0|8,0:0|0:0|0:0,0:0:0:0:
176,48,151388,2,0,B|32:80,1,135
180,260,153103,6,0,B|48:290,2,135,0|0|8,0:0|0:0|0:0,0:0:0:0:
268,284,154817,2,0,B|348:308|420:304,1,135
432,172,156103,5,8,0:0:0:0:
348,140,156531,2,0,B|292:160|212:160,2,135,0|0|8,0:0|0:0|0:0,0:0:0:0:
336,52,158246,2,0,B|264:40|188:72,1,135
80,120,159531,1,8,0:0:0:0:
88,208,159960,6,0,B|152:240|232:236,2,135,0|0|8,0:0|0:0|0:0,0:0:0:0:
256,192,161674,12,4,163388,0:0:0:0:
404,64,170246,5,0,0:0:0:0:
268,76,170888,1,0,0:0:0:0:
60,164,171960,1,0,0:0:0:0:
192,180,172603,1,0,0:0:0:0:
388,292,173674,5,0,0:0:0:0:
256,312,174317,1,0,0:0:0:0:
92,240,175174,2,0,B|52:180|60:72,1,135
128,56,176246,6,0,B|240:64,1,90
304,84,177103,2,0,B|344:160|340:236,2,135,4|4|8,0:0|0:0|0:0,0:0:0:0:
216,72,178817,1,0,0:0:0:0:
104,212,179674,5,0,0:0:0:0:
232,340,180531,2,0,B|408:340,2,135
152,296,182246,2,0,B|100:212|120:92,1,180
172,52,183531,6,0,B|288:72,1,90,0|4,0:0|0:0,0:0:0:0:
392,96,184603,1,0,0:0:0:0:
356,224,185246,2,0,B|328:320,1,90,0|4,0:0|0:0,0:0:0:0:
200,276,186317,1,0,0:0:0:0:
72,236,186960,5,0,0:0:0:0:
96,148,187388,2,0,B|124:76|192:44,2,135
176,192,189103,2,0,B|280:180,1,90
344,224,189960,6,0,B|336:352,1,90
248,300,190817,1,4,0:0:0:0:
112,284,191460,2,0,B|96:136,1,135,4|0,0:0|0:0,0:0:0:0:
156,80,192531,2,0,B|236:100|348:72,1,180
480,184,194246,6,0,B|424:264|432:360,1,180,4|0,0:0|0:0,0:0:0:0:
340,348,195531,2,0,B|156:336,1,180
112,260,196817,2,0,B|96:168,1,90
80,84,197674,5,4,0:0:0:0:
212,68,198317,1,0,0:0:0:0:
348,56,198960,1,0,0:0:0:0:
400,128,199388,1,4,0:0:0:0:
316,232,200031,1,0,0:0:0:0:
244,348,200674,5,0,0:0:0:0:
156,328,201103,2,0,B|108:276|96:192,3,135
132,76,203674,6,0,B|248:68,1,90
308,100,204531,2,0,B|352:168|332:260,1,135,4|4,0:0|0:0,0:0:0:0:
232,312,205817,2,0,B|128:328,2,90
412,292,207531,5,0,0:0:0:0:
444,208,207960,2,0,B|456:144|424:64,1,135,4|4,0:0|0:0,0:0:0:0:
296,52,209246,2,0,B|184:60,1,90
124,92,210103,2,0,B|88:196|128:308,1,180
168,344,211388,5,4,0:0:0:0:
296,304,212031,1,0,0:0:0:0:
424,264,212674,2,0,B|448:168,1,90,0|4,0:0|0:0,0:0:0:0:
328,108,213746,1,0,0:0:0:0:
204,56,214388,5,0,0:0:0:0:
120,88,214817,2,0,B|68:152|84:244,1,135
132,288,215888,2,0,B|280:324,2,135
320,160,218246,6,0,B|176:128,2,135
408,180,219960,1,0,0:0:0:0:
