osu file format v14

[General]
AudioFilename: Misato Aki - Glitter.mp3
AudioLeadIn: 0
PreviewTime: 50103
Countdown: 0
SampleSet: Soft
StackLeniency: 0.7
Mode: 0
LetterboxInBreaks: 0
WidescreenStoryboard: 0

[Editor]
DistanceSpacing: 1.1
BeatDivisor: 4
GridSize: 4
TimelineZoom: 2.5

[Metadata]
Title:Glitter
TitleUnicode:Glitter
Artist:Misato Aki
ArtistUnicode:美郷あき
Creator:Misure
Version:Normal
Source:月に寄りそう乙女の作法2
Tags:Garden imoutosan Narcissu Tsuki ni Yorisou Otome no Sahou 2 opening eroge hentai galgame visual novel Navel
BeatmapID:808968
BeatmapSetID:365826

[Difficulty]
HPDrainRate:3.5
CircleSize:3.5
OverallDifficulty:4.5
ApproachRate:5.5
SliderMultiplier:1
SliderTickRate:1

[Events]
//Background and Video events
Video,0,"Tsuki ni Yorisou Otome no Sahou 2 OP.flv"
0,0,"BG00.jpg",0,0
//Break Periods
//Storyboard Layer 0 (Background)
//Storyboard Layer 1 (Fail)
//Storyboard Layer 2 (Pass)
//Storyboard Layer 3 (Foreground)
//Storyboard Sound Samples

[TimingPoints]
2187,333.333333333333,4,2,1,70,1,0
7520,-100,4,2,1,75,0,0
18187,-100,4,2,2,65,0,0
28520,-100,4,2,1,60,0,0
28853,-100,4,2,1,70,0,0
38020,-100,4,2,2,70,0,0
39187,-100,4,2,1,70,0,0
49520,-100,4,2,1,75,0,0
50187,-100,4,2,1,65,0,0
50853,333.333333333333,4,2,1,80,1,1
61186,-100,4,2,1,65,0,0
61519,-100,4,2,1,80,0,1
72186,-100,4,2,1,75,0,0
82186,-100,4,2,2,80,0,0
82686,-100,4,2,1,70,0,0
82852,-100,4,2,1,60,0,0
83519,-100,4,2,1,50,0,0
84186,-100,4,2,1,40,0,0
84852,-100,4,2,1,30,0,0
85519,-100,4,2,1,20,0,0

[Colours]
Combo1 : 255,0,128
Combo2 : 128,128,255
Combo3 : 255,128,192
Combo4 : 0,128,255

[HitObjects]
452,56,2187,6,0,P|464:103|450:151,1,100,12|0,0:0|0:0,0:0:0:0:
448,260,2853,2,0,P|425:257|396:244,1,50,8|0,0:0|1:0,0:0:0:0:
344,152,3353,2,0,P|294:148|245:159,1,100,8|0,0:0|1:0,0:0:0:0:
208,200,3853,1,0,0:0:0:0:
248,304,4187,2,0,P|199:311|153:292,1,100,8|0,0:0|0:0,0:0:0:0:
44,320,4853,6,0,P|39:270|59:225,1,100,4|0,1:2|0:0,0:0:0:0:
152,168,5520,2,0,P|160:144|156:120,2,50,0|8|8,0:0|0:0|0:0,0:0:0:0:
96,176,6020,2,0,P|36:134|38:62,1,150,12|8,0:0|0:0,0:0:0:0:
136,16,6853,1,8,0:0:0:0:
240,52,7187,2,0,L|292:44,1,50,8|0,0:0|0:0,0:0:0:0:
336,72,7520,6,0,P|330:121|300:160,1,100,4|8,1:2|0:0,0:0:0:0:
200,201,8187,2,0,P|226:242|270:264,1,100,0|8,1:0|0:0,0:0:0:0:
328,268,8687,2,0,P|400:252|468:280,1,150,0|8,1:0|0:0,0:0:0:0:
384,356,9520,2,0,P|338:375|289:367,1,100,0|8,0:0|0:0,0:0:0:0:
224,280,10187,5,0,1:0:0:0:
268,180,10520,1,8,0:0:0:0:
208,88,10853,2,0,P|183:85|158:88,1,50,0|0,1:0|1:0,0:0:0:0:
93,175,11353,2,0,L|33:183,2,50,0|0|0,1:0|0:0|1:0,0:0:0:0:
137,207,11853,1,8,0:0:0:0:
157,259,12020,2,0,P|204:273|251:258,1,100,0|0,0:0|1:0,0:0:0:0:
285,215,12520,1,8,0:0:0:0:
227,119,12853,6,0,P|274:104|323:110,1,100,4|8,1:2|0:0,0:0:0:0:
380,205,13520,2,0,P|333:222|284:214,1,100,0|8,1:0|0:0,0:0:0:0:
230,203,14021,2,0,B|195:203|167:179|167:179|135:211|183:263,1,150,0|8,1:0|0:0,0:0:0:0:
140,356,14853,2,0,P|189:362|235:343,1,100,0|8,0:0|0:0,0:0:0:0:
300,252,15520,5,4,1:0:0:0:
392,308,15853,1,8,0:0:0:0:
472,232,16187,2,0,P|482:209|484:185,1,50,0|0,1:0|1:0,0:0:0:0:
468,132,16520,2,0,P|451:111|432:97,1,50,0|4,1:0|1:0,0:0:0:0:
380,192,17020,2,0,P|284:200|228:123,1,200,0|0,1:0|1:0,0:0:0:0:
224,68,17853,1,0,1:0:0:0:
116,40,18187,5,2,0:0:0:0:
56,132,18520,2,0,P|86:170|93:219,1,100,0|0,3:0|1:0,0:0:0:0:
48,320,19187,2,0,P|70:330|95:332,1,50,0|0,3:0|0:0,0:0:0:0:
152,328,19520,2,0,P|191:299|240:288,1,100,0|0,3:0|3:0,0:0:0:0:
332,348,20187,2,0,P|355:360|379:362,2,50,0|0|0,1:0|0:0|3:0,0:0:0:0:
384,252,20853,5,0,3:0:0:0:
328,155,21187,2,0,P|349:144|374:141,1,50,0|0,3:0|0:0,0:0:0:0:
476,188,21687,1,0,0:0:0:0:
464,80,22020,1,0,0:0:0:0:
356,60,22353,2,0,P|360:35|373:14,2,50,0|0|0,0:0|3:0|0:0,0:0:0:0:
340,112,22853,2,0,P|291:121|241:113,1,100,0|0,1:0|3:0,0:0:0:0:
180,20,23520,5,2,0:0:0:0:
76,48,23853,2,0,P|53:92|52:141,1,100,0|0,3:0|1:0,0:0:0:0:
160,122,24520,2,0,P|170:143|174:168,1,50,0|0,3:0|0:0,0:0:0:0:
164,224,24853,2,0,P|114:228|72:255,1,100,0|0,3:0|3:0,0:0:0:0:
44,360,25520,2,0,P|23:354|0:337,2,50,0|0|0,1:0|0:0|3:0,0:0:0:0:
152,332,26186,5,0,3:0:0:0:
259,351,26520,2,0,P|284:350|305:338,1,50,0|0,3:0|0:0,0:0:0:0:
248,244,27020,1,0,0:0:0:0:
144,200,27353,2,0,B|140:152|156:112|156:112|207:140|207:140|266:119|266:119|310:155|310:155|347:140|391:152,1,350,0|0,3:0|1:0,0:0:0:0:
428,256,28853,5,4,0:0:0:0:
500,172,29187,2,0,P|505:150|498:119,2,50,8|0|0,0:0|1:0|0:0,0:0:0:0:
391,152,29853,2,0,P|367:152|343:145,1,50,8|0,0:0|1:0,0:0:0:0:
300,108,30187,2,0,P|300:157|278:202,1,100,0|8,0:0|0:0,0:0:0:0:
184,260,30853,2,0,P|176:282|176:320,2,50,0|0|8,0:0|1:0|0:0,0:0:0:0:
284,304,31519,5,0,1:0:0:0:
356,224,31853,2,0,P|380:220|404:226,1,50,8|0,0:0|1:0,0:0:0:0:
456,324,32353,1,0,0:0:0:0:
508,228,32686,1,0,1:0:0:0:
460,128,33019,2,0,L|460:78,2,50,0|8|0,1:0|0:0|0:0,0:0:0:0:
416,164,33519,2,0,P|366:166|322:142,1,100,0|8,0:0|0:0,0:0:0:0:
308,32,34186,5,0,1:0:0:0:
216,92,34519,2,0,P|173:106|116:112,1,100,8|0,0:0|0:0,0:0:0:0:
12,84,35186,2,0,P|7:108|16:144,1,50,8|0,0:0|1:0,0:0:0:0:
40,180,35519,2,0,P|60:225|56:274,1,100,0|8,0:0|0:0,0:0:0:0:
155,320,36186,2,0,P|151:344|155:369,2,50,0|0|8,0:0|1:0|0:0,0:0:0:0:
252,264,36853,5,0,1:0:0:0:
344,328,37186,2,0,P|368:330|393:328,1,50,8|0,0:0|1:0,0:0:0:0:
472,248,37686,1,0,0:0:0:0:
396,168,38020,2,0,B|368:96|408:16|408:16|352:56|352:56|300:32|231:33,1,350,0|0,3:0|1:0,0:0:0:0:
136,88,39520,5,4,0:2:0:0:
24,76,39853,2,0,L|30:125,1,50,0|8,1:0|1:2,0:0:0:0:
104,208,40353,2,0,L|110:257,1,50,8|0,1:2|1:0,0:0:0:0:
79,363,40853,2,0,P|127:369|172:349,1,100,0|8,1:0|0:0,0:0:0:0:
216,248,41520,1,0,1:0:0:0:
164,152,41853,1,0,1:2:0:0:
260,96,42187,5,4,1:2:0:0:
312,192,42520,2,0,L|361:198,1,50,0|8,1:0|1:2,0:0:0:0:
420,104,43020,2,0,L|371:97,1,50,8|0,1:2|1:0,0:0:0:0:
280,36,43520,2,0,P|260:81|268:130,1,100,0|8,1:0|0:0,0:0:0:0:
324,224,44187,1,8,1:2:0:0:
432,212,44520,1,0,1:0:0:0:
480,312,44853,6,0,P|447:349|402:369,1,100,4|0,1:2|1:0,0:0:0:0:
316,300,45520,2,0,P|266:297|216:300,1,100,0|0,1:0|1:0,0:0:0:0:
127,368,46187,2,0,P|104:324|103:275,1,100,4|0,1:2|1:0,0:0:0:0:
184,200,46853,2,0,P|234:203|284:200,1,100,0|0,1:0|1:0,0:0:0:0:
380,148,47520,6,0,P|364:102|319:83,1,100,4|0,1:2|1:0,0:0:0:0:
271,112,48020,1,0,0:0:0:0:
168,80,48353,2,0,P|161:103|165:128,2,50,0|0|0,0:0|1:0|0:0,0:0:0:0:
152,28,48853,2,0,P|103:22|57:40,1,100,0|0,1:0|1:0,0:0:0:0:
68,148,49520,5,4,0:0:0:0:
32,252,49853,1,4,0:0:0:0:
96,340,50186,2,0,P|143:342|171:303,1,100
180,192,50853,6,0,P|227:207|262:242,1,100,4|8,0:0|0:0,0:0:0:0:
304,344,51520,2,0,P|348:347|400:316,1,100,0|8,1:0|0:0,0:0:0:0:
408,268,52020,1,0,1:0:0:0:
384,220,52186,2,0,P|387:170|406:124,1,100,0|8,0:0|0:0,0:0:0:0:
481,45,52853,6,0,P|441:17|392:14,1,100,0|8,0:0|0:0,0:0:0:0:
305,81,53519,1,0,1:0:0:0:
205,37,53853,1,8,0:0:0:0:
101,73,54186,2,0,P|76:68|54:57,2,50,0|0|8,1:0|0:0|0:0,0:0:0:0:
137,113,54686,2,0,P|143:138|118:226,1,100,0|0,1:0|0:0,0:0:0:0:
93,253,55186,1,8,0:0:0:0:
188,304,55519,6,0,P|238:298|286:312,1,100,0|8,0:0|0:0,0:0:0:0:
328,348,56019,1,0,1:0:0:0:
384,344,56186,2,0,P|414:305|426:258,1,100,0|8,1:0|0:0,0:0:0:0:
368,164,56853,1,0,1:0:0:0:
440,84,57186,5,8,0:0:0:0:
440,84,57352,2,0,P|398:57|348:55,1,100,0|0,1:0|1:0,0:0:0:0:
300,80,57852,1,8,0:0:0:0:
208,16,58186,1,0,0:0:0:0:
116,76,58519,1,8,0:0:0:0:
124,184,58853,6,0,P|101:195|76:195,2,50,4|0|8,1:2|0:0|0:0,0:0:0:0:
168,148,59353,2,0,P|217:155|259:180,1,100,8|0,1:2|1:0,0:0:0:0:
272,236,59853,1,12,1:2:0:0:
204,324,60186,2,0,P|195:344|198:371,2,50,0|0|8,1:0|1:0|1:2,0:0:0:0:
308,360,60852,1,8,0:0:0:0:
404,304,61186,1,8,0:0:0:0:
332,220,61519,6,0,L|232:233,1,100,4|8,0:0|0:0,0:0:0:0:
132,276,62186,2,0,P|121:227|135:180,1,100,0|8,1:0|0:0,0:0:0:0:
180,148,62686,2,0,L|82:127,1,100,0|0,1:0|1:0,0:0:0:0:
32,152,63186,1,8,0:0:0:0:
40,44,63519,6,0,P|88:32|134:49,1,100,0|8,0:0|0:0,0:0:0:0:
180,148,64186,1,0,1:0:0:0:
132,248,64519,1,8,0:0:0:0:
208,328,64852,2,0,P|256:323|293:290,1,100,0|8,0:0|0:0,0:0:0:0:
292,236,65353,2,0,L|387:266,1,100,0|0,1:0|1:0,0:0:0:0:
436,244,65852,1,8,0:0:0:0:
400,140,66186,6,0,P|379:126|352:124,1,50,0|0,1:0|1:0,0:0:0:0:
300,136,66519,2,0,P|285:158|280:188,1,50,8|0,1:2|0:0,0:0:0:0:
292,236,66852,6,0,P|241:318|145:328,1,200,4|8,1:2|0:0,0:3:0:0:
183,225,67852,2,0,P|159:215|134:216,1,50,0|8,0:0|0:0,0:0:0:0:
84,238,68185,2,0,P|34:231|22:222,2,50,0|0|0,1:0|0:0|0:0,0:0:0:0:
80,128,68852,1,0,1:0:0:0:
188,108,69185,1,0,0:0:0:0:
248,16,69519,5,4,1:2:0:0:
344,72,69853,2,0,L|321:116,1,50,8|0,1:2|0:0,0:0:0:0:
292,164,70186,2,0,L|306:211,1,50,8|0,1:2|0:0,0:0:0:0:
320,264,70519,2,0,L|297:308,1,50,0|0,1:0|1:0,0:0:0:0:
208,248,71019,2,0,L|160:262,2,50,0|0|0,1:0|1:0|1:0,0:0:0:0:
200,192,71519,2,0,P|165:157|116:148,1,100,0|0,1:0|1:0,0:0:0:0:
19,200,72186,5,4,1:2:0:0:
113,255,72519,1,0,0:0:0:0:
72,356,72853,2,0,P|120:365|168:348,1,100,0|8,1:0|0:0,0:0:0:0:
204,308,73353,2,0,P|275:288|347:307,1,150,0|8,1:0|0:0,0:0:0:0:
420,224,74186,2,0,P|464:224|512:196,1,100,0|8,0:0|0:0,0:0:0:0:
436,116,74852,5,0,1:0:0:0:
332,152,75186,1,8,0:0:0:0:
264,68,75519,2,0,L|214:68,1,50,0|0,1:0|1:0,0:0:0:0:
108,52,76019,2,0,P|111:27|125:6,2,50,0|0|0,1:0|0:0|1:0,0:0:0:0:
108,108,76519,1,8,0:0:0:0:
108,164,76686,2,0,P|112:212|80:272,1,100,0|0,0:0|1:0,0:0:0:0:
44,288,77186,1,8,0:0:0:0:
136,347,77519,6,0,P|174:316|192:270,1,100,4|8,1:2|0:0,0:0:0:0:
132,180,78186,2,0,P|178:163|227:169,1,100,0|8,1:0|0:0,0:0:0:0:
272,200,78686,2,0,P|318:254|381:224,1,150,0|8,1:0|0:0,0:0:0:0:
412,120,79519,2,0,P|456:140|482:182,1,100,0|8,0:0|0:0,0:0:0:0:
443,288,80186,6,0,P|401:312|352:307,1,100,4|8,1:0|0:0,0:0:0:0:
300,207,80853,2,0,P|275:212|253:223,1,50,0|0,1:0|1:0,0:0:0:0:
256,280,81186,2,0,P|253:304|241:327,1,50,8|4,1:2|1:0,0:0:0:0:
148,273,81686,2,0,L|99:260,2,50,0|8|0,1:0|1:2|1:0,0:0:0:0:
151,216,82186,2,0,P|142:194|148:170,1,50,0|0,3:0|3:0,0:0:0:0:
256,192,82686,5,4,1:0:0:0:
256,192,82852,12,0,85519,0:0:0:0:
