osu file format v14

[General]
AudioFilename: Misato Aki - Glitter.mp3
AudioLeadIn: 0
PreviewTime: 50103
Countdown: 0
SampleSet: Soft
StackLeniency: 0.7
Mode: 0
LetterboxInBreaks: 0
WidescreenStoryboard: 0

[Editor]
DistanceSpacing: 1.1
BeatDivisor: 2
GridSize: 4
TimelineZoom: 1.3

[Metadata]
Title:Glitter
TitleUnicode:Glitter
Artist:Misato Aki
ArtistUnicode:美郷あき
Creator:Misure
Version:Narcissu's Easy
Source:月に寄りそう乙女の作法2
Tags:Garden imoutosan Narcissu Tsuki ni Yorisou Otome no Sahou 2 opening eroge hentai galgame visual novel Navel
BeatmapID:819420
BeatmapSetID:365826

[Difficulty]
HPDrainRate:3
CircleSize:3
OverallDifficulty:3
ApproachRate:4
SliderMultiplier:0.8
SliderTickRate:1

[Events]
//Background and Video events
Video,0,"Tsuki ni Yorisou Otome no Sahou 2 OP.flv"
0,0,"BG02.jpg",0,0
//Break Periods
//Storyboard Layer 0 (Background)
//Storyboard Layer 1 (Fail)
//Storyboard Layer 2 (Pass)
//Storyboard Layer 3 (Foreground)
//Storyboard Sound Samples

[TimingPoints]
2187,333.333333333333,4,2,1,60,1,0
50853,333.333333333333,4,2,1,70,1,1
61186,-100,4,2,1,60,0,0
61519,-100,4,2,1,70,0,1
72186,-100,4,2,1,60,0,0
82852,-100,4,2,1,50,0,0
83519,-100,4,2,1,40,0,0
84186,-100,4,2,1,30,0,0
84852,-100,4,2,1,20,0,0
85519,-100,4,2,1,10,0,0

[Colours]
Combo1 : 255,0,128
Combo2 : 128,128,255
Combo3 : 255,128,192
Combo4 : 0,128,255

[HitObjects]
88,84,2187,6,0,P|56:160|72:256,1,160,2|0,0:0|0:0,0:0:0:0:
164,320,3353,2,0,L|296:316,1,120,2|0,0:0|0:0,0:0:0:0:
360,276,4187,1,2,0:0:0:0:
424,336,4520,1,2,0:0:0:0:
504,304,4853,6,0,P|520:232|488:128,1,160,2|2,0:0|0:0,0:0:0:0:
424,40,6020,2,0,B|372:68|372:68|216:56,1,200,2|0,0:0|0:0,0:0:0:0:
156,100,7187,1,0,0:0:0:0:
232,144,7520,6,0,P|240:188|224:252,1,80,4|8,0:0|0:0,0:0:0:0:
172,284,8187,1,0,1:0:0:0:
236,344,8520,1,8,0:0:0:0:
236,344,8687,2,0,L|376:336,1,120,0|8,1:0|0:0,0:0:0:0:
436,304,9520,2,0,P|448:268|448:220,1,80,0|8,1:0|0:0,0:0:0:0:
380,172,10187,6,0,P|356:100|372:8,1,160,0|0,1:0|1:0,0:0:0:0:
260,92,11353,2,0,L|108:100,1,120,0|8,1:0|0:0,0:0:0:0:
64,52,12187,1,0,1:0:0:0:
12,124,12520,1,8,0:0:0:0:
88,172,12853,6,0,P|88:220|68:268,1,80,0|8,1:0|0:0,0:0:0:0:
4,300,13520,1,0,1:0:0:0:
84,336,13853,1,8,0:0:0:0:
84,336,14020,2,0,L|224:328,1,120,0|8,1:0|0:0,0:0:0:0:
284,292,14853,2,0,L|380:296,1,80,0|8,1:0|0:0,0:0:0:0:
432,348,15520,6,0,P|408:288|440:176,1,160,4|0,1:2|1:0,0:0:0:0:
496,140,16520,1,8,0:0:0:0:
496,140,16687,2,0,L|488:36,1,80,0|4,1:0|3:0,0:0:0:0:
216,120,18187,6,0,P|132:112|64:52,2,160,2|0|2,0:0|3:0|0:0,0:0:0:0:
288,68,19853,1,0,0:0:0:0:
368,108,20187,2,0,L|372:208,1,80,0|0,3:0|0:0,0:0:0:0:
456,212,20853,6,0,L|468:24,2,160,2|0|2,0:0|3:0|0:0,0:0:0:0:
388,268,22520,2,0,P|384:312|396:356,2,80,0|0|0,0:0|3:0|0:0,0:0:0:0:
456,212,23520,6,0,L|284:224,1,160,2|0,0:0|3:0,0:0:0:0:
220,180,24520,1,0,0:0:0:0:
132,184,24853,2,0,P|92:256|136:340,1,160,2|0,0:0|3:0,0:0:0:0:
180,260,25853,1,0,0:0:0:0:
220,180,26187,6,0,L|224:88,1,80,2|0,0:0|0:0,0:0:0:0:
284,36,26853,2,0,P|328:32|368:48,1,80,0|0,3:0|0:0,0:0:0:0:
388,128,27520,2,2,B|424:156|424:156|424:192|424:192|464:264|440:364,1,240,2|8,0:0|0:0,0:0:0:0:
364,308,28853,5,2,0:0:0:0:
288,352,29187,1,8,0:0:0:0:
248,276,29520,2,0,P|208:264|156:272,1,80,2|8,0:0|0:0,0:0:0:0:
140,300,30020,2,0,P|84:328|0:296,1,120,0|8,1:0|0:0,0:0:0:0:
72,240,30853,2,0,L|64:148,1,80,2|8,0:0|0:0,0:0:0:0:
4,96,31520,5,2,0:0:0:0:
72,40,31853,1,8,0:0:0:0:
132,104,32187,2,0,P|172:108|240:88,1,80,2|8,0:0|0:0,0:0:0:0:
248,76,32687,2,0,L|240:224,1,120,0|8,1:0|0:0,0:0:0:0:
172,248,33520,2,0,P|168:288|184:336,1,80,2|8,0:0|0:0,0:0:0:0:
256,280,34187,5,2,0:0:0:0:
336,320,34520,1,8,0:0:0:0:
416,288,34853,2,0,L|424:176,1,80,2|8,0:0|0:0,0:0:0:0:
456,184,35353,2,0,P|460:120|428:56,1,120,2|8,0:0|0:0,0:0:0:0:
356,40,36187,1,2,0:0:0:0:
284,88,36520,1,8,0:0:0:0:
204,52,36853,6,0,L|64:48,1,120,2|8,0:0|0:0,0:0:0:0:
20,108,37687,1,8,0:0:0:0:
104,136,38020,2,0,P|120:196|96:272,1,120,8|8,1:2|0:0,0:0:0:0:
40,308,38853,2,0,L|-16:316,2,40,8|8|4,0:3|0:3|0:3,0:0:0:0:
107,251,39520,6,0,P|184:240|256:268,1,120,4|2,1:2|0:0,0:0:0:0:
280,320,40353,1,2,0:0:0:0:
280,320,40520,2,0,P|360:336|444:308,1,160,8|8,0:0|0:0,0:0:0:0:
484,240,41520,1,2,0:0:0:0:
420,180,41853,1,8,0:0:0:0:
484,120,42187,6,0,P|504:64|476:-4,1,120,4|2,1:2|0:0,0:0:0:0:
420,64,43020,1,2,0:0:0:0:
420,64,43187,2,0,P|336:64|248:52,1,160,8|8,0:0|0:0,0:0:0:0:
192,108,44187,2,0,L|188:172,2,40,8|8|4,0:3|0:3|0:3,0:0:0:0:
120,60,44853,6,0,P|80:48|28:60,1,80,2|0,0:0|0:0,0:0:0:0:
76,136,45520,2,0,P|45:164|30:215,1,80,8|0,0:0|0:0,0:0:0:0:
120,212,46187,2,0,B|144:252|144:252|148:380,1,160,2|8,0:0|0:0,0:0:0:0:
312,300,47520,6,0,L|440:308,2,120,2|2|2,0:0|0:0|0:0,0:0:0:0:
240,248,48853,2,0,P|232:204|244:152,1,80,8|0,0:0|0:0,0:0:0:0:
308,116,49520,1,4,0:2:0:0:
396,112,49853,1,4,0:2:0:0:
472,156,50187,2,0,P|480:200|472:236,1,80,2|0,0:0|0:0,0:0:0:0:
416,300,50853,6,0,L|232:308,1,160,4|2,1:2|0:0,0:0:0:0:
180,260,51853,1,8,0:0:0:0:
180,260,52019,2,0,P|116:252|44:284,1,120,0|8,1:0|0:0,0:0:0:0:
8,204,52853,2,0,L|0:104,1,80,2|8,0:0|0:0,0:0:0:0:
64,64,53519,5,2,0:0:0:0:
144,104,53853,1,10,0:0:0:0:
216,52,54186,1,2,0:0:0:0:
292,96,54519,1,8,0:0:0:0:
292,96,54686,2,0,P|364:92|424:48,1,120,0|8,1:0|0:0,0:0:0:0:
472,124,55519,2,0,P|484:164|476:212,1,80,2|8,0:0|0:0,0:0:0:0:
396,172,56186,6,0,B|376:216|376:216|388:344,1,160,2|2,1:2|0:0,0:0:0:0:
300,304,57186,1,8,0:0:0:0:
300,304,57352,2,0,L|152:296,1,120,0|8,1:0|0:0,0:0:0:0:
104,340,58186,1,2,0:0:0:0:
56,268,58519,1,8,0:0:0:0:
132,224,58852,6,0,B|140:144|140:144|112:84,2,120,2|2|2,0:0|0:0|0:0,0:0:0:0:
56,268,60186,1,2,0:0:0:0:
56,180,60519,1,8,0:0:0:0:
132,224,60852,2,2,P|172:228|224:212,1,80,10|10,0:0|0:0,0:0:0:0:
264,148,61519,6,0,P|344:132|436:156,1,160,2|2,1:2|0:0,0:0:0:0:
476,216,62519,1,8,0:0:0:0:
476,216,62686,2,0,L|488:364,1,120,0|8,1:0|0:0,0:0:0:0:
396,332,63519,2,0,L|372:232,1,80,2|8,0:0|0:0,0:0:0:0:
385,166,64186,5,2,0:0:0:0:
304,132,64519,1,10,0:0:0:0:
246,195,64853,1,2,0:0:0:0:
290,271,65186,1,8,0:0:0:0:
290,271,65352,2,0,B|248:284|248:284|140:272,1,120,0|8,1:0|0:0,0:0:0:0:
92,312,66186,2,0,L|32:316,2,40,4|8|8,0:3|0:3|0:3,0:0:0:0:
152,248,66852,6,0,P|156:160|116:72,1,160,4|8,0:1|0:0,0:0:0:0:
292,20,68186,2,0,P|288:108|328:196,1,160,4|8,0:0|0:0,0:0:0:0:
396,208,69186,1,2,0:0:0:0:
448,136,69519,6,0,L|452:72,2,40,8|8|8,0:0|0:0|0:0,0:0:0:0:
488,216,70186,2,0,L|500:320,1,80,8|4,0:3|0:3,0:0:0:0:
468,328,70686,2,0,B|324:304|324:304|240:312,1,200,4|8,0:3|0:0,0:0:0:0:
200,360,71852,1,8,0:0:0:0:
116,336,72186,6,0,P|96:304|92:244,1,80,4|8,1:2|0:0,0:0:0:0:
152,200,72853,1,0,1:0:0:0:
80,148,73186,1,8,0:0:0:0:
80,148,73353,2,0,L|72:8,1,120,0|8,1:0|0:0,0:0:0:0:
156,60,74186,2,0,P|200:60|252:40,1,80,0|8,1:0|0:0,0:0:0:0:
316,84,74853,6,0,P|396:72|480:96,1,160,0|0,1:0|1:0,0:0:0:0:
448,220,76019,2,0,L|296:212,1,120,0|8,1:0|0:0,0:0:0:0:
260,160,76853,1,0,1:0:0:0:
212,232,77186,1,8,0:0:0:0:
156,164,77519,6,0,P|112:156|64:176,1,80,0|8,1:0|0:0,0:0:0:0:
120,244,78186,1,0,1:0:0:0:
64,312,78519,1,8,0:0:0:0:
64,312,78686,2,0,P|120:332|196:288,1,120,0|8,1:0|0:0,0:0:0:0:
212,232,79519,2,0,L|308:236,1,80,0|8,1:0|0:0,0:0:0:0:
348,304,80186,6,0,P|320:248|336:144,1,160,4|8,1:2|0:0,0:0:0:0:
404,104,81186,1,8,0:0:0:0:
404,104,81352,2,0,P|352:68|284:76,1,120,4|8,1:0|0:0,0:0:0:0:
220,112,82186,2,0,L|164:104,1,40,4|4,0:0|0:0,0:0:0:0:
92,120,82686,5,2,1:2:0:0:
256,192,82852,12,0,85519,0:0:0:0:
