osu file format v14

[General]
AudioFilename: Misato Aki - Glitter.mp3
AudioLeadIn: 0
PreviewTime: 50103
Countdown: 0
SampleSet: Soft
StackLeniency: 0.7
Mode: 0
LetterboxInBreaks: 0
WidescreenStoryboard: 0

[Editor]
DistanceSpacing: 1.3
BeatDivisor: 4
GridSize: 4
TimelineZoom: 2.5

[Metadata]
Title:Glitter
TitleUnicode:Glitter
Artist:Misato Aki
ArtistUnicode:美郷あき
Creator:Misure
Version:Hard
Source:月に寄りそう乙女の作法2
Tags:Garden imoutosan Narcissu Tsuki ni Yorisou Otome no Sahou 2 opening eroge hentai galgame visual novel Navel
BeatmapID:808360
BeatmapSetID:365826

[Difficulty]
HPDrainRate:5
CircleSize:3.8
OverallDifficulty:6
ApproachRate:7.5
SliderMultiplier:1.4
SliderTickRate:1

[Events]
//Background and Video events
Video,0,"Tsuki ni Yorisou Otome no Sahou 2 OP.flv"
0,0,"BG00.jpg",0,0
//Break Periods
//Storyboard Layer 0 (Background)
//Storyboard Layer 1 (Fail)
//Storyboard Layer 2 (Pass)
//Storyboard Layer 3 (Foreground)
//Storyboard Sound Samples

[TimingPoints]
2187,333.333333333333,4,2,1,70,1,0
5520,-100,4,2,1,65,0,0
7187,-100,4,2,1,70,0,0
7520,-95.2380952380952,4,2,1,75,0,0
18187,-105.263157894737,4,2,2,65,0,0
27353,-142.857142857143,4,2,2,60,0,0
28353,-142.857142857143,4,2,1,70,0,0
28520,-100,4,2,1,75,0,0
28853,-100,4,2,1,70,0,0
49520,-100,4,2,1,75,0,0
50187,-100,4,2,1,65,0,0
50853,333.333333333333,4,2,1,80,1,1
50853,-90.9090909090909,4,2,1,80,0,1
60852,-90.9090909090909,4,2,1,70,0,1
61186,-90.9090909090909,4,2,1,65,0,0
61519,-90.9090909090909,4,2,1,80,0,1
71519,-90.9090909090909,4,2,1,65,0,1
71852,-90.9090909090909,4,2,1,70,0,1
72186,-95.2380952380952,4,2,1,75,0,0
82186,-100,4,2,2,80,0,0
82686,-100,4,2,1,70,0,0
82852,-100,4,2,1,60,0,0
83519,-100,4,2,1,50,0,0
84186,-100,4,2,1,40,0,0
84853,-100,4,2,1,30,0,0
85519,-100,4,2,1,20,0,0

[Colours]
Combo1 : 255,0,128
Combo2 : 128,128,255
Combo3 : 255,128,192
Combo4 : 0,128,255

[HitObjects]
320,100,2187,6,8,P|286:91|252:101,1,70,12|0,0:0|0:0,0:0:0:0:
133,178,2520,2,0,P|166:186|200:176,1,70
253,100,2853,1,8,0:0:0:0:
220,16,3020,1,0,1:0:0:0:
396,36,3353,6,0,P|416:101|391:164,1,140,8|0,0:0|1:0,0:0:0:0:
303,188,3853,1,0,0:0:0:0:
368,251,4020,1,0,1:0:0:0:
308,315,4187,2,0,P|368:285|430:313,1,140,8|0,0:0|1:0,0:0:0:0:
192,368,4853,6,0,P|196:299|159:241,1,140,4|0,1:2|0:0,0:0:0:0:
69,247,5353,1,0,0:0:0:0:
105,163,5520,2,0,P|71:152|37:160,2,70,0|8|8,0:0|0:0|0:0,0:0:0:0:
196,156,6020,6,0,P|218:90|196:25,1,140,12|0,0:0|0:0,0:0:0:0:
256,96,6520,2,0,L|324:110,1,70,8|0,0:0|0:0,0:0:0:0:
364,192,6853,1,8,0:0:0:0:
460,192,7020,2,0,L|479:162,5,35,0|8|8|8|8|8,0:0|0:0|0:0|0:0|0:0|0:0,0:0:0:0:
491,227,7520,6,0,P|424:249|398:316,1,146.999995513916,4|8,0:0|0:0,0:0:0:0:
328,372,8020,1,0,0:0:0:0:
280,292,8187,2,0,P|250:276|208:276,1,73.4999977569581,0|0,1:0|1:0,0:0:0:0:
144,340,8520,1,8,0:0:0:0:
60,304,8687,2,0,P|35:236|67:172,1,146.999995513916,0|0,1:0|1:0,0:0:0:0:
124,244,9187,1,8,0:0:0:0:
176,44,9520,6,0,P|193:75|193:112,1,73.4999977569581,0|0,0:0|1:0,0:0:0:0:
220,200,9853,2,0,P|252:216|288:217,1,73.4999977569581,8|0,0:0|0:0,0:0:0:0:
380,196,10187,2,0,B|418:161|418:161|427:66,1,146.999995513916,0|8,1:0|0:0,0:0:0:0:
336,52,10687,1,0,0:0:0:0:
279,123,10853,2,0,B|203:103,2,73.4999977569581,0|0|8,1:0|1:0|0:0,0:0:0:0:
316,208,11353,1,0,0:0:0:0:
316,208,11437,1,0,0:0:0:0:
316,208,11520,6,0,L|295:278,1,73.4999977569581,0|0,1:0|1:0,0:0:0:0:
213,324,11853,1,8,0:0:0:0:
147,259,12020,2,0,P|111:256|77:269,1,73.4999977569581
16,200,12353,1,0,1:0:0:0:
84,136,12520,1,8,0:0:0:0:
48,52,12687,1,0,1:0:0:0:
140,60,12853,6,0,B|212:44|212:44|284:53,1,146.999995513916,4|8,1:2|0:0,0:0:0:0:
368,96,13353,1,0,0:0:0:0:
456,68,13520,2,0,P|460:104|447:138,1,73.4999977569581,0|0,1:0|1:0,0:0:0:0:
368,184,13853,1,8,0:0:0:0:
284,144,14020,2,0,P|218:125|174:179,1,146.999995513916,0|0,1:0|1:0,0:0:0:0:
180,272,14520,1,8,0:0:0:0:
432,296,14853,6,0,B|405:278|381:288|381:288|340:264|340:264|300:287,1,146.999995513916,0|8,0:0|0:0,0:0:0:0:
324,376,15353,1,0,0:0:0:0:
236,352,15520,6,0,B|176:324|128:328|128:328|144:297,1,146.999995513916,4|8,1:0|0:0,0:0:0:0:
216,236,16020,1,0,1:0:0:0:
216,236,16103,1,0,1:0:0:0:
216,236,16187,1,0,1:0:0:0:
128,208,16353,2,0,B|88:207|88:207|57:220,1,73.4999977569581,0|8,1:0|0:0,0:0:0:0:
93,109,16687,1,4,1:0:0:0:
93,109,17020,6,0,P|148:64|219:76,1,146.999995513916,0|0,1:0|1:0,0:0:0:0:
295,132,17520,1,0,1:0:0:0:
380,88,17687,2,0,P|389:52|380:16,1,73.4999977569581,0|0,1:0|1:0,0:0:0:0:
172,152,18187,5,2,0:0:0:0:
172,152,18520,2,0,P|193:176|225:184,1,66.4999982242585,0|0,3:0|0:0,0:0:0:0:
295,132,18853,2,0,P|356:108|420:136,1,132.999996448517,0|0,1:0|3:0,0:0:0:0:
356,196,19353,1,0,0:0:0:0:
380,280,19520,6,0,B|397:288|397:288|426:279|454:287,2,66.4999982242585,0|0|0,3:0|0:0|3:0,0:0:0:0:
312,336,20020,2,0,P|280:340|248:325,1,66.4999982242585,0|0,0:0|1:0,0:0:0:0:
164,304,20353,2,0,P|138:324|126:355,2,66.4999982242585,0|0|0,0:0|3:0|0:0,0:0:0:0:
224,240,20853,6,0,B|220:225|192:214|192:214|184:173|150:135,1,132.999996448517,0|0,3:0|3:0,0:0:0:0:
68,100,21353,2,0,P|86:71|114:54,1,66.4999982242585,0|0,0:0|1:0,0:0:0:0:
200,60,21687,1,0,0:0:0:0:
200,60,21853,2,0,L|266:52,1,66.4999982242585,0|0,3:0|0:0,0:0:0:0:
432,162,22353,6,0,P|427:195|412:224,2,66.4999982242585,0|0|0,0:0|3:0|0:0,0:0:0:0:
348,166,22853,2,0,P|322:144|290:136,1,66.4999982242585,0|0,1:0|0:0,0:0:0:0:
282,224,23187,2,0,P|265:252|261:285,1,66.4999982242585,0|0,3:0|0:0,0:0:0:0:
346,282,23520,5,2,0:0:0:0:
346,282,23853,2,0,L|411:286,1,66.4999982242585,0|0,3:0|0:0,0:0:0:0:
282,224,24187,2,0,P|304:284|282:345,1,132.999996448517,0|0,1:0|3:0,0:0:0:0:
220,284,24687,1,0,0:0:0:0:
144,244,24853,6,0,L|78:252,2,66.4999982242585,0|0|0,3:0|0:0|0:0,0:0:0:0:
200,180,25353,1,0,0:0:0:0:
156,104,25520,1,0,1:0:0:0:
204,32,25687,2,0,P|235:22|268:22,2,66.4999982242585,0|0|0,0:0|3:0|0:0,0:0:0:0:
252,103,26187,6,0,B|284:107|284:107|315:93|315:93|343:98|380:87,1,132.999996448517,0|0,3:0|3:0,0:0:0:0:
440,24,26687,2,0,P|460:52|463:93,1,66.4999982242585,0|0,0:0|1:0,0:0:0:0:
428,164,27020,1,0,0:0:0:0:
428,164,27187,1,0,0:0:0:0:
448,252,27353,6,0,B|416:252|384:260|384:260|345:242|345:242|275:292|237:281|244:232|244:232|252:224|288:234,1,293.999991027832,0|0,3:0|1:0,0:0:0:0:
288,234,28520,1,8,1:2:0:0:
92,264,28853,6,0,P|105:296|101:330,1,70,4|0,0:0|0:0,0:0:0:0:
17,216,29187,2,0,P|4:182|10:146,1,70,8|0,0:0|1:0,0:0:0:0:
97,176,29520,2,0,P|165:164|231:186,1,140,0|8,0:0|0:0,0:0:0:0:
192,268,30020,1,0,1:0:0:0:
248,340,30187,6,0,P|281:348|315:341,2,70,0|0|8,0:0|1:0|0:0,0:0:0:0:
280,256,30687,2,0,P|272:221|279:187,1,70
360,149,31020,2,0,P|369:182|361:216,2,70,0|8|0,1:0|0:0|0:0,0:0:0:0:
278,188,31520,6,0,P|211:196|157:153,1,140,0|8,1:0|0:0,0:0:0:0:
236,105,32020,2,0,P|231:70|246:39,1,70,0|0,1:0|0:0,0:0:0:0:
326,84,32353,2,0,L|392:106,1,70,0|8,0:0|0:0,0:0:0:0:
472,60,32686,1,0,1:0:0:0:
472,60,33020,5,0,1:0:0:0:
488,148,33187,2,0,L|480:220,1,70,8|0,0:0|0:0,0:0:0:0:
440,300,33520,2,0,L|372:316,1,70,0|0,0:0|1:0,0:0:0:0:
292,272,33853,2,0,L|224:288,1,70,8|0,0:0|0:0,0:0:0:0:
136,240,34187,5,0,1:0:0:0:
136,240,34520,2,0,B|94:239|72:215,1,70,8|0,0:0|1:0,0:0:0:0:
216,189,34853,2,0,B|240:226|228:260,1,70
133,153,35187,2,0,B|114:116|126:85,1,70,8|0,0:0|1:0,0:0:0:0:
216,108,35520,6,0,B|237:101|237:101|280:122,2,70,0|0|8,0:0|1:0|0:0,0:0:0:0:
316,204,36020,2,0,P|345:186|364:156,1,70
352,68,36353,2,0,B|364:50|364:50|403:54|412:46,2,70,0|8|0,1:0|0:0|0:0,0:0:0:0:
272,24,36853,6,0,B|260:52|260:52|206:36|152:44,1,140,0|8,1:0|0:0,0:0:0:0:
76,92,37353,1,0,1:0:0:0:
76,92,37687,2,0,P|67:125|71:160,1,70,0|8,0:0|0:0,0:0:0:0:
159,130,38020,6,0,P|194:130|228:139,2,70,0|0|0,1:0|0:0|1:0,0:0:0:0:
264,224,38520,2,0,P|262:256|236:300,1,70,8|0,0:0|1:0,0:0:0:0:
176,232,38853,1,0,1:0:0:0:
96,192,39020,1,0,1:0:0:0:
56,272,39187,1,0,1:0:0:0:
136,312,39353,1,0,1:0:0:0:
176,232,39520,6,0,B|226:228|226:228|244:256|244:256|268:252|268:252|288:264|298:260,1,140,4|0,0:2|1:0,0:0:0:0:
380,212,40020,1,8,1:2:0:0:
284,56,40353,1,8,1:2:0:0:
367,20,40520,2,0,P|402:22|436:30,1,70,0|0,1:0|0:0,0:0:0:0:
364,112,40853,5,0,1:0:0:0:
364,112,41020,1,0,1:0:0:0:
296,172,41187,2,0,P|288:205|294:239,1,70,8|0,0:0|0:0,0:0:0:0:
328,332,41520,2,0,P|258:329|188:335,1,140,0|0,1:0|1:2,0:0:0:0:
90,158,42187,6,0,B|75:165|66:182|66:182|102:210|102:210|106:240|119:266,1,140,4|0,1:2|1:0,0:0:0:0:
104,356,42687,1,8,1:2:0:0:
248,248,43020,1,8,1:2:0:0:
256,156,43187,2,0,P|221:158|184:176,1,70,0|0,1:0|0:0,0:0:0:0:
332,208,43520,6,0,P|347:176|346:142,1,70,0|0,1:0|1:0,0:0:0:0:
340,52,43853,2,0,B|360:36|360:36|387:48|395:61,2,70,8|0|8,1:2|0:0|1:2,0:0:0:0:
252,68,44353,1,0,1:0:0:0:
172,28,44520,1,0,1:0:0:0:
28,152,44853,6,0,P|84:184|161:192,1,140,4|0,1:2|0:0,0:0:0:0:
244,160,45353,1,0,1:0:0:0:
279,243,45520,2,0,P|218:276|149:284,1,140,0|0,1:0|0:0,0:0:0:0:
60,272,46020,1,8,1:2:0:0:
131,218,46187,6,0,P|145:242|148:286,1,70,4|0,1:2|0:0,0:0:0:0:
92,356,46520,1,0,1:0:0:0:
332,356,46853,2,0,L|349:289,1,70,0|0,1:0|0:0,0:0:0:0:
424,236,47187,2,0,L|441:169,1,70,0|0,1:0|0:0,0:0:0:0:
476,84,47520,6,0,P|442:76|408:85,1,70,4|0,1:2|0:0,0:0:0:0:
285,152,47853,2,0,P|318:164|352:155,1,70,0|0,1:0|0:0,0:0:0:0:
228,24,48353,1,0,0:0:0:0:
152,76,48520,1,0,1:0:0:0:
188,160,48686,1,0,0:0:0:0:
100,184,48853,2,0,L|32:165,2,70,0|0|0,1:0|0:0|1:0,0:0:0:0:
100,184,49353,1,0,0:0:0:0:
164,252,49520,6,0,P|215:253|259:225,1,105,4|0,0:0|0:0,0:0:0:0:
292,192,49853,2,0,P|284:144|290:86,1,105,4|0,0:0|0:0,0:0:0:0:
329,60,50186,1,0,0:0:0:0:
329,60,50520,1,0,0:0:0:0:
329,60,50853,6,0,P|345:95|331:130,1,77.0000023498536,4|0,0:0|0:0,0:0:0:0:
240,100,51186,1,8,0:0:0:0:
146,80,51353,1,0,0:0:0:0:
76,148,51520,6,0,P|70:186|81:232,1,77.0000023498536,0|0,1:0|1:0,0:0:0:0:
168,190,51853,1,8,0:0:0:0:
176,284,52019,2,0,P|104:311|27:304,1,154.000004699707,0|0,1:0|1:0,0:0:0:0:
259,235,52520,2,0,P|297:236|329:258,1,77.0000023498536,8|0,0:0|0:0,0:0:0:0:
403,320,52853,6,0,P|336:353|265:329,1,154.000004699707,0|8,0:0|0:0,0:0:0:0:
328,257,53353,1,0,0:0:0:0:
303,168,53519,2,0,L|379:164,2,77.0000023498536,0|0|8,1:0|0:0|0:0,0:0:0:0:
224,112,54019,1,0,0:0:0:0:
157,180,54186,6,0,P|117:172|81:152,1,77.0000023498536,0|0,1:0|1:0,0:0:0:0:
53,64,54519,1,8,0:0:0:0:
149,56,54686,2,0,B|189:84|189:84|225:48|283:44,1,154.000004699707,0|0,1:0|1:0,0:0:0:0:
361,100,55186,2,0,B|397:108|397:108|425:79,1,77.0000023498536,8|0,0:0|0:0,0:0:0:0:
484,172,55519,6,0,B|447:187|447:187|480:243|464:296,1,154.000004699707,0|8,0:0|0:0,0:0:0:0:
388,356,56019,1,0,1:0:0:0:
367,263,56186,2,0,P|291:260|224:296,1,154.000004699707,0|8,1:0|0:0,0:0:0:0:
28,268,56853,6,0,B|86:252|134:256|134:256|160:217,1,154.000004699707,0|8,1:0|0:0,0:0:0:0:
220,140,57353,2,0,B|197:118|163:118|163:118|151:84|151:84|141:108|113:127,1,154.000004699707,0|0,1:0|1:0,0:0:0:0:
60,48,57853,1,8,0:0:0:0:
252,36,58186,2,0,B|310:17|384:16|384:16|374:33|374:33|376:52,1,154.000004699707,0|8,0:0|0:0,0:0:0:0:
460,76,58686,1,8,0:0:0:0:
380,132,58853,6,0,B|362:166|385:205,2,77.0000023498536,4|0|8,1:2|0:0|0:0,0:0:0:0:
472,164,59353,1,12,1:2:0:0:
404,340,59686,1,0,1:0:0:0:
404,340,59853,2,0,B|328:320,1,77.0000023498536,12|0,1:2|0:0,0:0:0:0:
240,352,60186,2,0,L|185:297,1,77.0000023498536,0|0,1:0|1:0,0:0:0:0:
96,332,60519,2,0,L|75:257,1,77.0000023498536,8|0,1:2|1:0,0:0:0:0:
16,180,60852,6,0,P|49:162|87:161,1,77.0000023498536,8|0,0:0|1:0,0:0:0:0:
159,224,61186,2,0,P|180:192|184:154,1,77.0000023498536,8|0,0:0|1:0,0:0:0:0:
124,80,61519,6,0,P|192:46|269:46,1,154.000004699707,4|8,0:0|0:0,0:0:0:0:
280,140,62019,1,0,0:0:0:0:
367,183,62186,2,0,P|406:182|439:164,1,77.0000023498536,0|0,1:0|1:0,0:0:0:0:
456,68,62519,1,8,0:0:0:0:
365,33,62686,2,0,P|298:67|280:140,1,154.000004699707,0|0,1:0|1:0,0:0:0:0:
284,236,63186,1,8,0:0:0:0:
100,188,63519,6,0,P|125:159|135:122,1,77.0000023498536,0|0,0:0|1:0,0:0:0:0:
103,32,63853,2,0,P|141:23|177:35,1,77.0000023498536,8|0,0:0|0:0,0:0:0:0:
232,116,64186,2,0,P|280:172|355:176,1,154.000004699707,0|8,1:0|0:0,0:0:0:0:
324,84,64686,1,0,0:0:0:0:
419,99,64853,6,0,P|455:166|436:238,1,154.000004699707,0|8,1:0|0:0,0:0:0:0:
344,268,65353,1,0,1:0:0:0:
296,352,65519,2,0,B|222:328,2,77.0000023498536,0|0|8,0:0|1:0|0:0,0:0:0:0:
408,320,66019,1,0,1:0:0:0:
344,224,66186,6,0,L|307:235,3,38.5000011749268,0|0|0|0,1:0|1:0|1:0|1:0,0:0:0:0:
364,180,66519,2,0,B|436:207,1,77.0000023498536,8|0,1:2|0:0,0:0:0:0:
308,104,66853,6,0,P|233:93|160:115,1,154.000004699707,4|0,1:2|0:0,0:0:0:0:
92,188,67353,2,0,P|68:158|58:121,1,77.0000023498536,0|8,1:0|0:0,0:0:0:0:
264,204,67853,2,0,P|262:242|242:275,1,77.0000023498536,0|8,0:0|0:0,0:0:0:0:
148,300,68186,6,0,B|112:299|112:299|64:332,2,77.0000023498536,0|8|0,1:0|0:0|0:0,0:0:0:0:
220,368,68686,1,0,1:0:0:0:
288,300,68853,2,0,B|280:224,2,77.0000023498536,0|0|0,1:0|0:0|0:0,0:0:0:0:
368,356,69353,1,0,1:0:0:0:
432,288,69519,6,0,P|465:268|492:241,1,77.0000023498536,4|0,1:2|0:0,0:0:0:0:
492,241,69769,1,0,0:0:0:0:
492,241,69853,1,8,0:0:0:0:
432,168,70019,1,8,0:0:0:0:
342,136,70186,2,0,P|336:174|347:210,1,77.0000023498536,8|0,1:2|1:0,0:0:0:0:
432,168,70519,1,0,1:0:0:0:
472,75,70686,6,0,P|397:92|320:85,1,154.000004699707,8|0,1:2|1:0,0:0:0:0:
232,48,71186,1,8,1:2:0:0:
183,131,71353,1,0,1:0:0:0:
92,100,71519,6,0,L|55:85,3,38.5000011749268,0|0|8|8,1:0|1:0|1:2|1:2,0:0:0:0:
76,140,71853,2,0,L|40:152,3,38.5000011749268,8|8|8|8,1:2|1:2|0:0|0:0,0:0:0:0:
100,176,72186,6,0,B|140:188|167:179|167:179|197:194|197:194|228:162,1,146.999995513916,4|8,1:2|0:0,0:0:0:0:
280,84,72686,1,0,0:0:0:0:
348,20,72853,2,0,P|369:53|372:87,1,73.4999977569581,0|0,1:0|1:0,0:0:0:0:
320,164,73186,1,8,0:0:0:0:
275,245,73352,2,0,P|345:254|400:208,1,146.999995513916,0|0,1:0|1:0,0:0:0:0:
320,164,73852,1,8,0:0:0:0:
104,156,74186,6,0,B|138:175|138:175|148:282,1,146.999995513916,0|8,1:0|0:0,0:0:0:0:
181,371,74686,1,0,0:0:0:0:
257,315,74853,2,0,P|325:322|399:275,1,146.999995513916,0|8,1:0|0:0,0:0:0:0:
349,203,75353,1,0,0:0:0:0:
413,139,75519,2,0,P|434:166|440:203,1,73.4999977569581,0|0,1:0|1:0,0:0:0:0:
349,203,75852,1,8,0:0:0:0:
281,143,76019,1,0,0:0:0:0:
281,143,76102,1,0,0:0:0:0:
281,143,76186,6,0,L|205:131,1,73.4999977569581,0|0,1:0|1:0,0:0:0:0:
357,91,76519,1,8,0:0:0:0:
357,91,76686,2,0,L|429:102,1,73.4999977569581
273,51,77019,2,0,B|259:33|257:19|257:19|219:23,2,73.4999977569581,0|8|0,1:0|0:0|1:0,0:0:0:0:
281,143,77519,6,0,P|230:192|158:188,1,146.999995513916,4|8,1:2|0:0,0:0:0:0:
160,96,78019,1,0,0:0:0:0:
76,136,78186,2,0,P|63:170|66:206,1,73.4999977569581,0|0,1:0|1:0,0:0:0:0:
158,188,78519,1,8,0:0:0:0:
202,274,78686,2,0,B|178:308|166:342|166:342|138:308|135:281,1,146.999995513916,0|0,1:0|1:0,0:0:0:0:
135,281,79186,1,8,0:0:0:0:
296,156,79519,6,0,B|312:165|340:174|340:174|304:194|304:194|314:229|298:249,1,146.999995513916,0|8,0:0|0:0,0:0:0:0:
260,336,80019,1,0,0:0:0:0:
352,324,80186,6,0,B|371:313|384:288|384:288|423:328|473:315,1,146.999995513916,4|8,1:0|0:0,0:0:0:0:
452,224,80686,1,0,1:0:0:0:
452,224,80769,1,0,1:0:0:0:
452,224,80853,2,0,P|423:200|387:195,1,73.4999977569581,0|0,1:0|1:0,0:0:0:0:
297,249,81186,1,8,1:2:0:0:
208,216,81353,1,4,1:0:0:0:
208,216,81686,6,0,L|128:232,2,73.4999977569581,0|8|0,1:0|1:2|1:0,0:0:0:0:
297,180,82186,2,0,P|303:213|296:248,1,70,0|0,3:2|3:2,0:0:0:0:
104,64,82686,5,4,1:0:0:0:
256,192,82853,12,0,85519,0:0:0:0:
