osu file format v14

[General]
AudioFilename: Misato Aki - Glitter.mp3
AudioLeadIn: 0
PreviewTime: 50103
Countdown: 0
SampleSet: Soft
StackLeniency: 0.7
Mode: 0
LetterboxInBreaks: 0
WidescreenStoryboard: 0

[Editor]
DistanceSpacing: 1.2
BeatDivisor: 4
GridSize: 4
TimelineZoom: 1.3

[Metadata]
Title:Glitter
TitleUnicode:Glitter
Artist:Misato Aki
ArtistUnicode:美郷あき
Creator:Misure
Version:Garden's Insane
Source:月に寄りそう乙女の作法2
Tags:Garden imoutosan Narcissu Tsuki ni Yorisou Otome no Sahou 2 opening eroge hentai galgame visual novel Navel
BeatmapID:808359
BeatmapSetID:365826

[Difficulty]
HPDrainRate:6
CircleSize:4
OverallDifficulty:7
ApproachRate:8.8
SliderMultiplier:1.7
SliderTickRate:1

[Events]
//Background and Video events
Video,0,"Tsuki ni Yorisou Otome no Sahou 2 OP.flv"
0,0,"BG01.jpg",0,0
//Break Periods
//Storyboard Layer 0 (Background)
//Storyboard Layer 1 (Fail)
//Storyboard Layer 2 (Pass)
//Storyboard Layer 3 (Foreground)
//Storyboard Sound Samples

[TimingPoints]
2187,333.333333333333,4,2,1,50,1,0
2187,-125,4,2,1,50,0,0
3020,-111.111111111111,4,2,1,50,0,0
5687,-111.111111111111,4,2,1,50,0,0
5853,-111.111111111111,4,2,1,50,0,0
6020,-111.111111111111,4,2,1,50,0,0
6520,-100,4,2,1,60,0,0
6853,-100,4,2,1,60,0,0
7187,-100,4,2,1,60,0,0
7353,-100,4,2,1,60,0,0
7520,-100,4,2,1,60,0,0
18187,-100,4,2,7,30,0,0
18520,-142.857142857143,4,2,2,50,0,0
23520,-142.857142857143,4,2,7,30,0,0
23853,-142.857142857143,4,2,2,50,0,0
27353,-200,4,2,2,50,0,0
27853,-200,4,2,2,50,0,0
28187,-200,4,2,1,50,0,0
28853,-111.111111111111,4,2,1,60,0,0
39520,-111.111111111111,4,2,1,60,0,0
44853,-125,4,2,1,60,0,0
47520,-111.111111111111,6,2,1,60,0,0
49520,-133.333333333333,4,2,1,60,0,0
49853,-111.111111111111,4,2,1,60,0,0
50187,-100,4,2,1,60,0,0
50520,-100,4,2,1,60,0,0
50853,333.333333333333,4,2,1,70,1,1
60852,-100,4,2,1,70,0,1
61186,-100,4,2,1,70,0,1
61352,-100,4,2,1,70,0,0
61519,-100,4,2,1,70,0,1
66852,-125,4,2,1,70,0,1
70686,-125,4,2,1,70,0,1
71019,-125,4,2,1,70,0,1
71352,-125,4,2,1,70,0,1
71519,-125,4,2,1,70,0,1
71686,-125,4,2,1,70,0,1
71852,-125,4,2,1,70,0,1
72019,-125,4,2,1,70,0,1
72186,-100,4,2,1,60,0,0
82186,-100,4,2,2,55,0,0
82686,-100,4,2,1,50,0,0
82852,-100,4,2,1,45,0,0
84186,-100,4,2,1,35,0,0
85519,-100,4,2,1,25,0,0

[Colours]
Combo1 : 255,0,128
Combo2 : 128,128,255
Combo3 : 255,128,192
Combo4 : 0,128,255

[HitObjects]
140,32,2187,6,0,P|116:68|116:108,1,68,12|0,0:0|0:0,0:0:0:0:
220,204,2520,2,0,P|228:152|204:120,1,68,0|0,0:0|0:0,0:0:0:0:
144,276,2853,1,8,0:0:0:0:
216,340,3020,2,0,P|256:360|304:360,1,76.4999976654053,0|0,1:0|0:0,0:0:0:0:
473,257,3353,6,0,P|451:328|384:360,1,152.999995330811,8|0,0:0|0:0,0:0:0:0:
276,264,3853,1,0,0:0:0:0:
376,264,4020,1,0,1:0:0:0:
320,168,4187,2,0,P|328:128|348:96,1,76.4999976654053,8|0,0:0|0:0,0:0:0:0:
376,264,4520,2,0,P|342:294|292:300,1,76.4999976654053
216,272,4853,5,4,1:2:0:0:
212,100,5020,1,0,0:0:0:0:
156,188,5187,1,0,0:0:0:0:
268,188,5353,1,0,0:0:0:0:
100,100,5520,1,0,0:0:0:0:
216,272,5687,1,8,0:0:0:0:
320,100,5853,1,8,0:0:0:0:
126,206,6020,6,0,P|102:166|102:90,1,114.749996498108,12|0,0:0|0:0,0:0:0:0:
99,99,6353,1,0,0:0:0:0:
200,264,6520,2,0,P|152:296|100:292,1,85,8|0,0:0|0:0,0:0:0:0:
126,206,6853,1,8,0:0:0:0:
244,164,7020,1,0,0:0:0:0:
268,180,7103,1,0,0:0:0:0:
288,204,7187,1,0,0:0:0:0:
300,232,7270,1,0,0:0:0:0:
308,260,7353,1,0,0:0:0:0:
304,288,7437,1,0,0:0:0:0:
296,316,7520,6,0,P|363:294|405:310,1,85,4|0,1:2|0:0,0:0:0:0:
472,328,7853,1,8,0:0:0:0:
472,328,8020,1,0,0:0:0:0:
388,172,8187,2,0,P|332:148|288:152,1,85
484,132,8520,1,0,1:0:0:0:
484,132,8686,1,0,1:0:0:0:
408,264,8853,5,0,0:0:0:0:
312,244,9020,1,0,0:0:0:0:
224,284,9187,1,0,0:0:0:0:
208,200,9353,1,0,0:0:0:0:
192,112,9520,2,0,P|232:60|304:44,1,127.5
316,68,9853,2,0,P|343:118|374:133,1,85,8|0,0:0|0:0,0:0:0:0:
488,156,10187,5,0,1:0:0:0:
424,44,10353,1,0,0:0:0:0:
488,156,10520,2,0,P|468:208|440:232,1,85,8|0,0:0|0:0,0:0:0:0:
370,135,10853,1,0,1:0:0:0:
264,152,11020,1,0,1:0:0:0:
268,48,11187,2,0,P|220:56|168:104,1,85,8|0,0:0|1:0,0:0:0:0:
168,104,11437,1,0,0:0:0:0:
168,104,11520,6,0,L|84:100,1,85,0|0,0:0|1:0,0:0:0:0:
232,216,11853,1,8,0:0:0:0:
232,216,12020,2,0,B|184:200|96:248|44:196,1,170,0|0,0:0|1:0,0:0:0:0:
116,108,12520,1,8,0:0:0:0:
228,100,12687,1,0,1:0:0:0:
304,192,12853,6,0,P|304:240|280:276,1,85,4|0,1:2|0:0,0:0:0:0:
160,340,13187,2,0,P|160:292|184:256,1,85,8|0,0:0|0:0,0:0:0:0:
216,124,13520,1,0,1:0:0:0:
304,192,13687,1,0,1:0:0:0:
416,80,13853,1,8,0:0:0:0:
312,68,14020,2,0,P|332:152|436:176,1,170,4|0,1:0|1:0,0:0:0:0:
312,68,14520,6,0,P|256:68|216:76,1,85,8|0,0:0|0:0,0:0:0:0:
140,156,14853,1,0,0:0:0:0:
227,73,15020,1,0,0:0:0:0:
228,240,15187,1,8,0:0:0:0:
312,160,15353,2,0,L|348:132,1,42.5,0|0,0:0|0:0,0:0:0:0:
444,96,15520,6,0,P|452:160|428:196,1,85,4|0,1:0|0:0,0:0:0:0:
372,248,15853,1,8,0:0:0:0:
472,304,16020,1,0,1:0:0:0:
448,332,16103,1,0,1:0:0:0:
416,352,16187,1,0,1:0:0:0:
316,340,16353,1,0,1:0:0:0:
220,372,16520,1,8,0:0:0:0:
124,360,16687,1,0,1:0:0:0:
124,360,17020,5,0,1:0:0:0:
88,232,17687,5,0,1:0:0:0:
124,360,17853,1,0,1:0:0:0:
88,232,18187,5,2,0:0:0:0:
88,232,18520,2,0,P|72:276|48:308,1,59.4999981842042,0|0,3:0|0:0,0:0:0:0:
44,156,18853,2,0,P|64:100|116:64,1,118.999996368408,0|0,1:0|3:0,0:0:0:0:
168,176,19353,2,0,B|192:228|168:280|168:280|192:272,1,118.999996368408,0|0,0:0|3:0,0:0:0:0:
304,312,19853,1,0,3:0:0:0:
304,312,20020,6,0,P|268:360|196:364,1,118.999996368408
304,312,20520,2,0,L|384:296,1,59.4999981842042,0|0,3:0|0:0,0:0:0:0:
460,244,20853,2,0,P|476:308|444:376,1,118.999996368408,0|0,3:0|3:0,0:0:0:0:
460,244,21353,2,0,P|440:180|456:124,1,118.999996368408,0|0,0:0|0:0,0:0:0:0:
360,124,21853,2,0,P|324:144|288:148,1,59.4999981842042,0|0,3:0|0:0,0:0:0:0:
306,147,22353,5,0,0:0:0:0:
240,116,22520,1,0,3:0:0:0:
163,117,22687,1,0,0:0:0:0:
44,56,22853,1,0,1:0:0:0:
96,159,23020,1,0,0:0:0:0:
163,117,23187,1,0,3:0:0:0:
240,116,23353,1,0,0:0:0:0:
318,27,23520,5,2,0:0:0:0:
318,27,23853,2,0,P|362:35|402:27,1,59.4999981842042,0|0,3:0|0:0,0:0:0:0:
238,67,24187,2,0,P|234:127|200:200,1,118.999996368408,0|0,1:0|3:0,0:0:0:0:
150,67,24687,2,0,P|94:87|24:76,2,118.999996368408,0|0|0,0:0|3:0|0:0,0:0:0:0:
35,80,25520,6,0,L|0:155,1,59.4999981842042,0|0,1:0|0:0,0:0:0:0:
92,176,25853,2,0,L|84:248,1,59.4999981842042,0|0,3:0|0:0,0:0:0:0:
184,232,26187,2,0,P|200:296|240:344,1,118.999996368408,0|0,3:0|3:0,0:0:0:0:
372,344,26687,2,0,P|356:280|316:232,1,118.999996368408
416,192,27187,1,0,3:0:0:0:
424,200,27353,6,0,B|459:224|492:228|492:228|520:160|460:92,1,212.5,2|0,3:2|0:0,0:0:0:0:
363,35,28353,5,0,1:0:0:0:
424,200,28520,1,0,0:0:0:0:
204,221,28853,5,4,0:0:0:0:
204,221,29187,2,0,P|146:253|118:252,1,76.4999976654053,8|0,0:0|1:0,0:0:0:0:
287,266,29520,2,0,P|337:242|381:239,1,76.4999976654053,0|0,0:0|0:0,0:0:0:0:
465,264,29853,1,8,0:0:0:0:
385,146,30020,2,0,B|349:100|381:43|381:43|334:77,1,152.999995330811,0|0,1:0|1:0,0:0:0:0:
263,170,30520,1,8,0:0:0:0:
467,98,30687,2,0,P|471:193|402:244,1,152.999995330811,0|0,0:0|1:0,0:0:0:0:
317,262,31187,2,0,P|276:249|226:250,1,76.4999976654053,8|0,0:0|0:0,0:0:0:0:
136,232,31520,6,0,B|92:240|68:268|68:268|96:300|144:304,1,152.999995330811
243,281,32020,2,0,P|277:267|339:263,1,76.4999976654053,0|0,1:0|0:0,0:0:0:0:
476,296,32353,2,0,P|434:310|388:316,1,76.4999976654053,0|8,0:0|0:0,0:0:0:0:
316,261,32687,1,0,1:0:0:0:
410,136,32853,1,0,0:0:0:0:
260,128,33020,5,0,1:0:0:0:
396,62,33187,2,0,P|412:110|398:162,1,76.4999976654053,8|0,0:0|0:0,0:0:0:0:
297,7,33520,1,0,0:0:0:0:
260,128,33687,1,0,1:0:0:0:
176,36,33853,1,8,0:0:0:0:
260,128,34020,1,0,0:0:0:0:
420,12,34187,5,0,1:0:0:0:
458,222,34520,2,0,P|493:269|529:279,1,76.4999976654053,8|0,0:0|1:0,0:0:0:0:
359,240,34853,1,0,0:0:0:0:
304,152,35020,1,0,0:0:0:0:
174,290,35187,1,8,0:0:0:0:
264,309,35353,2,0,P|251:231|174:197,1,152.999995330811,0|0,1:0|1:0,0:0:0:0:
88,325,35853,1,8,0:0:0:0:
92,193,36020,2,0,B|113:150|144:139|144:139|180:159|193:204,1,152.999995330811,0|0,0:0|1:0,0:0:0:0:
264,309,36520,2,0,P|300:280|316:240,1,76.4999976654053,8|0,0:0|0:0,0:0:0:0:
447,111,36853,6,0,P|455:173|435:264,1,152.999995330811,0|8,1:0|0:0,0:0:0:0:
352,324,37353,1,0,1:0:0:0:
448,364,37520,1,0,0:0:0:0:
436,260,37687,2,0,P|394:225|345:221,1,76.4999976654053,0|8,0:0|0:0,0:0:0:0:
236,211,38020,1,0,1:0:0:0:
187,114,38187,6,0,P|166:45|176:20,1,76.4999976654053,0|0,0:0|1:0,0:0:0:0:
286,157,38520,2,0,P|236:209|210:213,1,76.4999976654053,8|0,0:0|1:0,0:0:0:0:
271,57,38853,2,0,P|341:73|357:94,1,76.4999976654053,0|0,1:0|1:0,0:0:0:0:
427,206,39187,1,0,1:0:0:0:
441,183,39270,1,0,0:0:0:0:
447,157,39353,1,0,1:0:0:0:
450,130,39437,1,0,0:0:0:0:
443,104,39520,6,0,P|448:26|522:8,1,152.999995330811,4|0,0:2|1:0,0:0:0:0:
443,104,40020,2,0,P|372:78|280:88,1,152.999995330811,8|8,1:2|1:2,0:0:0:0:
188,188,40520,2,0,P|156:148|156:112,1,76.4999976654053,0|0,1:0|0:0,0:0:0:0:
276,168,40853,1,0,1:0:0:0:
188,188,41020,1,0,1:0:0:0:
124,256,41187,2,0,L|100:340,1,76.4999976654053,8|0,0:0|0:0,0:0:0:0:
212,272,41520,1,0,1:0:0:0:
188,188,41687,1,0,0:0:0:0:
216,100,41853,2,0,L|288:48,1,76.4999976654053,0|0,1:2|0:0,0:0:0:0:
124,56,42187,6,0,B|60:104|79:178|79:178|104:160,1,152.999995330811,4|0,1:2|1:0,0:0:0:0:
216,100,42687,2,0,B|248:80|248:80|320:104|384:48,1,152.999995330811,8|8,1:2|1:2,0:0:0:0:
424,136,43187,2,0,B|376:184|304:184|304:184|336:208,1,152.999995330811,0|0,1:0|1:0,0:0:0:0:
440,248,43687,1,0,1:0:0:0:
440,248,43853,2,0,P|468:288|472:324,1,76.4999976654053,8|0,1:2|0:0,0:0:0:0:
308,304,44187,1,8,1:2:0:0:
380,360,44353,1,0,1:0:0:0:
308,304,44520,2,0,P|244:308|212:320,1,76.4999976654053,0|0,1:0|0:0,0:0:0:0:
128,332,44853,6,0,P|76:296|76:220,1,136,4|0,1:2|0:0,0:0:0:0:
168,252,45353,1,0,1:0:0:0:
168,252,45520,2,0,P|238:236|298:184,1,136,0|0,1:0|1:0,0:0:0:0:
276,48,46020,1,8,1:2:0:0:
276,48,46187,6,0,P|300:104|316:116,1,68,0|0,1:0|0:0,0:0:0:0:
380,152,46520,1,0,1:0:0:0:
468,152,46687,1,0,0:0:0:0:
508,348,46853,2,0,P|468:328|452:308,1,68,0|0,1:0|0:0,0:0:0:0:
424,228,47187,1,0,1:0:0:0:
468,152,47353,1,0,0:0:0:0:
296,100,47520,6,0,L|288:188,1,76.4999976654053,4|0,1:2|0:0,0:0:0:0:
220,232,47853,1,0,1:0:0:0:
289,175,48020,2,0,P|359:149|427:178,1,152.999995330811
356,116,48520,2,0,P|352:80|356:40,1,76.4999976654053,0|0,1:0|0:0,0:0:0:0:
452,206,48853,2,0,P|460:240|454:281,1,76.4999976654053,0|0,1:0|0:0,0:0:0:0:
355,247,49187,1,0,1:0:0:0:
452,84,49353,1,0,0:0:0:0:
340,132,49520,6,0,P|293:142|246:137,1,95.6250036478044,4|0,0:0|0:0,0:0:0:0:
232,172,49853,6,0,P|224:220|164:232,1,114.749996498108,4|0,0:0|0:0,0:0:0:0:
135,222,50187,6,0,B|104:211|76:227|76:227|105:141|91:121,1,170
113,93,50853,6,0,P|125:145|117:189,1,85,4|0,0:0|0:0,0:0:0:0:
48,332,51186,2,0,P|36:280|44:236,1,85,8|0,0:0|0:0,0:0:0:0:
121,175,51519,2,0,B|168:184|244:144|272:184,1,127.5,0|0,1:0|0:0,0:0:0:0:
280,176,51853,1,8,0:0:0:0:
364,40,52019,1,0,1:0:0:0:
492,136,52186,2,0,L|464:48,1,85,0|0,0:0|1:0,0:0:0:0:
404,204,52519,2,0,L|429:284,1,85,8|0,0:0|0:0,0:0:0:0:
344,352,52853,5,0,0:0:0:0:
172,284,53019,1,0,0:0:0:0:
316,160,53186,1,8,0:0:0:0:
268,244,53353,1,0,0:0:0:0:
192,184,53519,2,0,P|176:132|184:52,1,127.5,0|0,1:0|0:0,0:0:0:0:
208,80,53853,2,0,P|136:80|108:60,1,85,8|0,0:0|0:0,0:0:0:0:
24,48,54186,6,0,L|12:232,1,170,0|8,1:0|0:0,0:0:0:0:
176,280,54686,2,0,B|201:245|176:199|176:199|116:200|97:254,1,170,0|0,1:0|1:0,0:0:0:0:
207,361,55186,2,0,P|247:372|288:360,1,85,8|0,0:0|0:0,0:0:0:0:
364,268,55519,6,0,P|400:316|400:360,1,85,0|0,0:0|1:0,0:0:0:0:
248,256,55852,2,0,P|256:216|284:184,1,85,8|0,0:0|1:0,0:0:0:0:
396,180,56186,2,0,B|468:152|508:156|508:156|464:148|432:112,1,170,0|8,1:0|0:0,0:0:0:0:
384,8,56686,1,0,0:0:0:0:
352,96,56852,6,0,B|304:88|284:24|284:24|232:40|184:24,1,170,0|8,1:0|0:0,0:0:0:0:
136,76,57352,2,0,P|142:117|134:159,1,85,0|0,1:0|0:0,0:0:0:0:
52,204,57686,1,0,1:0:0:0:
48,296,57852,2,0,P|164:284|220:292,1,170,8|0,0:0|0:0,0:0:0:0:
300,360,58352,1,0,0:0:0:0:
344,260,58519,2,0,P|332:212|300:180,1,85,8|8,0:0|0:0,0:0:0:0:
192,152,58852,5,4,1:2:0:0:
240,264,59019,1,0,0:0:0:0:
376,80,59186,1,8,0:0:0:0:
428,200,59352,1,12,1:2:0:0:
428,200,59686,5,0,1:0:0:0:
240,264,59852,2,0,P|224:204|236:160,1,85,12|0,1:2|0:0,0:0:0:0:
348,300,60186,1,0,1:0:0:0:
168,352,60352,1,0,1:0:0:0:
145,172,60519,2,0,P|189:167|249:203,1,85,8|0,1:2|0:0,0:0:0:0:
88,268,60852,6,0,P|32:220|32:168,1,127.5,12|0,0:0|0:0,0:0:0:0:
48,168,61186,2,0,P|36:264|16:308,1,127.5,8|0,0:0|0:0,0:0:0:0:
8,308,61519,6,0,P|48:340|100:344,1,85,4|0,0:0|0:0,0:0:0:0:
176,312,61852,1,8,0:0:0:0:
268,348,62019,1,0,0:0:0:0:
356,304,62186,2,0,P|380:248|372:176,1,127.5,0|0,1:0|0:0,0:0:0:0:
364,192,62519,2,0,P|424:184|448:160,1,85,8|0,0:0|1:0,0:0:0:0:
368,76,62852,5,0,1:0:0:0:
272,136,63019,1,0,1:0:0:0:
216,40,63186,1,8,0:0:0:0:
144,124,63352,1,0,1:0:0:0:
56,44,63519,2,0,P|20:116|40:176,1,127.5,0|0,0:0|0:0,0:0:0:0:
32,188,63852,2,0,P|84:208|108:252,1,85,8|0,0:0|0:0,0:0:0:0:
24,384,64186,6,0,P|4:344|16:288,1,85,0|0,1:0|0:0,0:0:0:0:
108,328,64519,1,8,0:0:0:0:
196,384,64686,1,0,0:0:0:0:
284,328,64852,2,0,P|300:248|276:144,1,170,0|8,0:0|0:0,0:0:0:0:
364,92,65352,6,0,P|404:80|460:92,1,85,0|0,1:0|0:0,0:0:0:0:
416,256,65685,1,0,1:0:0:0:
416,256,65852,2,0,P|404:216|415:162,1,85,8|0,0:0|1:0,0:0:0:0:
508,296,66186,1,0,1:0:0:0:
424,348,66352,1,0,1:0:0:0:
336,316,66519,2,0,P|280:308|240:320,1,85,8|0,1:2|0:0,0:0:0:0:
164,344,66852,6,0,P|104:292|120:216,1,136,4|0,1:2|0:0,0:0:0:0:
252,220,67352,2,0,L|196:260,1,68,0|8,1:0|0:0,0:0:0:0:
24,84,67852,1,0,0:0:0:0:
100,140,68019,1,8,0:0:0:0:
100,140,68186,6,0,P|140:160|172:160,1,68,0|8,1:0|0:0,0:0:0:0:
248,140,68519,1,0,0:0:0:0:
316,84,68686,1,0,1:0:0:0:
365,161,68852,2,0,P|367:199|356:232,1,68,0|0,1:0|0:0,0:0:0:0:
292,288,69186,1,0,0:0:0:0:
204,300,69352,1,0,1:0:0:0:
132,248,69519,6,0,P|128:224|136:168,1,68,4|0,1:2|0:0,0:0:0:0:
132,180,69769,1,0,0:0:0:0:
132,180,69852,1,8,0:0:0:0:
232,40,70019,1,8,0:0:0:0:
232,216,70186,1,8,1:2:0:0:
120,84,70352,1,0,1:0:0:0:
300,128,70519,1,0,1:0:0:0:
300,128,70686,1,4,1:0:0:0:
300,128,71019,5,8,1:2:0:0:
332,224,71186,2,0,P|368:260|400:264,1,68,8|0,1:2|1:0,0:0:0:0:
484,216,71519,2,0,L|492:176,3,34,0|0|8|8,1:0|1:0|1:2|1:2,1:0:0:0:
512,144,71852,2,0,L|508:108,3,34,8|8|8|8,1:2|1:2|0:0|0:0,0:0:0:0:
488,80,72186,6,0,P|472:32|440:8,1,85,4|0,1:2|0:0,0:0:0:0:
372,108,72519,2,0,L|368:192,1,85
260,264,72852,1,0,1:0:0:0:
208,80,73019,1,0,1:0:0:0:
284,156,73186,1,8,0:0:0:0:
184,180,73352,2,0,P|116:140|112:44,1,170,0|0,1:0|1:0,0:0:0:0:
16,144,73852,6,0,P|12:196|-4:244,1,85,8|0,0:0|0:0,0:0:0:0:
32,320,74186,1,0,0:0:0:0:
108,240,74352,1,0,0:0:0:0:
116,368,74519,2,0,P|168:340|196:336,1,85,8|0,0:0|0:0,0:0:0:0:
240,248,74852,6,0,P|224:188|180:160,1,85,0|0,1:0|0:0,0:0:0:0:
324,300,75186,2,0,P|376:292|408:256,1,85,8|0,0:0|0:0,0:0:0:0:
444,144,75519,1,0,1:0:0:0:
328,196,75686,1,0,1:0:0:0:
280,12,75852,1,8,0:0:0:0:
228,128,76019,1,0,1:0:0:0:
228,128,76102,1,0,0:0:0:0:
228,128,76186,6,0,P|184:112|168:68,2,85,0|0|8,0:0|1:0|0:0,0:0:0:0:
328,104,76686,2,0,P|321:185|248:232,1,170,0|0,0:0|1:0,0:0:0:0:
328,104,77186,2,0,P|368:92|416:100,1,85,8|0,0:0|1:0,0:0:0:0:
512,236,77519,6,0,L|493:147,1,85,4|0,1:2|0:0,0:0:0:0:
436,300,77852,2,0,L|453:383,1,85,8|0,0:0|0:0,0:0:0:0:
340,272,78186,1,0,1:0:0:0:
512,236,78352,1,0,0:0:0:0:
436,300,78519,1,8,0:0:0:0:
340,272,78686,2,0,P|284:240|172:248,1,170,4|0,0:0|1:0,0:0:0:0:
96,300,79186,1,8,0:0:0:0:
96,300,79352,1,0,0:0:0:0:
56,132,79519,6,0,L|44:220,1,85,0|0,0:0|0:0,0:0:0:0:
160,52,79852,2,0,L|168:136,1,85,8|0,0:0|0:0,0:0:0:0:
181,244,80186,6,0,P|248:184|340:176,1,170,4|8,1:0|0:0,0:0:0:0:
456,224,80686,1,0,1:0:0:0:
444,252,80769,1,0,1:0:0:0:
424,276,80852,1,0,1:0:0:0:
392,88,81019,1,0,1:0:0:0:
324,173,81186,1,8,1:2:0:0:
228,16,81352,1,0,1:0:0:0:
228,16,81686,5,0,1:0:0:0:
300,88,81852,2,0,P|348:100|392:96,1,85,8|0,1:2|1:0,0:0:0:0:
484,60,82186,5,0,3:2:0:0:
484,60,82352,1,0,3:2:0:0:
256,192,82686,5,4,1:0:0:0:
256,192,82852,12,0,85519,0:0:0:0:
