osu file format v14

[General]
AudioFilename: audio.mp3
AudioLeadIn: 0
PreviewTime: 64436
Countdown: 0
SampleSet: Soft
StackLeniency: 0.7
Mode: 0
LetterboxInBreaks: 0
WidescreenStoryboard: 0

[Editor]
Bookmarks: 20697,65067
DistanceSpacing: 0.2
BeatDivisor: 4
GridSize: 4
TimelineZoom: 1.7

[Metadata]
Title:DESIRE
TitleUnicode:DESIRE
Artist:Misato Aki
ArtistUnicode:美郷あき
Creator:Asuka_-
Version:Insane
Source:月に寄りそう乙女の作法
Tags:eroge tsuki nin yorisou otome no sahou Affirmation Neoskylove
BeatmapID:1637628
BeatmapSetID:779909

[Difficulty]
HPDrainRate:6.2
CircleSize:4
OverallDifficulty:8
ApproachRate:9.2
SliderMultiplier:3
SliderTickRate:1

[Events]
//Background and Video events
0,0,"Konachan.com - 149756 game_cg navel_(company) sakurakouji_luna suzuhira_hiro tsuki_ni_yorisou_otome_no_sahou.jpg",0,0
//Break Periods
//Storyboard Layer 0 (Background)
//Storyboard Layer 1 (Fail)
//Storyboard Layer 2 (Pass)
//Storyboard Layer 3 (Foreground)
//Storyboard Sound Samples

[TimingPoints]
2546,504.201680672269,4,2,1,70,1,0
20445,-111.111111111111,4,2,1,70,0,0
20697,-100,4,2,1,70,0,0
30781,-142.857142857143,4,2,1,60,0,0
46915,-125,4,2,1,70,0,0
65067,-100,4,2,1,80,0,1
78176,-83.3333333333333,4,2,1,80,0,1
79184,-100,4,2,1,80,0,1
94310,-71.4285714285714,4,2,1,80,0,1
95319,-83.3333333333333,4,2,1,80,0,1
95823,-100,4,2,1,80,0,1
99352,-100,4,2,1,60,0,0
117503,-100,4,2,1,10,0,0

[Colours]
Combo1 : 121,0,121
Combo2 : 255,255,255
Combo3 : 119,255,255
Combo4 : 169,83,255

[HitObjects]
116,297,19940,5,8,0:0:0:0:
207,338,20067,2,0,L|199:380,2,37.5,8|8|8,0:0|0:0|0:0,0:0:0:0:
312,300,20319,1,8,0:0:0:0:
397,352,20445,2,0,L|411:280,1,67.4999979400635,8|0,0:0|0:0,0:0:0:0:
491,111,20697,6,0,P|444:91|357:146,1,150,6|0,0:0|0:0,0:0:0:0:
124,125,21201,2,0,L|204:133,1,75,8|0,0:0|0:0,0:0:0:0:
100,221,21453,1,2,0:0:0:0:
81,31,21579,6,0,P|23:95|57:196,1,150,2|8,3:2|0:0,0:0:0:0:
100,221,21957,2,0,L|85:306,1,75,2|0,0:0|0:0,0:0:0:0:
198,132,22209,2,0,L|219:28,1,75,8|0,0:0|0:0,0:0:0:0:
260,259,22461,2,0,L|246:344,1,75,2|0,0:0|0:0,0:0:0:0:
449,123,22714,6,0,P|363:111|316:169,2,150,2|2|8,3:2|0:0|0:0,0:0:0:0:
91,198,23470,1,2,0:0:0:0:
42,131,23596,1,2,0:0:0:0:
90,58,23722,6,0,L|180:47,1,75,2|8,3:2|0:0,0:0:0:0:
276,2,23974,2,0,L|261:92,1,75,2|0,0:0|0:0,0:0:0:0:
228,240,24226,2,0,P|288:200|359:218,1,150,8|0,0:0|0:0,0:0:0:0:
90,58,24730,6,0,L|65:234,1,150,4|0,0:1|0:0,0:0:0:0:
173,161,25109,1,2,0:0:0:0:
228,240,25235,2,0,P|193:255|141:253,1,75,8|0,0:0|0:0,0:0:0:0:
344,171,25487,1,2,0:0:0:0:
318,278,25613,1,2,0:0:0:0:
440,318,25739,6,0,L|426:245,1,75,2|8,3:2|0:0,0:0:0:0:
360,97,25991,2,0,L|337:201,1,75,2|0,0:0|0:0,0:0:0:0:
495,20,26243,2,0,L|341:5,1,150,8|0,0:0|0:0,0:0:0:0:
130,245,26747,6,0,P|75:188|115:104,1,150,2|0,3:2|0:0,0:0:0:0:
173,69,27125,1,2,0:0:0:0:
242,178,27251,2,0,L|156:162,1,75,8|0,0:0|0:0,0:0:0:0:
368,245,27503,1,2,0:0:0:0:
276,272,27630,1,2,0:0:0:0:
405,339,27756,6,0,L|485:352,1,75,2|8,3:2|0:0,0:0:0:0:
276,272,28008,2,0,L|190:256,1,75,2|0,0:0|0:0,0:0:0:0:
436,169,28260,2,0,P|433:128|409:75,1,75,8|0,0:0|0:0,0:0:0:0:
300,25,28512,1,8,0:0:0:0:
214,54,28638,1,8,0:0:0:0:
127,21,28764,6,0,L|99:191,1,150,12|0,0:0|0:0,0:0:0:0:
134,249,29142,1,8,0:0:0:0:
278,104,29520,6,0,L|256:282,1,150,8|0,0:0|0:0,0:0:0:0:
301,322,29898,1,8,0:0:0:0:
301,322,30024,1,0,3:0:0:0:
452,157,30277,5,8,0:0:0:0:
461,250,30403,1,8,0:0:0:0:
452,157,30529,2,0,L|310:147,1,75,10|0,0:0|0:0,0:0:0:0:
320,221,30781,6,0,P|287:161|310:99,1,104.999996795654,6|0,3:2|0:0,0:0:0:0:
207,160,31159,2,0,P|212:107|266:43,1,104.999996795654,2|0,0:0|0:0,0:0:0:0:
139,80,31537,1,2,0:0:0:0:
32,290,31789,1,0,3:0:0:0:
247,264,32041,1,0,0:0:0:0:
54,175,32293,1,8,3:2:0:0:
127,138,32419,1,0,3:0:0:0:
207,160,32546,2,0,L|285:146,1,52.4999983978272,0|0,3:0|0:0,0:0:0:0:
419,107,32798,6,0,P|367:79|305:109,1,104.999996795654,2|0,3:2|0:0,0:0:0:0:
258,150,33176,1,2,0:0:0:0:
294,230,33302,2,0,P|337:256|388:247,1,104.999996795654,8|0,0:0|0:0,0:0:0:0:
119,128,33806,1,0,3:0:0:0:
153,303,34058,1,2,0:0:0:0:
41,88,34310,1,8,0:0:0:0:
41,88,34436,2,0,P|77:51|159:67,1,104.999996795654,2|0,0:0|0:0,0:0:0:0:
199,103,34814,6,0,L|177:241,1,104.999996795654,2|0,3:2|0:0,0:0:0:0:
287,88,35193,2,0,L|267:224,1,104.999996795654,2|0,0:0|0:0,0:0:0:0:
369,71,35571,1,2,0:0:0:0:
435,298,35823,1,0,3:0:0:0:
271,191,36075,1,2,0:0:0:0:
501,121,36327,1,8,3:2:0:0:
419,152,36453,1,0,3:0:0:0:
333,134,36579,2,0,L|320:57,1,52.4999983978272,0|0,3:0|0:0,0:0:0:0:
271,191,36831,6,0,P|321:221|384:200,1,104.999996795654,2|0,3:2|0:0,0:0:0:0:
333,134,37209,1,2,0:0:0:0:
249,104,37335,2,0,L|138:121,1,104.999996795654,8|0,0:0|0:0,0:0:0:0:
159,273,37840,1,0,3:0:0:0:
333,134,38092,1,2,0:0:0:0:
114,348,38344,1,8,0:0:0:0:
114,348,38470,2,0,P|80:310|84:247,1,104.999996795654,2|0,0:0|0:0,0:0:0:0:
128,188,38848,6,0,L|266:209,1,104.999996795654,2|0,3:2|0:0,0:0:0:0:
233,120,39226,2,0,L|346:138,1,104.999996795654,2|0,0:0|0:0,0:0:0:0:
359,58,39604,1,2,0:0:0:0:
453,232,39856,1,0,3:0:0:0:
286,315,40109,1,2,0:0:0:0:
233,120,40361,1,8,3:2:0:0:
306,90,40487,1,0,3:0:0:0:
380,122,40613,2,0,L|432:115,1,52.4999983978272,0|0,3:0|0:0,0:0:0:0:
504,147,40865,6,0,P|502:77|442:40,1,104.999996795654,2|0,3:2|0:0,0:0:0:0:
397,31,41243,1,2,0:0:0:0:
318,68,41369,2,0,P|308:42|311:16,1,52.4999983978272,8|0,0:0|0:0,0:0:0:0:
301,150,41621,1,2,0:0:0:0:
380,122,41747,1,2,0:0:0:0:
301,150,41873,6,0,L|288:220,1,52.4999983978272,2|0,3:2|0:0,0:0:0:0:
338,273,42125,1,2,0:0:0:0:
126,345,42377,1,8,0:0:0:0:
126,345,42503,2,0,P|172:318|249:335,1,104.999996795654,2|0,0:0|0:0,0:0:0:0:
291,372,42882,6,0,P|308:324|276:263,1,104.999996795654,2|0,3:2|0:0,0:0:0:0:
361,231,43260,2,0,P|318:199|245:209,1,104.999996795654,2|0,0:0|0:0,0:0:0:0:
321,117,43638,1,2,0:0:0:0:
171,232,43890,1,0,3:0:0:0:
15,140,44142,1,2,0:0:0:0:
162,18,44394,1,8,3:2:0:0:
199,86,44520,1,0,3:0:0:0:
163,160,44646,2,0,L|106:149,1,52.4999983978272,0|0,3:0|0:0,0:0:0:0:
196,234,44898,6,0,P|239:194|234:130,1,104.999996795654,2|0,3:2|0:0,0:0:0:0:
199,86,45277,1,2,0:0:0:0:
248,22,45403,2,0,L|365:11,1,104.999996795654,8|0,0:0|0:0,0:0:0:0:
492,126,45907,1,0,3:0:0:0:
343,217,46159,1,2,0:0:0:0:
195,149,46411,1,8,0:0:0:0:
126,189,46537,1,8,0:0:0:0:
51,166,46663,2,0,L|46:86,1,52.4999983978272,8|0,0:0|0:0,0:0:0:0:
190,155,46915,6,0,L|203:255,1,60,6|0,0:0|0:0,0:0:0:0:
275,140,47167,1,2,0:0:0:0:
223,76,47293,1,2,0:0:0:0:
157,32,47419,2,0,P|194:2|285:23,1,120,8|0,0:0|0:0,0:0:0:0:
165,301,47924,6,0,L|76:287,1,60,2|0,0:0|0:0,0:0:0:0:
255,303,48176,1,2,0:0:0:0:
211,234,48302,1,2,0:0:0:0:
151,175,48428,2,0,P|199:147|271:177,1,120,8|0,0:0|0:0,0:0:0:0:
333,211,48806,1,2,0:0:0:0:
423,163,48932,6,0,L|413:227,1,60,2|0,3:2|0:0,0:0:0:0:
370,90,49184,1,2,0:0:0:0:
472,73,49310,1,0,0:0:0:0:
370,90,49436,2,0,L|387:16,1,60,8|0,0:0|0:0,0:0:0:0:
291,138,49688,1,2,0:0:0:0:
211,84,49814,1,2,0:0:0:0:
119,121,49940,6,0,L|109:190,1,60,2|0,3:2|0:0,0:0:0:0:
34,74,50193,2,0,L|21:152,1,60,2|0,0:0|0:0,0:0:0:0:
211,84,50445,2,0,L|195:219,1,120,8|0,0:0|0:0,0:0:0:0:
500,298,50949,6,0,P|440:255|362:283,1,120,2|0,3:2|0:0,0:0:0:0:
322,301,51327,1,2,0:0:0:0:
322,301,51453,2,0,L|297:169,1,120,8|0,0:0|0:0,0:0:0:0:
491,80,51957,6,0,P|439:38|361:71,1,120,2|0,3:2|0:0,0:0:0:0:
321,91,52335,1,2,0:0:0:0:
321,91,52461,2,0,L|250:81,1,60,8|0,0:0|0:0,0:0:0:0:
161,58,52714,1,2,0:0:0:0:
197,137,52840,1,2,0:0:0:0:
102,128,52966,6,0,L|84:264,1,120,2|0,3:2|0:0,0:0:0:0:
137,319,53344,1,2,0:0:0:0:
137,319,53470,2,0,P|170:322|208:292,1,60,8|0,0:0|0:0,0:0:0:0:
263,257,53722,1,2,3:2:0:0:
181,219,53848,1,8,0:0:0:0:
263,257,53974,6,0,L|288:348,1,60,2|8,3:2|0:0,0:0:0:0:
355,156,54226,2,0,L|344:218,1,60,8|8,0:0|0:0,0:0:0:0:
451,310,54478,1,8,0:0:0:0:
426,238,54604,1,8,0:0:0:0:
474,296,54730,1,8,0:0:0:0:
445,222,54856,1,8,0:0:0:0:
492,285,54982,6,0,L|343:274,1,120,12|0,0:0|0:0,0:0:0:0:
289,313,55361,1,2,0:0:0:0:
289,313,55487,2,0,P|256:252|274:185,1,120,8|0,0:0|0:0,0:0:0:0:
327,127,55865,1,0,0:0:0:0:
327,127,55991,6,0,P|299:109|252:108,1,60,2|8,3:2|0:0,0:0:0:0:
189,147,56243,2,0,L|174:65,1,60,2|0,0:0|0:0,0:0:0:0:
104,213,56495,2,0,L|79:72,1,120,8|0,0:0|0:0,0:0:0:0:
391,286,56999,6,0,P|348:254|259:272,1,120,2|0,3:2|0:0,0:0:0:0:
218,305,57377,1,2,0:0:0:0:
218,305,57503,2,0,P|189:315|155:307,1,60,8|0,0:0|0:0,0:0:0:0:
84,256,57756,2,0,L|69:343,1,60,2|8,0:0|0:0,0:0:0:0:
117,155,58008,5,2,3:2:0:0:
25,181,58134,1,8,0:0:0:0:
117,155,58260,2,0,P|151:160|181:182,1,60,2|0,0:0|0:0,0:0:0:0:
273,148,58512,2,0,L|258:229,1,60,8|0,0:0|0:0,0:0:0:0:
329,67,58764,1,2,0:0:0:0:
376,150,58890,1,2,0:0:0:0:
473,118,59016,6,0,L|441:260,1,120,6|0,3:2|0:0,0:0:0:0:
485,318,59394,1,2,0:0:0:0:
485,318,59520,2,0,P|421:327|361:273,1,120,8|0,0:0|0:0,0:0:0:0:
310,241,59898,1,8,0:0:0:0:
242,303,60024,6,0,L|152:291,1,60,10|8,0:0|0:0,0:0:0:0:
85,260,60277,1,2,0:0:0:0:
164,212,60403,1,2,0:0:0:0:
85,260,60529,2,0,P|71:226|73:191,1,60,8|0,0:0|0:0,0:0:0:0:
102,75,60781,1,2,0:0:0:0:
181,43,60907,1,2,0:0:0:0:
260,80,61033,5,2,3:2:0:0:
396,251,61285,1,2,0:0:0:0:
162,289,61537,1,8,0:0:0:0:
257,191,61789,1,8,0:0:0:0:
257,191,61915,1,8,0:0:0:0:
257,191,62041,1,8,0:0:0:0:
71,76,62293,6,0,P|102:60|147:54,1,60,4|0,0:3|0:0,0:0:0:0:
195,74,62546,1,2,3:0:0:0:
265,100,62672,1,2,3:0:0:0:
333,74,62798,1,2,3:0:0:0:
358,4,62924,1,2,3:0:0:0:
253,284,63302,5,2,0:0:0:0:
42,204,63554,2,0,P|101:145|191:174,1,180,6|0,0:0|0:0,0:0:0:0:
259,207,64058,2,0,L|271:145,1,60,4|0,0:3|0:0,0:0:0:0:
357,100,64310,2,0,L|370:182,1,60,4|0,0:3|0:0,0:0:0:0:
459,218,64562,1,8,0:0:0:0:
461,206,64688,1,8,0:0:0:0:
465,194,64814,1,8,0:0:0:0:
468,182,64940,1,8,0:0:0:0:
471,170,65067,6,0,L|490:274,1,75,6|0,0:0|0:0,0:0:0:0:
405,86,65319,1,2,0:0:0:0:
248,224,65445,2,0,P|332:169|398:212,1,150,2|0,3:2|0:0,0:0:0:0:
283,73,65823,2,0,L|196:59,1,75,2|0,0:0|0:0,0:0:0:0:
138,139,66075,1,8,0:0:0:0:
93,49,66201,1,8,0:0:0:0:
13,202,66327,6,0,L|27:108,1,75,2|0,3:2|0:0,0:0:0:0:
119,296,66579,2,0,L|134:206,1,75,8|0,0:0|0:0,0:0:0:0:
244,372,66831,2,0,L|257:275,1,75,2|0,0:0|0:0,0:0:0:0:
447,167,67083,6,0,P|383:151|309:234,1,150,2|0,3:2|0:0,0:0:0:0:
395,239,67461,1,2,0:0:0:0:
303,86,67588,2,0,L|211:70,1,75,8|0,0:0|0:0,0:0:0:0:
117,142,67840,5,10,0:0:0:0:
143,283,67966,1,8,0:0:0:0:
173,150,68092,1,10,0:0:0:0:
196,269,68218,1,8,0:0:0:0:
229,161,68344,2,0,L|325:176,1,75,2|0,0:0|0:0,0:0:0:0:
506,200,68596,5,8,0:0:0:0:
506,200,68848,1,2,0:0:0:0:
278,324,69100,6,0,P|261:292|269:230,1,75,6|0,0:0|0:0,0:0:0:0:
166,369,69352,1,2,0:0:0:0:
17,247,69478,2,0,L|198:273,1,150,2|0,3:2|0:0,0:0:0:0:
363,186,69856,1,8,0:0:0:0:
273,214,69982,1,8,0:0:0:0:
206,94,70109,6,0,L|185:195,1,75,2|0,3:2|0:0,0:0:0:0:
259,287,70361,2,0,L|279:181,1,75,2|0,0:0|0:0,0:0:0:0:
378,70,70613,2,0,L|358:157,1,75,8|0,0:0|0:0,0:0:0:0:
402,353,70865,2,0,L|425:248,1,75,2|0,0:0|0:0,0:0:0:0:
507,64,71117,6,0,P|395:51|365:134,1,150,2|0,3:2|0:0,0:0:0:0:
444,126,71495,1,2,0:0:0:0:
304,248,71621,2,0,L|322:147,1,75,8|0,0:0|0:0,0:0:0:0:
142,62,71873,5,10,0:0:0:0:
277,14,71999,1,8,0:0:0:0:
172,115,72125,1,10,0:0:0:0:
289,68,72251,1,8,0:0:0:0:
202,160,72377,2,0,L|188:239,1,75
140,358,72630,5,8,0:0:0:0:
140,358,72882,5,10,0:0:0:0:
221,341,73008,1,8,0:0:0:0:
299,371,73134,6,0,L|317:275,1,75,6|0,0:0|0:0,0:0:0:0:
385,240,73386,1,2,0:0:0:0:
202,160,73512,2,0,P|276:132|345:193,1,150,2|0,3:2|0:0,0:0:0:0:
450,84,73890,2,0,L|430:172,1,75,2|8,0:0|0:0,0:0:0:0:
286,56,74142,1,8,0:0:0:0:
387,13,74268,1,8,0:0:0:0:
202,160,74394,6,0,L|95:136,1,75,2|0,3:2|0:0,0:0:0:0:
362,241,74646,2,0,L|475:215,1,75,8|0,0:0|0:0,0:0:0:0:
171,293,74898,2,0,L|58:267,1,75,2|0,0:0|0:0,0:0:0:0:
466,370,75151,6,0,L|425:180,1,150,12|0,0:0|0:0,0:0:0:0:
241,330,75529,2,0,P|326:312|383:387,1,150,12|0,0:0|0:0,0:0:0:0:
205,136,75907,2,0,P|273:208|253:77,1,300,12|0,0:0|3:2,0:0:0:0:
468,173,76663,5,8,0:0:0:0:
435,100,76789,1,0,3:0:0:0:
361,65,76915,1,8,0:0:0:0:
292,78,77041,1,8,0:0:0:0:
239,126,77167,6,0,P|152:141|104:83,1,150,6|0,0:0|0:0,0:0:0:0:
185,65,77546,1,2,0:0:0:0:
75,190,77672,2,0,L|-11:177,1,75,8|0,0:0|0:0,0:0:0:0:
141,350,77924,1,8,0:0:0:0:
51,276,78050,1,0,0:0:0:0:
141,134,78176,6,0,P|163:174|138:259,1,89.9999972534181,6|0,3:2|0:0,0:0:0:0:
251,285,78428,6,0,P|277:240|282:171,1,89.9999972534181,6|0,3:2|0:0,0:0:0:0:
335,61,78680,6,0,P|369:110|364:180,1,89.9999972534181,6|0,3:2|0:0,0:0:0:0:
429,332,78932,6,0,P|450:283|451:215,1,89.9999972534181,6|0,3:2|0:0,0:0:0:0:
484,47,79184,6,0,L|270:66,1,150,6|0,0:0|0:0,0:0:0:0:
247,128,79562,1,2,0:0:0:0:
166,51,79688,2,0,P|145:75|138:156,1,75,8|0,0:0|0:0,0:0:0:0:
303,221,79940,1,10,0:0:0:0:
247,128,80067,1,0,3:0:0:0:
116,237,80193,6,0,L|223:218,1,75,2|8,3:2|0:0,0:0:0:0:
320,334,80445,2,0,L|224:321,1,75,10|0,0:0|0:0,0:0:0:0:
403,202,80697,1,8,0:0:0:0:
407,226,80823,1,8,0:0:0:0:
411,249,80949,1,8,0:0:0:0:
417,275,81075,1,8,0:0:0:0:
424,296,81201,6,0,L|440:199,1,75,6|0,0:0|0:0,0:0:0:0:
492,137,81453,1,2,0:0:0:0:
325,16,81579,2,0,P|392:66|466:44,1,150,2|0,3:2|0:0,0:0:0:0:
247,99,81957,2,0,L|153:86,1,75,2|0,0:0|0:0,0:0:0:0:
337,164,82209,1,8,0:0:0:0:
240,215,82335,1,8,0:0:0:0:
332,349,82461,6,0,L|350:255,1,75,2|0,3:2|0:0,0:0:0:0:
240,215,82714,2,0,L|222:303,1,75,8|0,0:0|0:0,0:0:0:0:
103,368,82966,2,0,L|122:277,1,75,2|0,0:0|0:0,0:0:0:0:
43,146,83218,6,0,P|90:104|183:123,1,150,2|0,3:2|0:0,0:0:0:0:
121,184,83596,1,2,0:0:0:0:
215,31,83722,2,0,L|294:44,1,75,8|0,0:0|0:0,0:0:0:0:
450,213,83974,5,10,0:0:0:0:
446,77,84100,1,8,0:0:0:0:
395,206,84226,1,10,0:0:0:0:
385,88,84352,1,8,0:0:0:0:
338,195,84478,2,0,L|242:179,1,75,10|0,0:0|0:0,0:0:0:0:
62,149,84730,5,8,0:0:0:0:
62,149,84982,1,2,0:0:0:0:
196,262,85235,6,0,L|99:275,1,75,6|0,0:0|0:0,0:0:0:0:
264,182,85487,1,2,0:0:0:0:
299,376,85613,2,0,P|351:317|308:221,1,150,2|0,3:2|0:0,0:0:0:0:
325,21,85991,1,10,0:0:0:0:
393,91,86117,1,8,0:0:0:0:
264,182,86243,6,0,L|281:75,1,75,10|0,0:0|0:0,0:0:0:0:
168,253,86495,2,0,L|154:344,1,75,2|0,0:0|0:0,0:0:0:0:
121,120,86747,2,0,L|137:27,1,75,8|0,0:0|0:0,0:0:0:0:
16,263,86999,2,0,L|-1:362,1,75,2|0,0:0|0:0,0:0:0:0:
2,58,87251,6,0,P|63:22|151:69,1,150,2|0,3:2|0:0,0:0:0:0:
213,115,87630,1,2,0:0:0:0:
355,24,87756,2,0,L|281:33,1,75,8|0,0:0|0:0,0:0:0:0:
426,223,88008,5,10,0:0:0:0:
446,97,88134,1,8,0:0:0:0:
370,208,88260,1,10,0:0:0:0:
386,107,88386,1,8,0:0:0:0:
316,198,88512,2,0,L|214:207,1,75,10|0,0:0|0:0,0:0:0:0:
64,235,88764,5,8,0:0:0:0:
64,235,89016,5,8,0:0:0:0:
15,168,89142,1,8,0:0:0:0:
54,92,89268,6,0,L|150:80,1,75,6|0,0:0|0:0,0:0:0:0:
0,25,89520,1,2,0:0:0:0:
193,141,89646,2,0,P|211:61|142:-1,1,150,2|0,3:2|0:0,0:0:0:0:
64,235,90024,2,0,L|177:222,1,75,2|8,0:0|0:0,0:0:0:0:
282,218,90277,1,10,0:0:0:0:
232,304,90403,1,8,0:0:0:0:
273,133,90529,6,0,L|347:124,1,75,2|0,3:2|0:0,0:0:0:0:
486,215,90781,2,0,L|376:226,1,75,8|0,0:0|0:0,0:0:0:0:
232,304,91033,2,0,L|355:284,1,75,2|0,0:0|0:0,0:0:0:0:
436,100,91285,6,0,P|398:51|282:64,1,150,12|0,0:0|0:0,0:0:0:0:
230,170,91663,2,0,L|203:-11,1,150,12|0,0:0|0:0,0:0:0:0:
158,288,92041,2,0,P|262:278|312:347,2,150,12|0|0,0:0|0:0|0:0,0:0:0:0:
66,37,92798,6,0,L|49:135,1,75,8|0,0:0|0:0,0:0:0:0:
149,131,93050,1,8,0:0:0:0:
83,203,93176,1,8,0:0:0:0:
137,290,93302,6,0,L|42:301,1,75,6|0,3:2|0:0,0:0:0:0:
228,227,93554,1,2,0:0:0:0:
277,365,93680,2,0,L|91:385,1,150,2|0,3:2|0:0,0:0:0:0:
329,277,94058,1,8,0:0:0:0:
387,348,94184,1,0,0:0:0:0:
470,169,94310,6,0,L|448:298,1,104.999996795654,12|0,0:0|0:0,0:0:0:0:
345,60,94562,6,0,L|385:184,1,104.999996795654,12|0,0:0|0:0,0:0:0:0:
169,117,94814,6,0,L|301:156,1,104.999996795654,12|0,0:0|0:0,0:0:0:0:
113,292,95067,6,0,L|244:213,1,104.999996795654,12|0,0:0|0:0,0:0:0:0:
438,346,95319,6,0,L|245:312,1,179.999994506836,12|0,0:0|0:0,0:0:0:0:
203,238,95697,1,2,0:0:0:0:
314,148,95823,2,0,L|297:223,1,75,8|0,0:0|0:0,0:0:0:0:
193,93,96075,5,10,0:0:0:0:
315,60,96201,1,8,0:0:0:0:
178,57,96327,1,10,0:0:0:0:
304,20,96453,1,8,0:0:0:0:
168,29,96579,2,0,L|157:120,1,75,10|0,0:0|0:0,0:0:0:0:
47,245,96831,2,0,P|84:224|161:221,1,75,8|0,0:0|0:0,0:0:0:0:
225,276,97083,1,8,0:0:0:0:
309,323,97209,1,2,3:2:0:0:
402,285,97335,6,0,L|426:114,1,150,12|0,0:0|0:0,0:0:0:0:
510,102,97714,2,0,P|452:50|344:87,1,150,12|0,0:0|0:0,0:0:0:0:
334,132,98092,2,0,B|296:112|291:70|291:70|301:184|244:234,2,225,12|4|0,0:0|3:0|0:0,0:0:0:0:
422,136,98974,1,8,0:0:0:0:
383,53,99100,1,8,0:0:0:0:
477,334,99352,6,0,P|415:363|340:318,1,150,6|0,0:0|0:0,0:0:0:0:
188,169,99856,2,0,L|197:271,1,75,8|0,0:0|0:0,0:0:0:0:
158,324,100109,1,2,0:0:0:0:
132,103,100235,6,0,P|185:81|267:142,1,150,2|8,3:2|0:0,0:0:0:0:
108,216,100613,2,0,L|26:198,1,75,2|0,0:0|0:0,0:0:0:0:
231,338,100865,2,0,L|134:320,1,75,8|0,0:0|0:0,0:0:0:0:
382,264,101117,2,0,L|305:248,1,75,2|0,0:0|0:0,0:0:0:0:
494,327,101369,6,0,P|513:249|455:188,2,150,2|2|8,3:2|0:0|0:0,0:0:0:0:
338,111,102125,1,2,0:0:0:0:
417,76,102251,1,2,0:0:0:0:
486,122,102377,6,0,L|471:218,1,75,2|8,3:2|0:0,0:0:0:0:
419,309,102630,2,0,P|376:306|334:270,1,75,2|0,0:0|0:0,0:0:0:0:
234,225,102882,2,0,P|281:171|389:200,1,150,8|0,0:0|0:0,0:0:0:0:
43,353,103386,6,0,L|78:181,1,150,4|0,0:1|0:0,0:0:0:0:
158,144,103764,1,2,0:0:0:0:
234,225,103890,2,0,P|199:240|147:238,1,75,8|0,0:0|0:0,0:0:0:0:
301,132,104142,1,2,0:0:0:0:
350,231,104268,1,2,0:0:0:0:
378,60,104394,6,0,L|457:70,1,75,2|8,3:2|0:0,0:0:0:0:
301,132,104646,2,0,L|203:119,1,75,2|0,0:0|0:0,0:0:0:0:
319,356,104898,2,0,P|368:280|312:205,1,150,8|0,0:0|0:0,0:0:0:0:
156,45,105403,6,0,P|118:92|131:181,1,150,2|0,3:2|0:0,0:0:0:0:
211,239,105781,1,2,0:0:0:0:
111,280,105907,2,0,L|25:264,1,75,8|0,0:0|0:0,0:0:0:0:
211,239,106158,1,2,0:0:0:0:
235,334,106285,1,2,0:0:0:0:
294,173,106411,6,0,L|370:189,1,75,2|8,3:2|0:0,0:0:0:0:
190,48,106663,2,0,L|292:72,1,75,2|0,0:0|0:0,0:0:0:0:
51,147,106915,2,0,L|141:163,1,75,8|0,0:0|0:0,0:0:0:0:
228,273,107167,1,8,0:0:0:0:
128,303,107293,1,8,0:0:0:0:
271,192,107419,6,0,P|319:245|259:352,1,150,12|0,0:0|0:0,0:0:0:0:
228,273,107798,1,8,0:0:0:0:
400,26,108176,6,0,P|353:71|375:174,1,150,8|0,0:0|0:0,0:0:0:0:
432,110,108554,1,0,3:2:0:0:
260,162,108680,6,0,L|247:77,1,75,8|0,0:0|0:0,0:0:0:0:
161,252,108932,2,0,L|143:147,1,75,8|0,0:0|0:0,0:0:0:0:
73,346,109184,1,12,0:0:0:0:
256,192,109436,12,0,117503,0:0:0:0:
