osu file format v14

[General]
AudioFilename: Cross Illusion.mp3
AudioLeadIn: 0
PreviewTime: 79779
Countdown: 0
SampleSet: Soft
StackLeniency: 0.7
Mode: 0
LetterboxInBreaks: 1
WidescreenStoryboard: 1

[Editor]
DistanceSpacing: 1
BeatDivisor: 1
GridSize: 4
TimelineZoom: 2

[Metadata]
Title:Cross Illusion
TitleUnicode:Cross Illusion
Artist:Misato Aki
ArtistUnicode:Misato Aki
Creator:Quilt
Version:Normal
Source:Oretachi ni Tsubasa wa Nai AfterStory
Tags:Navel
BeatmapID:789197
BeatmapSetID:358281

[Difficulty]
HPDrainRate:4
CircleSize:3
OverallDifficulty:4
ApproachRate:5
SliderMultiplier:1.2
SliderTickRate:1

[Events]
//Background and Video events
0,0,"oretsuba AS.jpg",0,0
Video,0,"OP.avi"
//Break Periods
//Storyboard Layer 0 (Background)
//Storyboard Layer 1 (Fail)
//Storyboard Layer 2 (Pass)
//Storyboard Layer 3 (Foreground)
//Storyboard Sound Samples

[TimingPoints]
30415,363.636363636364,4,2,1,25,1,0
31869,-100,4,2,1,50,0,0
43505,-100,4,2,3,50,0,0
55142,-100,4,2,1,50,0,0
70051,-100,4,2,3,50,0,0
71142,-100,4,2,1,50,0,0
75869,-100,4,2,2,50,0,0
76051,-100,4,2,1,50,0,0
79869,-100,4,2,1,70,0,1
91505,-100,4,2,1,70,0,1
95505,-100,4,2,2,70,0,1
95869,-100,4,2,1,70,0,1
103142,-100,4,2,1,40,0,0

[Colours]
Combo1 : 0,0,160
Combo2 : 13,185,242
Combo3 : 0,128,128

[HitObjects]
340,253,31869,6,0,L|221:254,1,120,4|8,0:0|0:0,0:0:0:0:
126,179,32596,2,0,L|245:178,1,120,0|8,0:0|0:0,0:0:0:0:
306,178,33142,1,0,0:0:0:0:
363,161,33324,2,0,P|384:106|382:46,2,120,0|8|0,0:0|0:0|0:0,0:0:0:0:
339,279,34415,1,8,0:0:0:0:
339,279,34778,6,0,L|220:280,1,120,0|8,0:0|0:0,0:0:0:0:
98,281,35505,2,0,P|90:221|100:162,1,120,0|8,0:0|0:0,0:0:0:0:
142,119,36051,2,0,P|229:105|320:130,1,180,8|8,0:0|0:0,0:0:0:0:
421,186,36960,2,0,P|435:127|421:67,1,120,0|8,0:0|0:0,0:0:0:0:
331,148,37687,6,0,P|316:206|330:266,2,120,0|8|0,0:0|0:0|0:0,0:0:0:0:
341,88,38596,1,0,0:0:0:0:
314,34,38778,1,0,0:0:0:0:
254,22,38960,2,0,P|195:11|135:25,1,120
136,84,39505,2,0,P|194:95|255:81,2,120,8|0|8,0:0|0:0|0:0,0:0:0:0:
18,60,40596,5,8,2:0:0:0:
18,60,40778,1,8,2:0:0:0:
18,180,41142,1,8,2:0:0:0:
18,180,41324,1,8,2:0:0:0:
132,147,41687,2,8,P|152:178|159:203,1,60
206,314,42233,6,0,B|245:353|295:347|317:303|317:303|256:223|317:149,1,300,4|0,0:0|0:0,0:0:0:0:
378,48,43505,1,4,0:0:0:0:
267,94,43869,2,0,P|214:101|143:93,1,120
31,70,44596,2,0,P|16:130|24:188,1,120,8|0,0:0|0:0,0:0:0:0:
60,301,45324,5,8,0:0:0:0:
175,269,45687,2,0,P|232:253|291:268,2,120,0|8|0,0:0|0:0|0:0,0:0:0:0:
247,366,46778,2,0,P|304:379|361:363,1,120,8|0,0:0|0:0,0:0:0:0:
450,282,47505,1,8,0:0:0:0:
346,221,47869,6,0,P|333:164|352:102,1,120,0|8,0:0|0:0,0:0:0:0:
423,201,48596,2,0,P|415:261|368:302,1,120,0|8,0:0|0:0,0:0:0:0:
312,301,49142,1,8,0:0:0:0:
312,301,49324,1,8,0:0:0:0:
200,257,49687,1,8,0:0:0:0:
86,226,50051,2,0,P|66:170|77:111,1,120,0|8,0:0|0:0,0:0:0:0:
184,165,50778,6,0,P|243:174|306:158,1,120,0|8,0:0|0:0,0:0:0:0:
409,108,51505,2,0,P|418:166|402:222,1,120,0|8,0:0|0:0,0:0:0:0:
336,324,52233,2,0,P|279:335|219:322,1,120,0|8,0:0|0:0,0:0:0:0:
112,269,52960,1,0,0:0:0:0:
128,149,53324,1,8,0:0:0:0:
222,222,53687,6,0,P|238:165|237:105,1,120,0|10,0:0|0:0,0:0:0:0:
130,50,54415,2,0,P|107:108|104:168,1,120,0|8,0:0|0:0,0:0:0:0:
100,285,55142,5,4,0:0:0:0:
218,264,55505,2,0,P|277:259|336:270,1,120,8|0,0:0|0:0,0:0:0:0:
450,308,56233,2,0,P|466:250|461:191,1,120,8|0,0:0|0:0,0:0:0:0:
430,75,56960,5,8,0:0:0:0:
366,177,57324,2,0,P|307:185|246:171,1,120,0|8,0:0|0:0,0:0:0:0:
129,179,58051,2,0,P|97:229|85:288,2,120,0|8|0,0:0|0:0|0:0,0:0:0:0:
182,71,59142,1,8,0:0:0:0:
249,172,59505,6,0,P|258:230|244:288,1,120,0|8,0:0|0:0,0:0:0:0:
133,335,60233,2,0,P|185:323|251:339,1,120,0|8,0:0|0:0,0:0:0:0:
304,360,60778,1,0,0:0:0:0:
304,360,60960,1,0,0:0:0:0:
394,280,61324,2,0,P|415:224|416:164,1,120,8|0,0:0|0:0,0:0:0:0:
304,205,62051,2,0,P|238:201|181:168,1,120,8|0,0:0|0:0,0:0:0:0:
103,94,62778,5,8,0:0:0:0:
9,169,63142,1,0,0:0:0:0:
52,280,63505,1,8,0:0:0:0:
171,264,63869,2,0,P|236:256|289:273,1,120,0|8,0:0|0:0,0:0:0:0:
405,292,64596,2,0,P|430:239|439:179,1,120,0|8,0:0|0:0,0:0:0:0:
338,113,65324,6,0,P|255:113|179:83,2,120,0|8|8,0:0|0:0|0:0,0:0:0:0:
392,88,66233,1,0,0:0:0:0:
392,88,66415,1,0,0:0:0:0:
496,147,66778,2,0,P|505:206|493:263,1,120,4|8,0:0|0:0,0:0:0:0:
390,326,67505,2,0,L|243:338,1,120,0|8,0:0|0:0,0:0:0:0:
152,359,68233,1,0,0:0:0:0:
60,282,68596,5,8,0:0:0:0:
163,221,68960,2,0,P|172:170|167:101,1,120,0|8,0:0|0:0,0:0:0:0:
61,159,69687,2,0,L|333:162,2,240,4|0|0,0:0|0:0|0:0,0:0:0:0:
136,65,71505,6,0,L|256:67,1,120,8|0,0:0|0:0,0:0:0:0:
376,71,72233,1,8,0:0:0:0:
309,171,72596,2,0,P|288:226|283:292,1,120,4|8,0:0|0:0,0:0:0:0:
179,348,73324,2,0,L|33:328,1,120,4|8,0:0|0:0,0:0:0:0:
32,231,74051,6,0,L|178:251,1,120,4|8,0:0|0:0,0:0:0:0:
269,266,74778,1,0,0:0:0:0:
353,181,75142,1,8,0:0:0:0:
424,85,75505,2,0,P|313:56|242:152,1,240,4|0,0:0|0:0,0:0:0:0:
269,266,76596,1,8,0:0:0:0:
172,338,76960,6,0,P|115:352|57:337,2,120,4|8|4,0:0|0:0|0:0,0:0:0:0:
172,338,78051,1,8,0:0:0:0:
256,192,78415,12,4,79869,0:0:0:0:
227,104,80233,6,0,P|203:158|202:217,1,120,8|0,0:0|0:0,0:0:0:0:
178,335,80960,2,0,P|120:348|61:336,1,120,8|0,0:0|0:0,0:0:0:0:
5,231,81687,1,8,0:0:0:0:
106,166,82051,2,0,P|118:107|113:48,2,120,0|8|0,0:0|0:0|0:0,0:0:0:0:
75,282,83142,5,8,0:0:0:0:
183,230,83505,2,0,P|242:223|300:235,1,120,0|8,0:0|0:0,0:0:0:0:
411,282,84233,1,0,0:0:0:0:
475,180,84596,1,8,0:0:0:0:
419,73,84960,1,0,0:0:0:0:
321,142,85324,2,0,L|257:142,1,60,8|0,0:0|0:0,0:0:0:0:
199,140,85687,6,0,P|184:197|191:262,1,120,0|8,0:0|0:0,0:0:0:0:
143,368,86415,2,0,P|85:380|28:363,1,120,0|8,0:0|0:0,0:0:0:0:
95,263,87142,2,0,P|152:250|209:267,1,120,0|8,0:0|0:0,0:0:0:0:
328,279,87869,2,0,P|343:222|345:162,2,120,0|8|0,0:0|0:0|0:0,0:0:0:0:
227,346,88960,6,0,L|168:346,1,60,8|0,0:0|0:0,0:0:0:0:
46,347,89505,1,0,0:0:0:0:
114,248,89869,1,8,0:0:0:0:
71,135,90233,1,0,0:0:0:0:
114,248,90596,2,0,P|202:261|291:246,1,180,8|0,0:0|0:0,0:0:0:0:
377,162,91505,6,0,P|404:214|407:274,1,120,4|8,0:0|0:0,0:0:0:0:
326,364,92233,2,0,P|267:361|214:333,1,120,0|8,0:0|0:0,0:0:0:0:
175,219,92960,2,0,P|206:169|256:137,1,120,0|8,0:0|0:0,0:0:0:0:
360,74,93687,1,0,0:0:0:0:
249,26,94051,1,8,0:0:0:0:
257,136,94415,6,0,P|297:180|356:201,1,120,0|8,0:0|0:0,0:0:0:0:
500,256,95142,2,0,B|444:241|444:241|405:328|289:286,1,240
191,216,96233,1,8,0:0:0:0:
89,151,96596,2,0,P|72:207|79:266,1,120,0|8,0:0|0:0,0:0:0:0:
179,332,97324,6,0,P|238:328|297:337,1,120,0|8,0:0|0:0,0:0:0:0:
382,251,98051,2,0,P|322:255|263:246,1,120,0|8,0:0|0:0,0:0:0:0:
162,181,98778,1,0,0:0:0:0:
164,60,99142,1,8,0:0:0:0:
281,37,99505,1,0,0:0:0:0:
360,127,99869,2,0,P|415:139|479:134,1,120,8|4,0:0|0:0,0:0:0:0:
425,27,100596,5,8,0:0:0:0:
307,49,100960,2,0,P|273:131|315:215,1,180,0|8,0:0|0:0,0:0:0:0:
404,283,101869,1,8,0:0:0:0:
296,336,102233,1,8,0:0:0:0:
404,283,102596,2,0,P|411:228|356:204,1,120,8|0,0:0|0:0,0:0:0:0:
315,244,103142,6,0,L|161:243,1,120,4|8,0:0|0:0,0:0:0:0:
86,190,103869,2,0,P|71:131|75:72,1,120,0|8,0:0|0:0,0:0:0:0:
187,115,104596,1,0,0:0:0:0:
187,115,104960,1,8,0:0:0:0:
290,54,105324,2,0,P|304:112|300:171,1,120,0|8,0:0|0:0,0:0:0:0:
255,283,106051,6,0,P|196:293|135:279,1,120,0|8,0:0|0:0,0:0:0:0:
212,374,106778,2,0,P|271:364|332:378,1,120,0|8,0:0|0:0,0:0:0:0:
352,258,107505,1,0,0:0:0:0:
450,327,107869,2,0,P|477:274|480:214,1,120,8|0,0:0|0:0,0:0:0:0:
470,94,108596,1,8,0:0:0:0:
369,159,108960,6,0,L|232:169,1,120,0|8,0:0|0:0,0:0:0:0:
152,96,109687,2,0,L|289:86,1,120,0|8,0:0|0:0,0:0:0:0:
382,40,110415,1,0,0:0:0:0:
369,159,110778,2,0,P|363:217|379:289,1,120,8|0,0:0|0:0,0:0:0:0:
478,217,111505,1,8,0:0:0:0:
494,336,111869,6,8,L|434:334,1,60
341,257,112415,2,8,L|400:258,1,60
315,174,112960,2,8,L|316:114,1,60
214,50,113505,2,0,L|204:356,1,300
256,192,114778,12,0,120596,0:0:0:0:
