osu file format v14

[General]
AudioFilename: Cross Illusion.mp3
AudioLeadIn: 0
PreviewTime: 79779
Countdown: 0
SampleSet: Soft
StackLeniency: 0.7
Mode: 0
LetterboxInBreaks: 1
WidescreenStoryboard: 1

[Editor]
DistanceSpacing: 1
BeatDivisor: 2
GridSize: 4
TimelineZoom: 2

[Metadata]
Title:Cross Illusion
TitleUnicode:Cross Illusion
Artist:Misato Aki
ArtistUnicode:Misato Aki
Creator:Quilt
Version:Hard
Source:Oretachi ni Tsubasa wa Nai AfterStory
Tags:Navel
BeatmapID:788439
BeatmapSetID:358281

[Difficulty]
HPDrainRate:6
CircleSize:4
OverallDifficulty:6
ApproachRate:7
SliderMultiplier:1.6
SliderTickRate:1

[Events]
//Background and Video events
0,0,"oretsuba AS.jpg",0,0
Video,0,"OP.avi"
//Break Periods
//Storyboard Layer 0 (Background)
//Storyboard Layer 1 (Fail)
//Storyboard Layer 2 (Pass)
//Storyboard Layer 3 (Foreground)
//Storyboard Sound Samples

[TimingPoints]
30415,363.636363636364,4,2,1,25,1,0
31869,-100,4,2,1,50,0,0
42051,-133.333333333333,4,2,1,50,0,0
43324,-100,4,2,3,50,0,0
55142,-100,4,2,1,50,0,0
72596,-100,4,2,1,70,0,0
72778,-100,4,2,1,50,0,0
73324,-100,4,2,1,70,0,0
73505,-100,4,2,1,50,0,0
74051,-100,4,2,1,70,0,0
74233,-100,4,2,1,50,0,0
79869,-100,4,2,1,70,0,1
88596,-133.333333333333,4,2,1,50,0,1
91505,-100,4,2,1,70,0,1
103142,-100,4,2,1,40,0,0
113505,-200,4,2,1,40,0,0
119506,-200,4,2,1,30,0,0
119869,-200,4,2,1,20,0,0
120233,-200,4,2,1,10,0,0

[Colours]
Combo1 : 0,0,160
Combo2 : 13,185,242
Combo3 : 0,128,128

[HitObjects]
94,194,31869,6,0,P|178:210|252:196,1,160,4|8,0:0|0:0,0:0:0:0:
276,111,32415,1,0,0:0:0:0:
342,168,32596,2,0,L|339:269,1,80,0|8,0:0|0:0,0:0:0:0:
327,357,32960,1,8,0:0:0:0:
264,281,33142,2,0,P|180:265|106:279,1,160
10,331,33687,6,0,P|-1:293|0:251,1,80,8|0,0:0|0:0,0:0:0:0:
56,94,34051,2,0,P|49:137|37:171,1,80
111,225,34415,2,0,P|139:149|140:62,1,160,8|0,0:0|0:0,0:0:0:0:
141,70,35142,6,0,P|181:73|226:71,1,80,8|0,0:0|0:0,0:0:0:0:
329,144,35505,2,0,P|289:141|244:143,1,80,0|8,0:0|0:0,0:0:0:0:
123,145,35869,1,8,0:0:0:0:
195,224,36051,2,0,P|121:248|49:218,1,160
37,69,36596,6,0,P|20:114|11:144,1,80,8|0,0:0|0:0,0:0:0:0:
123,144,36960,2,0,P|162:139|201:148,1,80
269,260,37324,2,0,B|260:206|260:206|299:164|277:104,1,160,8|0,0:0|0:0,0:0:0:0:
278,107,38051,6,0,P|317:112|357:110,1,80,8|0,0:0|0:0,0:0:0:0:
486,87,38415,2,0,L|448:158,1,80,0|8,0:0|0:0,0:0:0:0:
375,268,38778,1,8,0:0:0:0:
368,175,38960,2,0,P|301:211|289:288,1,160
365,350,39505,6,0,P|296:383|219:361,1,160,8|0,0:0|0:0,0:0:0:0:
112,332,40051,1,8,0:0:0:0:
188,279,40233,2,0,P|196:238|192:199,1,80,8|0,0:0|0:0,0:0:0:0:
182,107,40596,5,8,0:0:0:0:
182,107,40777,1,8,0:0:0:0:
283,263,41142,1,8,0:0:0:0:
283,263,41324,1,8,0:0:0:0:
94,266,41687,1,8,0:0:0:0:
94,266,41869,1,8,0:0:0:0:
94,266,42233,6,0,B|165:236|97:167|97:167|101:116|169:72|217:119|216:172,1,300.000011444092,0|8,0:1|0:0,0:0:0:0:
241,254,43324,1,0,0:0:0:0:
241,254,43415,1,0,0:0:0:0:
241,254,43505,6,0,P|325:280|392:259,1,160,4|8,0:0|0:0,0:0:0:0:
413,162,44051,1,0,0:0:0:0:
489,214,44233,2,0,P|504:174|501:131,1,80
389,9,44596,2,0,P|374:49|377:92,1,80,8|0,0:0|0:0,0:0:0:0:
413,162,44960,6,0,P|342:170|283:98,1,160,0|8,0:0|0:0,0:0:0:0:
309,22,45505,1,0,0:0:0:0:
285,109,45687,2,0,P|218:138|136:109,1,160,0|8,0:0|0:0,0:0:0:0:
179,27,46233,1,0,0:0:0:0:
61,55,46415,6,0,P|47:92|48:132,1,80
82,280,46778,2,0,P|57:257|34:215,1,80,8|0,0:0|0:0,0:0:0:0:
129,121,47142,2,0,P|175:159|202:213,2,120,0|8|0,0:0|0:0|0:0,0:0:0:0:
82,280,47869,6,0,P|160:309|231:279,1,160,0|8,0:0|0:0,0:0:0:0:
273,203,48415,1,0,0:0:0:0:
310,288,48596,2,0,L|301:371,1,80
387,323,48960,1,8,0:0:0:0:
393,246,49142,1,8,0:0:0:0:
402,167,49324,5,8,0:0:0:0:
402,167,49687,1,8,0:0:0:0:
402,167,49778,1,0,0:0:0:0:
402,167,49869,1,0,0:0:0:0:
312,204,50051,2,0,P|306:164|315:125,1,80
375,42,50415,2,0,P|339:27|299:27,1,80,8|0,0:0|0:0,0:0:0:0:
170,96,50778,6,0,P|236:136|314:125,1,160,0|8,0:0|0:0,0:0:0:0:
420,99,51324,1,0,0:0:0:0:
374,189,51505,2,0,P|362:227|361:267,1,80
352,360,51869,1,8,0:0:0:0:
277,238,52051,1,0,0:0:0:0:
261,330,52233,6,0,P|184:348|111:319,1,160,0|8,0:0|0:0,0:0:0:0:
17,228,52778,2,0,P|-8:263|-18:317,1,80
152,208,53142,2,0,P|144:173|116:136,1,80,0|8,0:0|0:0,0:0:0:0:
46,53,53505,1,0,0:0:0:0:
82,201,53687,5,0,0:0:0:0:
166,50,53869,1,0,0:0:0:0:
212,118,54051,2,0,P|253:127|291:119,1,80,10|0,0:0|0:0,0:0:0:0:
392,134,54415,1,0,0:0:0:0:
392,134,54505,1,0,0:0:0:0:
392,134,54596,1,0,0:0:0:0:
233,203,54778,2,0,P|192:194|153:201,1,80,8|8,0:0|0:0,0:0:0:0:
19,245,55142,6,0,P|-3:169|12:91,1,160,4|8,0:0|0:0,0:0:0:0:
38,8,55687,1,0,0:0:0:0:
95,114,55869,2,0,L|195:123,1,80
255,213,56233,2,0,L|155:204,1,80,8|0,0:0|0:0,0:0:0:0:
332,161,56596,6,0,P|336:258|284:312,2,160,0|8|0,0:0|0:0|0:0,0:0:0:0:
303,64,57505,1,0,0:0:0:0:
389,98,57687,2,0,L|480:110,1,80,8|0,0:0|0:0,0:0:0:0:
424,203,58051,6,0,L|231:179,1,160,0|8,0:0|0:0,0:0:0:0:
166,172,58596,1,0,0:0:0:0:
92,105,58778,2,0,P|83:66|88:25,1,80
248,106,59142,2,0,P|259:184|228:256,1,160,8|0,0:0|0:0,0:0:0:0:
122,230,59687,5,0,0:0:0:0:
146,333,59869,2,0,P|218:362|295:344,2,160,8|0|8,0:0|0:0|0:0,0:0:0:0:
41,271,60778,2,0,P|31:315|31:350,1,80
228,255,61324,6,0,P|262:184|250:108,1,160,8|0,0:0|0:0,0:0:0:0:
214,25,61869,1,0,0:0:0:0:
302,55,62051,2,0,P|349:62|389:62,1,80,8|0,0:0|0:0,0:0:0:0:
474,140,62415,6,0,P|427:133|387:133,1,80
301,145,62778,1,8,0:0:0:0:
368,213,62960,2,0,P|292:234|217:196,1,160
163,109,63505,2,0,P|135:137|116:173,1,80,8|0,0:0|0:0,0:0:0:0:
134,321,63869,6,0,P|198:276|220:201,1,160,0|8,0:0|0:0,0:0:0:0:
250,114,64415,2,0,P|328:102|405:119,1,160
406,119,64960,1,8,0:0:0:0:
317,202,65142,2,0,P|239:214|162:197,2,160,0|8|0,0:0|0:0|0:0,0:0:0:0:
427,187,66051,6,0,P|425:229|412:265,1,80,0|8,0:0|0:0,0:0:0:0:
385,338,66415,1,8,0:0:0:0:
281,131,66778,6,0,B|228:150|186:98|125:130,1,160,4|8,0:0|0:0,0:0:0:0:
30,152,67324,1,2,0:0:0:0:
96,214,67505,2,0,P|105:252|104:292,1,80
125,130,67869,2,0,P|159:149|180:182,1,80,8|0,0:0|0:0,0:0:0:0:
239,268,68233,6,0,P|327:293|391:266,1,160,2|8,0:0|0:0,0:0:0:0:
446,167,68778,1,2,0:0:0:0:
352,194,68960,2,0,P|346:157|350:115,1,80,0|2,0:0|0:0,0:0:0:0:
357,30,69324,1,10,0:0:0:0:
186,192,69687,6,0,P|185:270|142:338,1,160,4|8,0:0|0:0,0:0:0:0:
77,229,70233,1,2,0:0:0:0:
142,337,70415,2,0,P|217:360|293:338,1,160,0|8,0:0|0:0,0:0:0:0:
374,286,70960,1,2,0:0:0:0:
292,241,71142,6,0,P|281:132|311:77,2,160,0|10|0,0:0|0:0|0:0,0:0:0:0:
301,89,72233,2,0,P|261:93|211:88,1,80,8|0,0:0|0:0,0:0:0:0:
107,98,72596,6,0,P|82:173|101:253,1,160,6|8,0:0|0:0,0:0:0:0:
131,350,73142,1,0,0:0:0:0:
216,293,73324,2,0,P|254:282|293:289,1,80,4|0,0:0|0:0,0:0:0:0:
440,351,73687,2,0,P|401:361|362:354,1,80,8|0,0:0|0:0,0:0:0:0:
293,289,74051,6,0,P|280:223|309:136,1,160,4|8,0:0|0:0,0:0:0:0:
356,66,74596,1,0,0:0:0:0:
376,191,74778,2,0,P|300:215|228:180,1,160,0|8,0:0|0:0,0:0:0:0:
163,121,75324,1,0,0:0:0:0:
114,29,75505,6,0,P|67:91|69:170,2,160,4|8|0,0:0|0:0|0:0,0:0:0:0:
163,121,76415,2,0,P|202:128|241:123,1,80,0|8,0:0|0:0,0:0:0:0:
340,87,76778,1,0,0:0:0:0:
340,87,76869,1,0,0:0:0:0:
340,87,76960,6,0,B|353:138|326:178|326:178|330:220,2,120,4|8|0,0:0|0:0|0:0,0:0:0:0:
258,206,77687,2,0,P|186:221|87:196,1,160,4|8,0:0|0:0,0:0:0:0:
16,156,78233,1,0,0:0:0:0:
96,120,78415,6,0,L|120:62,3,40
72,217,78778,2,0,L|48:275,3,40
143,165,79142,2,0,L|167:107,7,40
143,209,79869,6,4,P|216:237|291:208,1,160,4|8,0:0|0:0,0:0:0:0:
379,139,80415,2,0,P|389:228|359:302,1,160
318,363,80960,1,8,0:0:0:0:
249,294,81142,2,0,P|165:272|87:315,1,160
11,333,81687,6,0,P|-8:302|-19:254,1,80,8|0,0:0|0:0,0:0:0:0:
75,230,82051,2,0,P|81:190|82:150,1,80
106,38,82415,2,0,P|143:35|182:47,1,80,8|0,0:0|0:0,0:0:0:0:
262,116,82778,1,0,0:0:0:0:
362,109,82960,6,0,P|376:70|382:31,1,80,0|8,0:0|0:0,0:0:0:0:
262,116,83324,2,0,P|248:155|241:193,1,80
225,296,83687,1,8,0:0:0:0:
340,200,83869,1,8,0:0:0:0:
225,296,84051,2,0,P|145:310|71:277,1,160
3,240,84596,5,8,0:0:0:0:
79,192,84778,2,0,B|124:144|101:64|101:64|144:62,1,160
216,78,85324,2,0,P|254:86|297:77,1,80,8|0,0:0|0:0,0:0:0:0:
393,77,85687,6,0,P|410:154|393:234,1,160,0|8,0:0|0:0,0:0:0:0:
280,260,86233,2,0,P|278:222|291:181,2,80,0|0|8,0:0|0:0|0:0,0:0:0:0:
350,317,86778,1,8,0:0:0:0:
265,347,86960,2,0,P|186:353|109:330,1,160
92,221,87505,6,0,P|87:181|78:142,1,80,8|0,0:0|0:0,0:0:0:0:
0,213,87869,2,0,P|4:252|13:291,1,80
78,365,88233,1,8,0:0:0:0:
78,365,88415,1,8,0:0:0:0:
140,297,88596,6,8,P|202:283|256:298,1,120.000004577637,12|8,0:0|0:0,0:0:0:0:
282,369,89142,2,0,P|340:380|399:373,1,120.000004577637,12|8,0:0|0:0,0:0:0:0:
465,318,89687,1,8,0:0:0:0:
383,277,89869,2,0,P|377:248|375:218,1,60.0000022888184,4|0,0:0|0:0,0:0:0:0:
405,74,90233,6,0,P|411:103|413:133,1,60.0000022888184,4|0,0:0|0:0,0:0:0:0:
374,218,90596,2,0,P|317:234|258:221,1,120.000004577637
177,183,91142,1,8,0:0:0:0:
177,183,91233,1,0,0:0:0:0:
177,183,91324,1,0,0:0:0:0:
87,149,91505,6,0,P|82:188|93:227,1,80,4|0,0:0|0:0,0:0:0:0:
129,323,91869,1,8,0:0:0:0:
225,280,92051,2,0,P|264:273|303:278,1,80
423,359,92415,2,0,P|383:366|344:361,1,80,10|8,0:0|0:0,0:0:0:0:
384,286,92778,2,0,P|401:213|381:130,1,160
327,38,93324,5,8,0:0:0:0:
327,38,93505,1,0,0:0:0:0:
281,126,93687,2,0,P|260:159|226:179,1,80
70,139,94051,2,0,P|109:141|144:160,1,80,8|0,0:0|0:0,0:0:0:0:
164,241,94415,6,0,P|138:314|68:348,1,160,0|8,0:0|0:0,0:0:0:0:
77,268,94960,2,0,P|162:258|239:272,1,160,0|10,0:0|0:0,0:0:0:0:
321,304,95505,1,8,0:0:0:0:
374,229,95687,2,0,P|378:189|376:149,1,80
353,45,96051,6,0,P|395:46|432:55,1,80,0|8,0:0|0:0,0:0:0:0:
302,124,96415,2,0,P|222:116|143:102,1,160
84,29,96960,1,8,0:0:0:0:
84,29,97142,1,0,0:0:0:0:
65,124,97324,6,0,P|57:163|42:200,1,80
11,299,97687,1,8,0:0:0:0:
98,276,97869,2,0,P|140:273|180:275,1,80
281,287,98233,1,10,0:0:0:0:
237,182,98415,1,8,0:0:0:0:
331,150,98596,2,0,P|371:153|411:150,1,80
324,17,98960,1,0,0:0:0:0:
218,88,99142,2,0,P|195:163|209:241,1,160,8|0,0:0|0:0,0:0:0:0:
288,268,99687,1,0,0:0:0:0:
320,348,99869,2,0,P|280:353|237:342,1,80,8|0,0:0|0:0,0:0:0:0:
152,313,100233,5,4,0:0:0:0:
152,313,100324,1,0,0:0:0:0:
152,313,100415,1,0,0:0:0:0:
288,268,100596,1,8,0:0:0:0:
187,192,100778,2,0,P|178:148|182:100,1,80,4|0,0:0|0:0,0:0:0:0:
279,20,101142,2,0,P|288:64|284:112,1,80,10|8,0:0|0:0,0:0:0:0:
291,210,101505,2,0,P|364:238|442:225,1,160,4|0,0:0|0:0,0:0:0:0:
461,215,101960,5,0,0:0:0:0:
461,215,102051,1,8,0:0:0:0:
376,101,102233,1,0,0:0:0:0:
281,177,102415,2,0,L|272:234,3,40
242,93,102778,2,0,L|251:36,3,40,8|0|0|0,0:0|0:0|0:0|0:0,0:0:0:0:
232,132,103142,6,0,P|153:143|81:100,1,160,4|8,0:0|0:0,0:0:0:0:
30,30,103687,1,0,0:0:0:0:
25,159,103869,2,0,L|28:280,1,80,0|10,0:0|0:0,0:0:0:0:
20,345,104233,1,8,0:0:0:0:
105,308,104415,2,0,P|193:295|274:320,1,160
354,359,104960,5,8,0:0:0:0:
354,359,105142,1,2,0:0:0:0:
450,333,105324,2,0,P|423:288|381:269,1,80
261,191,105687,2,0,P|288:236|330:255,1,80,8|0,0:0|0:0,0:0:0:0:
333,148,106051,6,0,P|266:109|182:147,1,160,2|8,0:0|0:0,0:0:0:0:
95,217,106596,1,0,0:0:0:0:
113,118,106778,2,0,P|119:75|116:29,2,80,0|10|8,0:0|0:0|0:0,0:0:0:0:
95,217,107324,2,0,P|162:256|246:218,1,160
295,144,107869,5,8,0:0:0:0:
295,144,108051,1,2,0:0:0:0:
331,237,108233,1,0,0:0:0:0:
331,237,108415,1,2,0:0:0:0:
405,163,108596,2,0,P|427:195|438:237,1,80,8|0,0:0|0:0,0:0:0:0:
396,335,108960,6,0,B|341:358|300:293|243:335,1,160,0|10,0:0|0:0,0:0:0:0:
146,359,109505,1,0,0:0:0:0:
184,272,109687,2,0,P|189:232|185:192,1,80,0|8,0:0|0:0,0:0:0:0:
100,169,110051,1,8,0:0:0:0:
160,98,110233,2,0,P|237:81|315:104,1,160,2|0,0:0|0:0,0:0:0:0:
381,200,110778,6,0,P|416:165|431:124,1,80,10|0,0:0|0:0,0:0:0:0:
262,190,111142,2,0,P|274:237|302:271,1,80
379,315,111505,2,0,P|418:312|456:324,1,80,10|0,2:0|2:0,2:0:0:0:
381,200,111869,5,8,0:0:0:0:
381,200,112051,1,8,0:0:0:0:
228,317,112415,1,8,0:0:0:0:
228,317,112596,1,8,0:0:0:0:
213,123,112960,1,8,0:0:0:0:
213,123,113142,1,8,0:0:0:0:
174,32,113505,6,0,P|124:135|200:226,1,240
256,192,114778,12,0,120778,0:0:0:0:
