osu file format v14

[General]
AudioFilename: audio.ogg
AudioLeadIn: 0
PreviewTime: 60857
Countdown: 0
SampleSet: Soft
StackLeniency: 0.7
Mode: 0
LetterboxInBreaks: 0
WidescreenStoryboard: 1

[Editor]
DistanceSpacing: 1.5
BeatDivisor: 8
GridSize: 16
TimelineZoom: 1.4

[Metadata]
Title:Sweet Sign (TV Size)
TitleUnicode:スイートサイン (TV Size)
Artist:Misaki Nako
ArtistUnicode:岬なこ
Creator:Fuxi66
Version:Hard
Source:君のことが大大大大大好きな100人の彼女
Tags:japanese j-pop jpop pop female vocals anime ed ending kimi no koto ga daidaidaidaidaisuki na 100-nin no kanojo hyakkano 花園羽香里 hanazono hakari 院田唐音 inda karane 好本静 yoshimoto shizuka 栄逢凪乃 eiai nano 薬膳楠莉 yakuzen kusuri
BeatmapID:4388258
BeatmapSetID:2080259

[Difficulty]
HPDrainRate:4
CircleSize:3.4
OverallDifficulty:6
ApproachRate:8
SliderMultiplier:2.6
SliderTickRate:1

[Events]
//Background and Video events
0,0,"20231018_143956.jpg",0,0
Video,0,"video.avi"
//Break Periods
//Storyboard Layer 0 (Background)
//Storyboard Layer 1 (Fail)
//Storyboard Layer 2 (Pass)
//Storyboard Layer 3 (Foreground)
//Storyboard Layer 4 (Overlay)
//Storyboard Sound Samples

[TimingPoints]
651,550.45871559633,4,2,33,43,1,0
8082,-125,4,2,33,63,0,0
8150,-125,4,2,33,5,0,0
8219,-125,4,2,33,63,0,0
9045,-125,4,2,33,83,0,0
9389,-125,4,2,33,5,0,0
9458,-100,4,2,33,73,0,0
9664,-100,4,2,33,5,0,0
9733,-100,4,2,33,73,0,0
11866,-100,4,2,33,5,0,0
11935,-100,4,2,33,73,0,0
14068,-100,4,2,33,5,0,0
14137,-100,4,2,33,73,0,0
18265,-111.111111111111,4,2,33,53,0,0
20949,-111.111111111111,4,2,33,5,0,0
21017,-111.111111111111,4,2,33,53,0,0
27004,-111.111111111111,4,2,33,5,0,0
27073,-111.111111111111,4,2,33,53,0,0
31407,-111.111111111111,4,2,33,5,0,0
31476,-111.111111111111,4,2,33,53,0,0
33678,-111.111111111111,4,2,33,63,0,0
35605,-111.111111111111,4,2,33,43,0,0
35811,-111.111111111111,4,2,33,5,0,0
35880,-99.9999999999999,4,2,33,73,0,0
36086,-99.9999999999999,4,2,33,5,0,0
36155,-99.9999999999999,4,2,33,73,0,0
38288,-99.9999999999999,4,2,33,5,0,0
38357,-99.9999999999999,4,2,33,73,0,0
39389,-99.9999999999999,4,2,33,5,0,0
39458,-99.9999999999999,4,2,33,73,0,0
43862,-125,4,2,33,33,0,0
44618,-125,4,2,33,5,0,0
44687,-142.857142857143,4,2,33,43,0,0
53426,-142.857142857143,4,2,33,5,0,0
53495,-111.111111111111,4,2,33,63,0,0
58380,-111.111111111111,4,2,33,5,0,0
58449,-111.111111111111,4,2,33,63,0,0
58724,-111.111111111111,4,2,33,66,0,0
58999,-111.111111111111,4,2,33,69,0,0
59274,-111.111111111111,4,2,33,72,0,0
59550,-111.111111111111,4,2,33,75,0,0
62027,-111.111111111111,4,2,33,53,0,0
62233,-111.111111111111,4,2,33,5,0,0
62302,-90.9090909090908,4,2,33,83,0,1
64160,-90.9090909090908,4,2,33,5,0,1
64228,-90.9090909090908,4,2,33,83,0,1
64710,-90.9090909090908,4,2,33,5,0,1
64779,-90.9090909090908,4,2,33,83,0,1
65949,-90.9090909090908,4,2,33,5,0,1
66017,-90.9090909090908,4,2,33,83,0,1
68563,-90.9090909090908,4,2,33,5,0,1
68632,-90.9090909090908,4,2,33,83,0,1
69114,-90.9090909090908,4,2,33,5,0,1
69183,-90.9090909090908,4,2,33,83,0,1
70077,-90.9090909090908,4,2,33,5,0,1
70146,-90.9090909090908,4,2,33,83,0,1
71316,-90.9090909090908,4,2,33,5,0,1
71384,-90.9090909090908,4,2,33,87,0,1
71591,-90.9090909090908,4,2,33,5,0,1
71660,-90.9090909090908,4,2,33,93,0,1
72073,-90.9090909090908,4,2,33,83,0,1
74481,-90.9090909090908,4,2,33,5,0,1
74550,-90.9090909090908,4,2,33,83,0,1
79022,-90.9090909090908,4,2,33,5,0,1
79091,-90.9090909090908,4,2,33,83,0,1
79573,-90.9090909090908,4,2,33,5,0,1
79641,-90.9090909090908,4,2,33,83,0,1
79917,-100,4,2,33,73,0,0
80123,-100,4,2,33,5,0,0
80192,-100,4,2,33,73,0,0
82325,-100,4,2,33,5,0,0
82394,-100,4,2,33,73,0,0
84527,-100,4,2,33,5,0,0
84595,-100,4,2,33,73,0,0

[Colours]
Combo1 : 136,202,230
Combo2 : 248,197,126
Combo3 : 247,117,221
Combo4 : 100,135,217
Combo5 : 203,156,228
Combo6 : 255,138,138
Combo7 : 130,227,142
Combo8 : 191,191,191

[HitObjects]
50,111,8082,21,8,0:2:0:0:
13,39,8219,1,0,1:2:0:0:
90,180,8495,102,0,P|136:187|159:191,1,52,0|0,1:2|0:0,0:0:0:0:
195,247,8770,1,0,1:2:0:0:
219,87,9045,70,0,P|219:135|293:176,1,130,4|0,1:2|0:2,0:2:0:0:
322,148,9458,70,0,B|357:129|397:150|380:154|411:175|446:157,1,130,6|10,1:2|0:3,0:2:0:0:
507,233,9871,1,0,1:2:0:0:
463,319,10008,2,0,P|414:306|387:300,1,65,10|0,0:2|0:2,0:2:0:0:
310,261,10284,2,0,P|261:274|234:280,1,65,6|2,0:3|1:2,0:0:0:0:
150,263,10559,2,0,B|152:299|140:327|140:327|174:340|193:373,2,130,2|2|10,0:2|1:2|0:2,0:2:0:0:
87,187,11247,2,0,P|129:208|211:175,1,130,0|0,1:2|0:2,0:2:0:0:
295,217,11660,6,0,P|307:168|319:141,1,65,2|0,1:2|0:0,0:2:0:0:
388,93,11935,2,0,P|398:123|405:155,1,65,10|0,0:3|1:2,0:0:0:0:
490,204,12210,2,0,P|466:260|447:352,1,130,10|4,0:2|0:3,0:2:0:0:
366,375,12623,1,0,1:2:0:0:
366,375,12761,2,0,P|322:374|296:359,1,65,2|0,0:2|0:2,0:2:0:0:
282,269,13036,2,0,B|246:250|212:272|227:275|192:296|157:278,1,130,10|10,0:2|0:2,0:2:0:0:
91,351,13449,1,10,3:0:0:0:
7,301,13586,2,0,P|19:260|30:231,1,65,2|0,0:2|0:2,0:2:0:0:
1,143,13862,6,0,B|37:145|65:133|65:133|78:167|111:186,1,130,2|10,1:2|0:3,0:2:0:0:
155,265,14274,1,0,1:2:0:0:
237,213,14412,2,0,P|227:159|217:130,1,65,10|0,0:2|0:2,0:2:0:0:
242,53,14687,2,0,P|280:27|323:33,1,65,6|2,0:3|1:2,0:0:0:0:
380,78,14962,2,0,B|431:89|431:89|454:117|454:117|513:132,2,130,2|10|8,0:2|0:2|1:2,0:2:0:0:
299,133,15650,2,0,P|255:142|221:152,2,65,8|4|4,0:3|0:3|0:3,0:0:0:0:
380,186,16063,86,0,B|436:240|406:306|406:306|402:273|360:248,1,195,6|2,1:2|0:2,0:2:0:0:
318,330,16614,2,0,B|282:348|249:322|266:322|228:302|193:320,1,130,10|8,0:2|3:0,0:2:0:0:
127,381,17027,1,8,3:0:0:0:
127,381,17164,2,0,P|75:362|52:359,1,65,8|4,0:3|0:3,0:0:0:0:
1,296,17439,2,0,P|51:261|50:181,1,130,4|8,0:3|3:0,0:0:0:0:
253,195,17990,2,0,P|216:210|178:226,1,65,4|4,3:0|3:0,0:0:0:0:
136,151,18265,102,0,P|196:125|309:81,1,175.499994644165,6|0,1:2|0:2,0:2:0:0:
342,8,18816,2,0,P|378:39|381:113,1,116.999996429443,10|2,0:2|0:2,0:2:0:0:
322,167,19228,2,0,P|302:217|297:244,1,58.4999982147217,2|0,1:2|0:2,0:2:0:0:
271,304,19504,1,2,0:2:0:0:
435,363,19779,2,0,B|406:297|459:248|458:262|507:223|475:144,1,233.999992858887,2|0,0:2|0:2,0:0:0:0:
502,62,20467,38,0,P|461:114|347:111,1,175.499994644165,2|0,1:2|0:0,0:2:0:0:
300,51,21017,2,0,P|244:21|185:30,1,116.999996429443,10|2,0:2|0:2,0:2:0:0:
140,97,21430,2,0,P|93:83|66:82,1,58.4999982147217,2|0,1:2|0:2,0:2:0:0:
26,14,21706,1,2,0:2:0:0:
90,177,21981,2,0,B|170:194|170:194|204:250|204:250|294:269,1,233.999992858887,2|0,0:2|0:2,0:0:0:0:
365,224,22669,1,0,1:2:0:0:
241,348,22944,70,0,P|191:339|160:331,1,58.4999982147217,2|0,0:2|0:2,0:2:0:0:
102,371,23219,2,0,P|129:325|105:259,1,116.999996429443,10|2,0:2|0:2,0:2:0:0:
23,114,23770,2,0,P|-4:68|20:2,1,116.999996429443,2|2,0:2|1:2,0:2:0:0:
88,54,24183,2,0,P|150:61|267:88,1,175.499994644165,2|0,0:2|0:0,0:0:0:0:
385,210,24871,2,0,P|366:265|350:321,1,116.999996429443,2|2,1:2|0:2,0:2:0:0:
475,199,25421,2,0,P|453:124|433:69,1,116.999996429443,10|2,0:2|0:2,0:2:0:0:
477,10,25834,1,8,0:3:0:0:
477,10,25972,1,2,1:2:0:0:
317,76,26247,2,0,P|263:63|238:60,1,58.4999982147217,2|10,1:2|0:2,0:0:0:0:
188,113,26522,1,8,0:2:0:0:
238,185,26660,2,0,P|246:241|215:289,1,116.999996429443,2|0,1:2|0:0,0:2:0:0:
269,358,27073,102,0,P|207:321|95:305,1,175.499994644165,6|0,1:2|0:2,0:2:0:0:
42,364,27623,2,0,P|20:315|38:250,1,116.999996429443,10|2,0:2|0:2,0:2:0:0:
112,214,28036,2,0,P|128:180|127:152,1,58.4999982147217,2|0,1:2|0:2,0:2:0:0:
90,80,28311,1,2,0:2:0:0:
222,203,28586,1,2,0:2:0:0:
222,203,28724,2,0,B|279:218|311:179|292:179|329:136|379:155,1,175.499994644165,8|0,0:2|0:2,0:2:0:0:
436,88,29274,70,0,P|467:149|411:241,1,175.499994644165,2|0,1:2|0:2,0:2:0:0:
459,315,29825,2,0,P|409:295|331:280,1,116.999996429443,10|2,0:2|0:2,0:2:0:0:
273,233,30238,2,0,P|220:246|203:248,1,58.4999982147217,2|0,1:2|0:2,0:2:0:0:
162,315,30513,1,2,0:2:0:0:
20,221,30788,1,2,0:2:0:0:
20,221,30926,2,0,B|66:207|108:227|108:227|145:210|163:160,1,175.499994644165,10|0,0:2|0:0,0:2:0:0:
138,78,31476,38,0,B|145:118|175:143|175:143|218:121|273:132,1,175.499994644165,2|0,1:2|0:2,0:2:0:0:
340,76,32027,2,0,P|360:131|365:146,1,58.4999982147217,10|0,0:2|0:2,0:2:0:0:
314,206,32302,1,2,0:2:0:0:
427,339,32577,2,0,P|383:300|314:308,1,116.999996429443,2|2,0:2|1:2,0:0:0:0:
253,348,32990,2,0,P|208:337|178:328,1,58.4999982147217,2|8,0:2|0:2,0:0:0:0:
177,248,33265,2,0,P|222:259|252:268,2,58.4999982147217,8|8|8,0:2|0:3|0:3,0:0:0:0:
98,299,33678,70,0,B|59:250|89:199|91:220|133:177|80:118,1,175.499994644165,6|8,1:2|3:0,0:2:0:0:
98,91,34160,1,0,1:2:0:0:
98,91,34228,2,0,P|132:69|166:72,1,58.4999982147217,6|0,1:2|0:0,0:2:0:0:
224,125,34504,2,0,P|258:147|292:144,1,58.4999982147217,8|8,0:2|0:2,0:0:0:0:
337,217,34779,2,0,P|276:233|211:258,1,116.999996429443,2|8,1:2|0:2,0:0:0:0:
166,325,35192,1,0,1:2:0:0:
166,325,35329,2,0,P|128:312|100:301,2,58.4999982147217,10|8|4,0:2|0:2|0:3,0:0:0:0:
340,378,35880,70,0,B|384:361|384:361|419:375|419:375|485:354,1,130,4|2,1:2|1:2,0:2:0:0:
487,276,36293,1,0,0:2:0:0:
487,276,36430,2,0,P|432:262|414:256,1,65,10|2,0:2|0:2,0:0:0:0:
361,192,36706,2,0,P|306:206|288:212,1,65,2|0,0:2|1:2,0:2:0:0:
240,279,36981,2,0,P|263:233|226:155,1,130,2|2,0:2|1:2,0:2:0:0:
166,220,37394,2,0,P|109:205|87:203,1,65,2|8,0:2|0:2,0:2:0:0:
92,113,37669,2,0,P|123:118|157:127,1,65,2|0,1:2|0:2,0:2:0:0:
241,167,37944,1,4,0:3:0:0:
241,167,38082,70,0,P|310:151|377:138,1,130,2|2,1:2|0:2,0:2:0:0:
505,20,38632,2,0,P|486:74|480:107,1,65,10|10,0:2|0:3,0:0:0:0:
458,169,38907,2,0,P|477:223|483:256,1,65,2|2,0:2|1:2,0:0:0:0:
436,312,39183,2,0,P|370:298|309:334,1,130,2|10,0:2|0:2,0:2:0:0:
140,372,39733,2,0,P|125:323|111:296,1,65,10|0,0:2|1:2,0:0:0:0:
46,255,40008,2,0,B|81:236|99:214|99:214|127:231|173:231,1,130,6|6,0:3|1:2,0:2:0:0:
338,263,40559,38,0,P|318:308|312:331,1,65,2|2,0:2|0:2,0:0:0:0:
225,298,40834,2,0,P|234:267|249:237,1,65,10|2,0:2|0:2,0:0:0:0:
302,164,41109,2,0,P|249:198|180:177,1,130,2|2,0:2|0:2,0:0:0:0:
204,97,41521,1,4,0:3:0:0:
204,97,41659,1,0,1:2:0:0:
24,66,41935,2,0,P|10:20|-4:-7,2,65,8|0|2,0:2|1:2|0:2,0:0:0:0:
107,122,42348,1,4,0:3:0:0:
107,122,42485,69,2,1:2:0:0:
230,154,42761,37,2,1:2:0:0:
350,181,43036,69,2,1:2:0:0:
350,181,43862,38,0,P|363:228|370:249,1,52,0|0,1:2|1:2,0:2:0:0:
453,258,44137,2,0,P|438:193|407:93,1,156,4|0,3:0|0:0,0:2:0:0:
363,41,44687,6,0,B|287:3|221:62|250:78|200:133|101:90,1,272.999991668701,6|0,1:2|1:2,0:2:0:0:
26,233,45788,2,0,P|73:243|132:260,1,90.9999972229005,2|0,0:2|1:2,0:2:0:0:
230,371,46339,2,0,L|270:355,4,22.7499993057251,0|0|0|0|0,3:0|3:0|3:0|3:0|3:0,3:0:0:0:
378,302,46889,38,0,B|443:263|455:167|395:121|303:146|310:227|347:225,1,272.999991668701,2|0,1:2|1:2,0:2:0:0:
235,352,47990,2,0,P|200:295|220:221,1,136.499995834351,2|0,0:2|1:2,0:2:0:0:
272,172,48540,2,0,P|307:115|287:41,1,136.499995834351,10|0,0:2|0:2,0:2:0:0:
222,8,49091,70,0,B|154:40|142:114|142:114|114:41|24:36,1,272.999991668701,2|0,1:2|1:2,0:2:0:0:
93,192,50192,2,0,P|169:206|193:194,1,90.9999972229005,2|2,0:2|1:2,0:2:0:0:
308,101,50742,2,0,P|332:90|354:90,2,45.4999986114502,0|0|0,3:3|3:3|3:3,3:3:0:0:
453,176,51293,2,0,P|472:143|451:91,1,90.9999972229005,2|0,1:2|0:2,0:2:0:0:
417,254,51843,2,0,P|436:286|491:294,1,90.9999972229005,2|4,1:2|0:3,0:2:0:0:
364,185,52394,2,0,P|325:185|291:229,1,90.9999972229005,2|4,1:2|0:3,0:2:0:0:
217,367,52944,1,8,3:0:0:0:
200,355,53219,2,0,P|189:306|186:297,1,45.4999986114502,4|0,0:3|0:0,0:2:0:0:
109,274,53495,6,0,P|130:199|137:144,1,116.999996429443,4|2,1:2|0:2,0:2:0:0:
209,112,53907,1,0,0:2:0:0:
209,112,54045,2,0,P|212:56|146:10,1,116.999996429443,10|2,0:2|0:2,0:2:0:0:
7,76,54595,2,0,P|25:109|49:199,1,116.999996429443,2|2,1:2|0:2,0:2:0:0:
20,271,55008,1,2,0:2:0:0:
20,271,55146,2,0,P|57:237|132:242,1,116.999996429443,8|0,0:2|0:0,0:2:0:0:
260,342,55696,6,0,P|297:376|372:371,1,116.999996429443,2|2,1:2|0:2,0:2:0:0:
440,338,56109,1,0,0:2:0:0:
440,338,56247,2,0,P|453:286|458:272,1,58.4999982147217,10|0,0:2|0:0,0:2:0:0:
414,203,56522,1,2,1:2:0:0:
337,246,56660,2,0,P|279:248|235:211,1,116.999996429443,10|8,0:2|0:2,0:0:0:0:
261,127,57073,1,8,0:2:0:0:
155,266,57348,1,0,1:2:0:0:
155,266,57485,1,8,3:0:0:0:
70,241,57623,2,0,P|57:194|47:170,1,58.4999982147217,4|4,3:0|3:0,0:0:0:0:
136,110,57898,101,6,1:2:0:0:
146,131,58173,2,0,P|186:145|217:138,1,58.4999982147217,4|0,0:3|0:0,0:0:0:0:
302,110,58449,2,0,P|286:160|283:177,1,58.4999982147217,8|0,0:3|0:2,0:2:0:0:
206,236,58724,2,0,P|222:286|225:303,1,58.4999982147217,4|0,0:3|0:2,0:2:0:0:
295,368,58999,2,0,P|343:325|408:334,1,116.999996429443,8|4,0:3|0:3,0:2:0:0:
487,178,59550,2,0,P|473:221|467:250,1,58.4999982147217,8|8,0:2|0:2,0:0:0:0:
486,324,59825,1,8,0:2:0:0:
486,324,59962,1,8,0:2:0:0:
486,324,62027,69,2,0:2:0:0:
469,339,62302,102,0,B|395:318|395:318|369:267|369:267|287:243,1,214.500006546021,6|0,1:2|0:2,0:2:0:0:
187,219,62852,2,0,P|209:281|211:300,1,71.5000021820069,10|0,0:2|0:0,0:2:0:0:
134,363,63128,1,2,0:2:0:0:
31,334,63265,2,0,P|39:299|53:266,1,71.5000021820069,2|0,1:2|0:2,0:2:0:0:
25,162,63540,2,0,P|59:211|157:203,1,143.000004364014,2|0,1:2|1:2,0:2:0:0:
201,130,63953,1,8,0:2:0:0:
225,342,64228,2,0,P|275:322|313:314,1,71.5000021820069,10|0,0:3|0:2,0:2:0:0:
398,337,64504,22,0,P|410:287|403:262,1,71.5000021820069,2|0,1:2|0:0,0:2:0:0:
316,208,64779,2,0,P|304:158|311:133,1,71.5000021820069,2|0,0:2|0:2,0:2:0:0:
279,35,65054,2,0,B|333:21|356:46|344:52|371:89|443:66,1,143.000004364014,10|2,0:2|0:2,0:2:0:0:
509,30,65467,2,0,P|491:79|487:112,1,71.5000021820069,2|0,1:2|0:2,0:2:0:0:
398,157,65742,2,0,P|423:218|439:295,1,143.000004364014,2|2,1:2|1:2,0:2:0:0:
501,380,66155,1,10,0:2:0:0:
286,383,66430,2,0,P|290:337|315:306,1,71.5000021820069,8|0,0:3|0:2,0:2:0:0:
316,208,66706,6,0,B|239:172|175:223|175:223|216:228|233:267,1,214.500006546021,2|0,1:2|0:2,0:2:0:0:
185,354,67256,2,0,P|130:343|107:339,1,71.5000021820069,10|0,0:2|0:0,0:2:0:0:
55,250,67531,1,2,0:2:0:0:
151,215,67669,2,0,P|140:160|136:137,1,71.5000021820069,2|0,1:2|0:2,0:2:0:0:
184,48,67944,2,0,P|116:100|49:86,1,143.000004364014,2|0,1:2|1:2,0:2:0:0:
6,1,68357,1,8,0:2:0:0:
43,212,68632,2,0,P|84:221|119:235,1,71.5000021820069,10|0,0:3|0:2,0:2:0:0:
177,316,68907,6,0,P|221:308|259:272,1,71.5000021820069,2|0,1:2|0:0,0:2:0:0:
350,298,69183,2,0,P|342:254|306:216,1,71.5000021820069,2|0,0:2|0:2,0:2:0:0:
228,189,69458,2,0,P|210:140|256:57,1,143.000004364014,10|2,0:2|0:2,0:2:0:0:
344,15,69871,2,0,P|392:25|435:38,1,71.5000021820069,2|0,1:2|0:0,0:2:0:0:
474,119,70146,2,0,P|426:129|383:142,1,71.5000021820069,8|0,0:3|1:2,0:2:0:0:
346,225,70421,1,0,1:2:0:0:
254,153,70559,2,0,P|199:138|166:133,1,71.5000021820069,12|0,0:2|0:2,0:2:0:0:
81,166,70834,1,6,0:3:0:0:
56,270,70972,1,4,0:3:0:0:
121,354,71109,70,0,P|180:335|239:321,1,107.25000327301,6|0,1:2|0:2,0:2:0:0:
276,337,71384,102,0,P|245:299|268:228,1,107.25000327301,6|0,0:2|0:2,0:2:0:0:
290,204,71660,22,0,B|344:216|344:216|365:249|365:249|438:265,1,143.000004364014,14|0,0:2|0:2,0:2:0:0:
484,339,72073,2,0,P|511:293|509:252,1,71.5000021820069,2|0,1:2|0:2,0:2:0:0:
464,185,72348,1,10,0:2:0:0:
464,185,72485,2,0,P|437:139|439:98,1,71.5000021820069,2|2,1:2|1:2,0:0:0:0:
473,20,72761,2,0,P|439:70|336:71,1,143.000004364014,10|8,0:2|0:3,0:2:0:0:
275,40,73173,1,4,0:3:0:0:
275,40,73242,1,4,0:3:0:0:
275,40,73311,6,0,B|236:94|272:154|272:127|329:181|268:267,1,214.500006546021,6|0,1:2|0:2,0:2:0:0:
310,346,73862,2,0,P|247:323|220:319,1,71.5000021820069,10|0,0:2|0:2,0:2:0:0:
151,378,74137,1,2,1:2:0:0:
81,296,74274,2,0,P|166:271|185:201,1,143.000004364014,6|2,0:2|1:2,0:2:0:0:
110,150,74687,2,0,P|93:108|86:76,1,71.5000021820069,6|2,0:3|1:2,0:0:0:0:
193,100,74962,2,0,P|229:40|297:30,1,143.000004364014,10|10,0:2|0:3,0:2:0:0:
370,110,75375,1,2,1:2:0:0:
317,227,75513,6,0,B|247:212|247:212|194:252|194:252|115:238,1,214.500006546021,6|0,1:2|1:2,0:2:0:0:
44,316,76063,1,10,0:2:0:0:
13,102,76339,2,0,B|80:103|108:143|108:143|124:97|195:66,1,214.500006546021,6|4,1:2|0:3,0:2:0:0:
270,7,76889,2,0,P|335:29|362:35,1,71.5000021820069,2|0,1:2|0:2,0:2:0:0:
363,126,77164,1,8,0:2:0:0:
166,97,77439,70,0,P|200:174|216:309,1,214.500006546021,6|8,1:2|0:3,0:2:0:0:
302,355,77990,2,0,P|350:332|386:327,1,71.5000021820069,2|0,1:2|0:2,0:2:0:0:
453,380,78265,2,0,B|463:344|485:319|485:319|452:292|431:232,1,143.000004364014,2|6,1:2|0:3,0:2:0:0:
501,169,78678,1,4,0:3:0:0:
419,99,78816,2,0,B|370:84|348:116|362:117|338:152|279:139,1,143.000004364014,6|6,1:2|0:3,0:2:0:0:
190,104,79228,1,4,0:3:0:0:
154,205,79366,2,0,P|171:254|177:281,1,71.5000021820069,6|0,1:2|0:0,0:2:0:0:
109,358,79641,1,6,0:3:0:0:
109,358,79779,1,4,0:3:0:0:
28,286,79917,102,0,P|50:211|67:155,1,130,4|10,1:2|0:3,0:2:0:0:
47,65,80330,1,0,1:2:0:0:
136,31,80467,2,0,P|149:80|155:107,1,65,10|0,0:2|0:2,0:2:0:0:
238,141,80743,2,0,P|225:190|219:217,1,65,6|2,0:3|1:2,0:0:0:0:
240,299,81018,2,0,B|204:297|176:309|176:309|163:275|135:259,2,130,2|2|10,0:2|1:2|0:2,0:2:0:0:
293,380,81706,2,0,P|361:359|439:347,1,130,0|0,1:2|0:2,0:2:0:0:
495,289,82118,22,0,P|502:252|490:223,1,65,0|0,1:2|0:0,0:2:0:0:
407,178,82394,2,0,P|400:141|412:112,1,65,10|0,0:3|1:2,0:0:0:0:
371,25,82669,2,0,B|321:39|321:39|301:72|301:72|249:85,1,130,10|0,0:2|0:2,0:2:0:0:
171,62,83082,1,4,0:3:0:0:
171,62,83220,2,0,P|172:106|187:132,1,65,2|0,1:2|0:2,0:2:0:0:
209,217,83495,2,0,B|173:236|140:210|157:210|119:190|84:208,1,130,10|10,0:2|0:2,0:2:0:0:
12,272,83908,1,2,1:2:0:0:
53,359,84045,2,0,P|93:344|123:336,1,65,2|0,0:2|0:2,0:2:0:0:
210,319,84320,6,0,P|305:348|347:359,1,130,2|10,1:2|0:3,0:2:0:0:
421,310,84733,1,0,1:2:0:0:
397,215,84871,2,0,P|347:223|321:230,1,65,10|0,0:2|0:2,0:2:0:0:
238,203,85146,2,0,P|213:163|216:140,1,65,6|2,0:3|1:2,0:0:0:0:
227,50,85421,2,0,B|278:61|278:61|301:89|301:89|360:104,2,130,2|8|8,0:2|0:2|0:2,0:2:0:0:
141,94,86109,1,8,3:0:0:0:
141,94,86247,2,0,P|97:103|62:110,1,65,4|4,3:0|3:0,0:0:0:0:
187,171,86522,1,8,0:2:0:0:
