osu file format v14

[General]
AudioFilename: audio.ogg
AudioLeadIn: 0
PreviewTime: 61885
Countdown: 0
SampleSet: Soft
StackLeniency: 0.7
Mode: 2
LetterboxInBreaks: 0
WidescreenStoryboard: 1

[Editor]
DistanceSpacing: 1.5
BeatDivisor: 4
GridSize: 16
TimelineZoom: 1.3

[Metadata]
Title:Sweet Sign (TV Size)
TitleUnicode:スイートサイン (TV Size)
Artist:Misaki Nako
ArtistUnicode:岬なこ
Creator:Des9
Version:Salad
Source:君のことが大大大大大好きな100人の彼女
Tags:japanese j-pop jpop pop female vocals anime ed ending kimi no koto ga daidaidaidaidaisuki na 100-nin no kanojo hyakkano 花園羽香里 hanazono hakari 院田唐音 inda karane 好本静 yoshimoto shizuka 栄逢凪乃 eiai nano 薬膳楠莉 yakuzen kusuri oml4 Osu! Master League 4 ro16 round of 16 FL1 Flashlight 1 Destructor09 Fuxi66
BeatmapID:4508480
BeatmapSetID:2141997

[Difficulty]
HPDrainRate:3
CircleSize:3
OverallDifficulty:6
ApproachRate:6
SliderMultiplier:2.5
SliderTickRate:1

[Events]
//Background and Video events
0,0,"bg.jpg",0,0
Video,0,"vid.avi"
//Break Periods
//Storyboard Layer 0 (Background)
//Storyboard Layer 1 (Fail)
//Storyboard Layer 2 (Pass)
//Storyboard Layer 3 (Foreground)
//Storyboard Layer 4 (Overlay)
//Storyboard Sound Samples

[TimingPoints]
647,550.45871559633,4,2,33,43,1,0
5050,-100,4,2,33,19,0,0
5601,-100,4,2,33,27,0,0
6151,-100,4,2,33,35,0,0
6702,-100,4,2,33,43,0,0
7252,-100,4,2,33,51,0,0
7802,-100,4,2,33,59,0,0
8353,-100,4,2,33,67,0,0
8903,-100,4,2,33,75,0,0
9041,-100,4,2,33,83,0,0
9385,-100,4,2,33,5,0,0
9454,-100,4,2,33,73,0,0
9660,-100,4,2,33,5,0,0
9729,-100,4,2,33,73,0,0
11862,-100,4,2,33,5,0,0
11931,-100,4,2,33,73,0,0
13789,-100,4,2,33,5,0,0
13858,-100,4,2,33,73,0,0
14064,-100,4,2,33,5,0,0
14133,-100,4,2,33,73,0,0
18261,-100,4,2,33,53,0,0
20945,-100,4,2,33,5,0,0
21013,-100,4,2,33,53,0,0
27000,-100,4,2,33,5,0,0
27069,-100,4,2,33,53,0,0
31403,-100,4,2,33,5,0,0
31472,-100,4,2,33,53,0,0
33674,-100,4,2,33,63,0,0
35601,-100,4,2,33,43,0,0
35807,-100,4,2,33,5,0,0
35876,-100,4,2,33,73,0,0
36082,-100,4,2,33,5,0,0
36151,-100,4,2,33,73,0,0
38284,-100,4,2,33,5,0,0
38353,-100,4,2,33,73,0,0
39385,-100,4,2,33,5,0,0
39454,-100,4,2,33,73,0,0
43858,-100,4,2,33,33,0,0
44614,-100,4,2,33,5,0,0
44683,-100,4,2,33,43,0,0
53422,-100,4,2,33,5,0,0
53491,-100,4,2,33,63,0,0
58376,-100,4,2,33,5,0,0
58445,-100,4,2,33,63,0,0
58720,-100,4,2,33,66,0,0
58995,-100,4,2,33,69,0,0
59270,-100,4,2,33,72,0,0
59546,-100,4,2,33,75,0,0
62023,-100,4,2,33,53,0,0
62229,-100,4,2,33,5,0,0
62298,-100,4,2,33,83,0,1
64156,-100,4,2,33,5,0,1
64224,-100,4,2,33,83,0,1
64431,-100,4,2,33,5,0,1
64500,-100,4,2,33,83,0,1
64706,-100,4,2,33,5,0,1
64775,-100,4,2,33,83,0,1
65945,-100,4,2,33,5,0,1
66013,-100,4,2,33,83,0,1
66358,-100,4,2,33,5,0,1
66426,-100,4,2,33,83,0,1
68559,-100,4,2,33,5,0,1
68628,-100,4,2,33,83,0,1
69110,-100,4,2,33,5,0,1
69179,-100,4,2,33,83,0,1
70073,-100,4,2,33,5,0,1
70142,-100,4,2,33,83,0,1
71312,-100,4,2,33,5,0,1
71380,-100,4,2,33,87,0,1
71587,-100,4,2,33,5,0,1
71656,-100,4,2,33,93,0,1
72069,-100,4,2,33,83,0,1
74477,-100,4,2,33,5,0,1
74546,-100,4,2,33,83,0,1
79018,-100,4,2,33,5,0,1
79087,-100,4,2,33,83,0,1
79569,-100,4,2,33,5,0,1
79637,-100,4,2,33,83,0,1
79913,-100,4,2,33,73,0,0
80119,-100,4,2,33,5,0,0
80188,-100,4,2,33,73,0,0
82321,-100,4,2,33,5,0,0
82390,-100,4,2,33,73,0,0
84247,-100,4,2,33,5,0,0
84316,-100,4,2,33,73,0,0
84523,-100,4,2,33,5,0,0
84591,-100,4,2,33,73,0,0

[Colours]
Combo1 : 206,64,85
Combo2 : 237,197,73
Combo3 : 234,157,181
Combo4 : 102,112,174
Combo5 : 203,156,228

[HitObjects]
256,192,5050,12,0,9041,0:2:0:0:
383,249,9454,6,0,L|400:106,1,125,6|10,1:2|0:3,0:0:0:0:
273,244,10004,2,0,L|266:111,1,125,10|6,0:2|0:3,0:0:0:0:
392,192,10555,2,0,L|499:113,1,125,2|2,0:2|1:2,0:0:0:0:
271,151,11105,1,10,0:2:0:0:
19,259,11656,6,0,L|137:153,1,125,2|10,1:2|0:3,0:0:0:0:
333,140,12206,1,10,0:2:0:0:
493,259,12757,6,0,L|375:153,1,125,2|10,0:2|0:2,0:0:0:0:
179,140,13307,1,10,0:2:0:0:
35,237,13858,6,0,L|163:124,1,125,2|10,1:2|0:3,0:0:0:0:
253,231,14408,2,0,L|252:86,1,125,10|6,0:2|0:3,0:0:0:0:
123,133,14958,2,0,L|30:218,1,125,2|10,0:2|0:2,0:0:0:0:
253,154,15509,1,8,1:2:0:0:
65,191,16059,5,6,1:2:0:0:
155,191,16335,1,0,0:2:0:0:
367,193,16610,1,10,0:2:0:0:
155,191,17160,5,8,0:3:0:0:
65,191,17435,1,4,0:3:0:0:
277,193,17711,1,8,3:0:0:0:
93,280,18261,6,0,P|29:175|114:115,1,250,6|10,1:2|0:2,0:0:0:0:
225,114,19087,1,2,0:2:0:0:
100,122,19362,2,0,L|92:254,1,125,0|0,0:2|1:2,0:0:0:0:
313,223,19913,1,8,0:2:0:0:
117,196,20463,6,0,L|336:53,1,250,2|10,1:2|0:2,0:0:0:0:
214,158,21289,1,2,0:2:0:0:
320,175,21564,2,0,L|309:43,1,125,0|0,0:2|1:2,0:0:0:0:
90,75,22114,1,8,0:2:0:0:
245,80,22665,5,0,1:2:0:0:
345,80,22940,2,0,L|313:245,1,125,2|10,0:2|0:2,0:0:0:0:
221,96,23491,1,2,0:2:0:0:
96,108,23766,2,0,L|118:254,1,125,2|2,0:2|1:2,0:0:0:0:
330,218,24316,1,8,0:2:0:0:
481,248,24867,6,0,L|481:120,1,125,2|2,1:2|0:2,0:0:0:0:
352,197,25417,2,0,L|232:115,1,125,10|2,0:2|0:2,0:0:0:0:
375,206,25968,2,0,L|495:124,1,125,2|2,1:2|1:2,0:0:0:0:
257,178,26518,1,8,0:2:0:0:
419,280,27069,6,0,P|483:175|398:115,1,250,6|10,1:2|0:2,0:0:0:0:
301,115,27894,1,2,0:2:0:0:
412,122,28169,2,0,L|421:253,1,125,0|0,0:2|1:2,0:0:0:0:
199,223,28720,1,8,0:2:0:0:
395,196,29270,6,0,L|176:53,1,250,2|10,1:2|0:2,0:0:0:0:
284,158,30096,1,2,0:2:0:0:
191,176,30371,2,0,L|202:44,1,125,0|0,0:2|1:2,0:0:0:0:
422,75,30922,1,10,0:2:0:0:
209,204,31472,6,0,L|204:74,1,125,2|0,1:2|0:0,0:0:0:0:
91,203,32023,2,0,L|90:55,1,125,10|2,0:2|0:2,0:0:0:0:
204,79,32573,2,0,L|323:204,1,125,2|2,0:2|1:2,0:0:0:0:
65,181,33124,1,8,0:2:0:0:
168,192,33674,6,0,L|165:60,1,125,6|0,1:2|0:0,0:0:0:0:
37,72,34224,2,0,L|317:153,1,250,6|2,1:2|1:2,0:0:0:0:
26,137,35325,1,10,0:2:0:0:
408,288,35876,6,0,P|484:186|399:114,1,250,4|10,1:2|0:2,0:0:0:0:
286,114,36702,1,2,0:2:0:0:
65,116,36977,2,0,L|41:309,1,187.5,2|2,0:2|0:2,0:0:0:0:
168,292,37665,1,2,1:2:0:0:
388,285,37940,6,0,P|388:193|284:147,1,187.5,4|2,0:3|0:2,0:0:0:0:
185,146,38628,1,10,0:2:0:0:
62,145,38903,1,2,0:2:0:0:
281,315,39179,2,0,P|274:197|132:168,1,250,2|10,0:2|0:2,0:0:0:0:
37,92,40004,1,6,0:3:0:0:
259,265,40280,6,0,P|316:215|251:63,1,250,6|10,1:2|0:2,0:0:0:0:
141,72,41105,1,2,0:2:0:0:
269,203,41380,2,0,L|263:78,1,125,2|0,0:2|1:2,0:0:0:0:
137,206,41931,2,0,L|141:69,1,125,8|2,0:2|0:2,0:0:0:0:
367,191,42481,5,2,1:2:0:0:
279,191,42757,1,2,1:2:0:0:
192,187,43032,1,2,1:2:0:0:
218,178,44133,5,4,3:0:0:0:
394,320,44683,6,0,P|474:179|395:122,1,250,6|0,1:2|0:0,0:0:0:0:
336,140,45509,1,0,1:2:0:0:
239,141,45784,2,0,L|236:269,1,125,2|0,0:2|1:2,0:0:0:0:
335,264,46335,1,0,3:0:0:0:
335,264,46610,1,0,3:0:0:0:
122,320,46885,6,0,P|83:236|82:69,1,250,2|0,1:2|0:0,0:0:0:0:
191,81,47711,1,0,1:2:0:0:
78,87,47986,2,0,L|71:222,1,125,2|0,0:2|0:0,0:0:0:0:
293,198,48536,1,10,0:2:0:0:
118,320,49087,6,0,P|38:179|117:122,1,250,2|0,1:2|0:0,0:0:0:0:
176,140,49913,1,0,1:2:0:0:
273,141,50188,2,0,L|276:269,1,125,2|2,0:2|1:2,0:0:0:0:
169,258,50738,1,0,3:0:0:0:
169,258,51013,1,0,3:0:0:0:
397,261,51289,6,0,L|392:117,1,125,2|0,1:2|0:2,0:0:0:0:
268,270,51839,2,0,L|276:108,1,125,2|4,1:2|0:3,0:0:0:0:
404,259,52390,2,0,L|401:123,1,125,2|4,1:2|0:3,0:0:0:0:
180,147,52940,1,8,3:0:0:0:
392,150,53491,5,4,1:2:0:0:
286,144,53766,1,2,0:2:0:0:
180,160,54041,2,0,L|180:293,1,125,10|2,0:2|0:2,0:0:0:0:
285,216,54591,2,0,L|176:330,1,125,2|2,1:2|0:2,0:0:0:0:
93,264,55142,2,0,L|93:114,1,125,8|0,0:2|0:0,0:0:0:0:
316,149,55692,6,0,L|445:229,2,125,2|2|10,1:2|0:2|0:2,0:0:0:0:
191,153,56518,1,2,1:2:0:0:
314,154,56793,2,0,L|58:153,1,250,0|0,1:2|1:2,0:0:0:0:
64,153,57619,1,4,3:0:0:0:
285,256,57894,6,0,L|281:128,1,125,6|0,1:2|0:0,0:0:0:0:
167,263,58445,2,0,L|173:131,1,125,8|4,0:3|0:3,0:0:0:0:
301,270,58995,2,0,L|329:122,1,125,8|4,0:3|0:3,0:0:0:0:
98,284,59546,1,8,0:2:0:0:
49,227,59683,1,8,0:2:0:0:
49,171,59821,1,8,0:2:0:0:
99,122,59958,1,8,0:2:0:0:
209,144,62298,6,0,L|46:143,1,125,6|2,1:2|0:2,0:0:0:0:
302,237,62848,2,0,P|299:151|259:118,1,125,10|2,0:2|0:2,0:0:0:0:
198,84,63261,2,0,L|325:31,1,125,2|2,1:2|1:2,0:0:0:0:
91,54,63812,1,0,1:2:0:0:
34,78,63949,2,0,L|184:75,1,125,8|10,0:2|0:3,0:0:0:0:
381,85,64500,5,2,1:2:0:0:
255,80,64775,1,2,0:2:0:0:
375,220,65050,2,0,P|419:162|390:104,1,125,10|2,0:2|0:2,0:0:0:0:
341,110,65463,2,0,L|205:108,1,125,2|2,1:2|1:2,0:0:0:0:
437,209,66013,1,2,1:2:0:0:
500,94,66151,2,4,L|500:240,1,125,10|8,0:2|0:3,0:0:0:0:
278,208,66702,6,0,L|144:207,2,125,2|2|10,1:2|0:2|0:2,0:0:0:0:
403,54,67527,1,2,0:2:0:0:
460,78,67665,2,0,L|310:75,1,125,2|2,1:2|1:2,0:0:0:0:
113,78,68215,1,0,1:2:0:0:
36,79,68353,2,0,P|4:126|56:188,1,125,8|10,0:2|0:3,0:0:0:0:
252,193,68903,5,2,1:2:0:0:
378,191,69179,1,2,0:2:0:0:
252,193,69454,2,0,P|213:144|265:137,1,125,10|2,0:2|0:2,0:0:0:0:
321,186,69867,2,0,L|319:40,1,125,2|8,1:2|0:3,0:0:0:0:
107,241,70417,1,0,1:2:0:0:
38,241,70555,2,0,L|94:122,1,125,10|6,0:2|0:3,0:0:0:0:
303,144,71105,6,0,L|466:143,1,125,6|6,1:2|0:2,0:0:0:0:
210,237,71656,2,0,P|213:151|253:118,1,125,14|0,0:2|0:2,0:0:0:0:
314,84,72069,2,0,L|187:31,1,125,2|10,1:2|0:2,0:0:0:0:
421,54,72619,1,2,1:2:0:0:
478,78,72757,2,0,L|328:75,1,125,10|8,0:2|0:3,0:0:0:0:
131,85,73307,5,6,1:2:0:0:
257,80,73582,1,0,0:0:0:0:
137,220,73858,2,0,P|93:162|122:104,1,125,10|2,0:2|1:2,0:0:0:0:
171,110,74270,2,0,L|307:108,1,125,6|2,0:2|1:2,0:0:0:0:
75,209,74821,1,2,1:2:0:0:
12,94,74958,2,4,L|12:240,1,125,10|10,0:2|0:3,0:0:0:0:
234,208,75509,6,0,L|517:204,1,250,6|10,1:2|0:2,0:0:0:0:
258,60,76335,2,0,P|248:151|388:224,1,250,6|2,1:2|1:2,0:0:0:0:
494,224,77160,1,8,0:2:0:0:
269,162,77435,6,0,P|141:216|132:324,1,250,6|2,1:2|1:2,0:0:0:0:
254,150,78261,2,0,L|126:152,1,125,2|6,1:2|0:3,0:0:0:0:
350,235,78812,2,0,L|357:95,1,125,6|6,1:2|0:3,0:0:0:0:
231,103,79362,2,0,L|362:104,1,125,6|6,1:2|0:3,0:0:0:0:
129,249,79913,6,0,L|112:106,1,125,4|10,1:2|0:3,0:0:0:0:
239,244,80463,2,0,L|246:111,1,125,10|6,0:2|0:3,0:0:0:0:
120,192,81013,2,0,L|13:113,1,125,2|2,0:2|1:2,0:0:0:0:
241,151,81564,1,10,0:2:0:0:
493,259,82114,6,0,L|375:153,1,125,0|10,1:2|0:3,0:0:0:0:
179,140,82665,1,10,0:2:0:0:
19,259,83215,6,0,L|137:153,1,125,2|10,1:2|0:2,0:0:0:0:
333,140,83766,1,10,0:2:0:0:
477,237,84316,6,0,L|349:124,1,125,2|0,1:2|0:0,0:0:0:0:
259,231,84867,2,0,L|260:86,1,125,10|6,0:2|0:3,0:0:0:0:
389,133,85417,2,0,L|482:218,1,125,2|8,0:2|0:2,0:0:0:0:
259,154,85968,1,8,0:2:0:0:
434,193,86518,5,8,0:2:0:0:
333,192,86793,1,0,0:2:0:0:
462,192,87069,1,10,0:2:0:0:
37,195,87619,5,8,0:2:0:0:
162,195,87894,1,4,0:3:0:0:
286,197,88169,1,8,0:2:0:0:
