osu file format v14

[General]
AudioFilename: audio.mp3
AudioLeadIn: 0
PreviewTime: 178327
Countdown: 0
SampleSet: Soft
StackLeniency: 0.7
Mode: 0
LetterboxInBreaks: 0
WidescreenStoryboard: 0

[Editor]
DistanceSpacing: 1.3
BeatDivisor: 4
GridSize: 16
TimelineZoom: 1.94

[Metadata]
Title:little flapping
TitleUnicode:little flapping
Artist:Misaki
ArtistUnicode:岬
Creator:Garden
Version:Hard
Source:ランドセルシンドローム
Tags:dored irohas pumpkingdom randoseru syndrome mochi no otoshigo eroge visual novel opening video game japanese
BeatmapID:2329989
BeatmapSetID:939958

[Difficulty]
HPDrainRate:5
CircleSize:4
OverallDifficulty:6
ApproachRate:7.5
SliderMultiplier:1.4
SliderTickRate:1

[Events]
//Background and Video events
0,0,"1weW.jpg",0,0
//Break Periods
2,115880,124561
2,227410,231326
//Storyboard Layer 0 (Background)
//Storyboard Layer 1 (Fail)
//Storyboard Layer 2 (Pass)
//Storyboard Layer 3 (Foreground)
//Storyboard Layer 4 (Overlay)
//Storyboard Sound Samples

[TimingPoints]
243,413.793103448276,4,2,1,35,1,0
656,410.95890410959,4,2,1,35,1,0
1066,413.793103448276,4,2,1,35,1,0
1066,-100,4,2,1,35,0,0
1479,-100,4,2,1,25,0,0
1893,-100,4,2,1,35,0,0
2100,-100,4,2,1,10,0,0
2307,413.793103448276,4,2,1,35,1,0
2307,-100,4,2,1,35,0,0
2509,-100,4,2,1,10,0,0
2712,-100,4,2,1,35,0,0
2720,416.666666666667,4,2,1,35,1,0
3136,410.958904109589,4,2,1,35,1,0
3545,419.58041958042,4,2,1,35,1,0
3964,410.958904109589,4,2,1,35,1,0
4374,413.793103448276,4,2,1,35,1,0
4374,-100,4,2,1,35,0,0
4787,-100,4,2,1,25,0,0
5201,-100,4,2,1,35,0,0
5408,-100,4,2,1,10,0,0
5615,416.666666666667,4,2,1,30,1,0
5615,-100,4,2,1,35,0,0
5823,-100,4,2,1,10,0,0
6031,410.958904109589,4,2,1,25,1,0
6031,-100,4,2,1,35,0,0
6852,416.666666666667,4,2,1,35,1,0
7685,410.958904109589,4,2,1,35,1,0
7685,-100,4,2,1,35,0,0
8095,-100,4,2,1,10,0,0
8506,422.535211267606,4,2,1,35,1,0
8506,-100,4,2,1,35,0,0
8928,410.958904109589,4,2,1,35,1,0
9338,413.793103448276,4,2,1,35,1,0
9751,416.666666666667,4,2,1,35,1,0
10167,422.535211267606,4,2,1,35,1,0
10589,419.58041958042,4,2,1,35,1,0
11002,410.958904109589,4,2,1,35,1,0
12645,419.58041958042,4,2,1,35,1,0
13485,397.350993377483,4,2,1,35,1,0
13882,425.531914893617,4,2,1,35,1,0
14311,428.57142857143,4,2,1,35,1,0
14311,-100,4,2,1,35,0,0
14739,-100,4,2,1,10,0,0
15168,461.538461538463,4,2,1,35,1,0
15168,-100,4,2,1,35,0,0
15629,468.75,4,2,1,35,1,0
16097,512.820512820513,4,2,1,35,1,0
16097,-100,4,2,1,35,0,0
16609,517.241379310345,4,2,1,35,1,0
17126,555.555555555556,4,2,1,35,1,0
17681,588.235294117648,4,2,1,35,1,0
18269,352.941176470588,4,2,1,35,1,0
18269,-100,4,2,1,35,0,0
18798,357.142857142857,4,2,1,35,1,0
19155,361.44578313253,4,2,1,35,1,0
19516,342.857142857143,4,2,1,35,1,0
19858,361.44578313253,4,2,1,35,1,0
20219,344.827586206897,4,2,1,35,1,0
20563,352.941176470588,4,2,1,35,1,0
21621,357.142857142857,4,2,1,35,1,0
21978,350.877192982456,4,2,1,35,1,0
22328,352.941176470588,4,2,1,35,1,0
22504,352.941176470588,4,2,1,35,1,0
23563,-100,4,2,1,60,0,0
38033,-100,4,2,1,45,0,0
47916,-100,4,2,1,50,0,0
49327,-100,4,2,1,55,0,0
86033,-100,4,2,1,60,0,0
88857,-133.333333333333,4,2,1,60,0,0
89563,-100,4,2,1,50,0,0
90268,-100,4,2,1,75,0,1
111445,-100,4,2,1,60,0,0
112151,-100,4,2,1,50,0,0
112857,-100,4,2,1,50,0,0
126974,-100,4,2,1,45,0,0
136857,-100,4,2,1,50,0,0
138268,-100,4,2,1,55,0,0
174974,-100,4,2,1,60,0,0
177798,-133.333333333333,4,2,1,60,0,0
178504,-100,4,2,1,50,0,0
179209,-100,4,2,1,75,0,1
200386,-100,4,2,1,60,0,0
201092,-100,4,2,1,50,0,0
204621,-133.333333333333,4,2,1,50,0,0
206739,-100,4,2,1,50,0,0
207445,-133.333333333333,4,2,1,50,0,0
212386,-100,4,2,1,50,0,0
213092,-133.333333333333,4,2,1,50,0,0
214151,-100,4,2,1,50,0,0
214857,-100,4,2,1,60,0,0
215916,-100,4,2,1,65,0,0
224033,-100,4,2,1,70,0,0
225886,-100,4,2,1,55,0,0
227210,-100,4,2,1,45,0,0
232151,-133.333333333333,4,2,1,65,0,0
232857,-100,4,2,1,75,0,0
236739,-133.333333333333,4,2,1,75,0,0
237445,-100,4,2,1,75,0,0
238503,-100,4,2,1,80,0,1
248386,-100,4,2,1,75,0,0
249798,-100,4,2,1,80,0,1
270974,365.853658536585,4,2,1,35,1,0
270974,-100,4,2,1,60,0,0
271065,-100,4,2,1,5,0,0
273443,-100,4,2,1,35,0,0
274266,444.444444444444,4,2,1,35,1,0
274266,-133.333333333333,4,2,1,40,0,0
274710,400,4,2,1,35,1,0
275110,405.405405405405,4,2,1,35,1,0
275110,-133.333333333333,4,2,1,35,0,0
275920,422.535211267605,4,2,1,35,1,0
275920,-133.333333333333,4,2,1,35,0,0
277187,399.999999999999,4,2,1,35,1,0
277187,-133.333333333333,4,2,1,35,0,0
277487,-133.333333333333,4,2,1,5,0,0
277587,-133.333333333333,4,2,1,40,0,0
277987,422.535211267606,4,2,1,35,1,0
278409,444.444444444443,4,2,1,35,1,0
278409,-133.333333333333,4,2,1,35,0,0
278836,-133.333333333333,4,2,1,35,0,0
278853,428.571428571427,4,2,1,35,1,0
279264,-133.333333333333,4,2,1,35,0,0
279281,566.037735849054,4,2,1,35,1,0
279334,-133.333333333333,4,2,1,10,0,0
279830,606.060606060603,4,2,1,5,1,0

[Colours]
Combo1 : 145,194,255
Combo2 : 145,255,255

[HitObjects]
45,332,18269,6,0,P|113:317|186:305,1,140,2|2,0:0|0:0,0:0:0:0:
261,351,18798,2,0,P|335:346|371:270,1,140,2|2,0:0|0:0,0:0:0:0:
370,296,19516,6,0,P|356:227|347:157,1,140,2|0,0:0|0:0,0:0:0:0:
410,92,20038,1,2,0:0:0:0:
410,92,20219,2,0,P|367:39|299:37,1,140,2|2,0:0|0:0,0:0:0:0:
213,7,20739,2,0,P|206:45|200:94,1,70,2|2,0:0|0:0,0:0:0:0:
224,164,21092,6,0,P|158:155|64:148,1,140,2|2,0:0|0:0,0:0:0:0:
10,96,21621,1,2,0:0:0:0:
14,83,21978,1,2,0:0:0:0:
152,244,22328,1,2,0:0:0:0:
256,192,22416,12,8,23563,1:0:0:0:
357,335,23916,6,0,P|438:319|464:268,2,140,12|2|10,0:0|1:2|0:0,0:0:0:0:
277,291,24798,1,10,0:0:0:0:
219,361,24975,1,0,1:0:0:0:
137,319,25151,6,0,P|139:251|148:160,1,140,12|8,0:0|0:0,0:0:0:0:
66,144,25680,1,0,1:0:0:0:
66,144,25857,2,0,P|154:132|187:81,1,140,2|10,0:0|0:0,0:0:0:0:
218,11,26386,2,0,P|253:22|298:35,1,70,2|8,1:2|0:0,0:0:0:0:
335,107,26739,6,0,P|412:85|494:66,2,140,12|0|10,0:0|1:0|0:0,0:0:0:0:
259,158,27622,1,10,0:0:0:0:
326,219,27798,1,0,1:0:0:0:
247,264,27975,6,0,P|171:269|110:216,1,140,12|8,0:0|0:0,0:0:0:0:
33,244,28504,1,0,1:0:0:0:
33,244,28680,2,0,P|46:176|61:91,1,140,2|10,0:0|0:0,0:0:0:0:
161,36,29210,2,0,P|155:71|150:106,1,70,0|2,1:0|0:0,0:0:0:0:
229,159,29563,5,12,0:0:0:0:
229,159,29739,2,0,P|287:144|299:120,1,70,10|0,0:0|1:0,0:0:0:0:
336,59,30092,2,0,P|404:61|455:106,1,140,12|8,0:0|0:0,0:0:0:0:
487,192,30622,2,0,P|477:231|469:263,1,70,2|0,1:2|0:0,0:0:0:0:
365,340,30975,5,12,0:0:0:0:
365,340,31151,2,0,P|382:302|373:266,1,70,10|0,0:0|1:0,0:0:0:0:
311,212,31504,2,0,P|271:251|176:248,1,140,12|8,0:0|0:0,0:0:0:0:
100,270,32033,2,0,P|106:235|114:201,1,70,2|0,1:2|0:0,0:0:0:0:
137,113,32386,6,0,P|63:127|0:137,2,140,12|0|8,0:0|1:0|0:0,0:0:0:0:
227,143,33269,1,8,0:0:0:0:
227,143,33445,2,0,P|230:105|238:67,1,70,0|0,1:0|0:0,0:0:0:0:
310,19,33798,6,0,P|394:27|425:92,1,140,10|0,0:0|1:0,0:0:0:0:
486,239,34504,2,0,L|473:293,2,35,10|0|8,0:0|1:0|0:0,0:0:0:0:
485,147,34857,2,0,P|450:159|398:174,1,70,2|0,1:2|0:0,0:0:0:0:
373,248,35210,6,0,P|324:200|255:200,1,140,12|8,0:0|0:0,0:0:0:0:
187,261,35739,1,8,0:0:0:0:
187,261,35916,2,0,L|180:332,1,70,8|10,0:0|0:0,0:0:0:0:
88,351,36269,2,0,L|94:281,1,70,0|2,1:0|1:2,0:0:0:0:
42,212,36622,5,2,1:2:0:0:
42,212,36798,1,0,1:0:0:0:
104,145,36975,2,0,P|139:125|182:129,1,70,0|0,1:0|1:0,0:0:0:0:
196,143,37239,1,0,1:0:0:0:
196,143,37327,2,0,P|222:160|283:151,1,70,2|0,1:2|0:0,0:0:0:0:
343,123,37680,2,0,L|351:53,1,70,10|0,0:0|0:0,0:0:0:0:
274,3,38033,5,4,1:0:0:0:
196,169,38386,1,8,0:0:0:0:
196,169,38563,2,0,P|125:175|75:127,1,140,2|0,0:0|0:0,0:0:0:0:
2,183,39092,2,0,P|9:217|16:259,1,70,10|0,0:0|0:0,0:0:0:0:
96,292,39445,5,10,0:0:0:0:
110,285,39798,1,10,0:0:0:0:
196,310,40151,1,10,0:0:0:0:
210,303,40504,1,10,0:0:0:0:
293,344,40857,6,0,P|358:351|419:290,2,140,10|8|8,0:0|0:0|0:0,0:0:0:0:
293,344,41916,2,0,L|302:255,1,70,10|0,0:0|0:0,0:0:0:0:
378,228,42269,6,0,P|394:162|346:101,1,140,10|8,0:0|0:0,0:0:0:0:
361,17,42798,1,4,0:3:0:0:
361,17,42975,2,0,P|295:36|206:61,1,140,10|10,0:0|0:0,0:0:0:0:
140,22,43504,2,0,P|133:56|127:101,1,70,0|10,1:0|0:0,0:0:0:0:
19,237,44033,5,8,0:0:0:0:
19,237,44210,2,0,P|62:191|151:193,1,140,2|0,0:0|0:0,0:0:0:0:
209,239,44739,2,0,P|203:276|199:317,1,70,10|0,0:0|0:0,0:0:0:0:
215,338,45004,1,0,0:0:0:0:
215,338,45092,6,0,L|302:321,1,70,10|0,0:0|0:0,0:0:0:0:
365,284,45445,2,0,P|402:329|506:320,2,140,10|10|10,0:0|0:0|0:0,0:0:0:0:
432,222,46327,1,0,1:0:0:0:
432,222,46416,1,0,1:0:0:0:
432,222,46504,6,0,L|441:140,1,70,10|0,0:0|0:0,0:0:0:0:
500,84,46857,2,0,P|458:35|366:39,2,140,8|8|8,0:0|0:0|0:0,0:0:0:0:
439,152,47739,1,0,0:0:0:0:
354,116,47916,6,0,P|319:111|284:108,1,70,2|8,1:2|0:0,0:0:0:0:
233,32,48269,1,10,0:0:0:0:
153,77,48445,2,0,P|161:108|175:158,1,70,2|0,1:2|0:0,0:0:0:0:
217,223,48798,2,0,P|173:184|90:192,1,140,2|0,1:2|1:0,0:0:0:0:
5,178,49327,6,0,P|28:257|46:330,1,140,12|0,0:0|1:0,0:0:0:0:
116,366,49857,2,0,P|157:371|199:379,1,70,2|8,0:0|0:0,0:0:0:0:
249,311,50210,1,8,0:0:0:0:
249,311,50386,2,0,P|290:316|332:324,1,70,2|0,1:2|0:0,0:0:0:0:
394,270,50739,6,0,P|445:306|458:384,2,140,10|0|10,0:0|1:0|0:0,0:0:0:0:
313,237,51622,1,8,0:0:0:0:
313,237,51798,2,0,P|317:201|326:148,1,70,2|0,1:2|0:0,0:0:0:0:
265,96,52151,6,0,P|295:51|384:41,1,140,10|0,0:0|1:0,0:0:0:0:
469,29,52680,1,0,0:0:0:0:
469,29,52857,2,0,P|460:70|453:110,1,70,8|8,0:0|0:0,0:0:0:0:
509,171,53210,1,2,1:2:0:0:
453,243,53386,1,0,0:0:0:0:
367,210,53563,6,0,P|305:197|214:187,1,140,10|0,0:0|1:0,0:0:0:0:
149,153,54092,1,0,0:0:0:0:
149,153,54269,2,0,P|142:207|122:317,1,140,10|0,0:0|1:0,0:0:0:0:
93,380,54798,1,0,1:0:0:0:
93,380,54886,1,0,1:0:0:0:
93,380,54975,6,0,P|143:330|227:342,1,140,0|0,1:0|1:0,0:0:0:0:
285,282,55504,2,0,P|289:243|297:203,1,70,2|0,0:0|0:0,0:0:0:0:
215,179,55857,1,8,0:0:0:0:
215,179,56033,2,0,P|219:140|227:100,1,70,0|8,1:0|0:0,0:0:0:0:
184,27,56386,6,0,P|232:68|316:61,1,140,12|0,0:0|1:0,0:0:0:0:
371,2,56916,2,0,L|449:20,1,70,2|8,0:0|0:0,0:0:0:0:
444,112,57269,1,8,0:0:0:0:
444,112,57445,2,0,L|522:130,1,70,0|0,1:0|0:0,0:0:0:0:
502,264,57798,6,0,P|477:245|460:203,1,70,12|0,0:0|0:0,0:0:0:0:
376,176,58151,2,0,P|310:188|226:205,1,140,0|10,1:0|0:0,0:0:0:0:
157,172,58680,1,8,0:0:0:0:
157,172,58857,2,0,P|151:204|144:253,1,70,0|0,1:0|0:0,0:0:0:0:
177,326,59210,6,0,P|128:278|59:277,1,140,10|0,0:0|1:0,0:0:0:0:
3,109,59827,1,0,1:0:0:0:
0,123,59916,2,0,P|77:101|150:84,1,140,2|10,1:2|0:0,0:0:0:0:
135,87,60622,6,0,P|187:130|255:127,1,140,12|0,0:0|1:0,0:0:0:0:
316,196,61151,2,0,P|368:152|436:155,1,140,10|8,0:0|0:0,0:0:0:0:
506,214,61680,1,0,1:0:0:0:
437,382,62033,6,0,P|384:338|316:341,1,140,10|0,0:0|1:0,0:0:0:0:
256,273,62563,2,0,P|203:316|135:313,1,140,10|0,0:0|1:0,0:0:0:0:
51,276,63092,2,0,L|35:369,1,70,8|4,0:3|0:3,0:0:0:0:
135,225,63445,6,0,P|143:164|158:72,1,140,12|0,0:0|1:0,0:0:0:0:
244,138,63975,2,0,P|252:77|267:-15,1,140,10|8,0:0|0:0,0:0:0:0:
347,62,64504,1,0,1:0:0:0:
347,62,64857,6,0,P|441:73|471:133,1,140,10|0,0:0|1:0,0:0:0:0:
507,184,65386,2,0,P|470:191|424:204,1,70,10|0,0:0|0:0,0:0:0:0:
383,272,65739,1,8,0:0:0:0:
383,272,65916,2,0,P|349:263|314:256,1,70,8|4,0:3|0:3,0:0:0:0:
257,326,66269,6,0,P|203:369|135:365,1,140,12|0,0:0|1:0,0:0:0:0:
44,373,66798,2,0,P|54:311|66:225,1,140,10|8,0:0|0:0,0:0:0:0:
22,153,67327,1,0,1:0:0:0:
22,153,67680,6,0,P|80:106|159:119,1,140,10|0,0:0|1:0,0:0:0:0:
220,157,68210,2,0,P|226:119|236:76,1,70,10|0,0:0|0:0,0:0:0:0:
324,68,68563,1,0,1:0:0:0:
324,68,68739,2,0,P|317:30|308:-13,1,70,8|4,0:3|0:3,0:0:0:0:
408,107,69092,5,12,0:0:0:0:
289,245,69445,1,0,1:0:0:0:
289,245,69622,2,0,P|344:198|432:215,1,140,10|8,0:0|0:0,0:0:0:0:
495,229,70151,2,0,P|484:283|475:352,1,105,2|0,1:2|0:0,0:0:0:0:
496,350,70504,6,0,B|422:330|438:408|339:377,1,140,10|0,0:0|1:0,0:0:0:0:
308,327,71033,1,0,0:0:0:0:
308,327,71122,1,0,0:0:0:0:
308,327,71210,2,0,P|257:280|189:284,1,140,10|0,0:0|1:0,0:0:0:0:
346,195,71827,1,8,0:0:0:0:
355,205,71916,6,0,P|363:135|373:66,1,140,12|0,0:0|1:0,0:0:0:0:
284,0,72445,2,0,P|276:70|266:139,1,140,10|8,0:0|0:0,0:0:0:0:
195,195,72975,1,0,1:0:0:0:
195,195,73327,6,0,P|136:145|59:162,1,140,10|0,0:0|1:0,0:0:0:0:
8,209,73857,1,10,0:0:0:0:
8,209,74210,2,0,P|16:248|24:308,1,70,0|8,1:0|0:3,0:0:0:0:
90,336,74563,1,4,0:3:0:0:
159,277,74739,6,0,P|227:267|285:303,1,140,12|0,0:0|1:0,0:0:0:0:
328,384,75269,2,0,P|325:315|375:255,1,140,10|8,0:0|0:0,0:0:0:0:
459,254,75798,2,0,P|453:224|445:177,1,70,0|0,1:0|0:0,0:0:0:0:
458,161,76063,1,0,0:0:0:0:
458,161,76151,6,0,P|500:107|495:39,2,140,10|0|0,0:0|1:0|1:0,0:0:0:0:
375,151,77033,1,8,0:0:0:0:
375,151,77122,1,8,0:0:0:0:
375,151,77210,2,0,L|318:143,3,35,0|0|0|0,1:0|1:0|1:0|1:0,0:0:0:0:
311,159,77563,6,0,L|297:90,1,70,12|0,0:0|0:0,0:0:0:0:
333,6,77916,2,0,P|282:51|213:52,1,140,2|10,1:2|0:0,0:0:0:0:
196,145,78445,1,10,0:0:0:0:
196,145,78622,2,0,P|158:137|112:129,1,70,2|2,1:2|0:0,0:0:0:0:
41,99,78975,6,0,P|89:152|78:231,1,140,10|0,0:0|1:0,0:0:0:0:
14,274,79504,2,0,P|22:310|31:351,1,70,2|8,0:0|0:0,0:0:0:0:
120,321,79857,1,10,0:0:0:0:
120,321,80033,2,0,P|159:326|211:336,1,70,2|0,1:2|0:0,0:0:0:0:
272,293,80386,6,0,P|345:304|384:365,2,140,10|2|10,0:0|1:2|0:0,0:0:0:0:
198,247,81269,1,10,0:0:0:0:
198,247,81445,2,0,P|202:212|210:165,1,70,2|2,1:2|0:0,0:0:0:0:
156,102,81798,6,0,P|225:92|294:80,1,140,10|0,0:0|1:0,0:0:0:0:
347,155,82327,2,0,P|415:143|485:133,1,140,10|0,0:0|0:0,0:0:0:0:
504,44,82857,1,0,1:0:0:0:
385,239,83210,6,0,P|334:193|266:196,1,140,12|0,0:0|1:0,0:0:0:0:
183,158,83739,1,2,0:0:0:0:
183,158,83916,2,0,P|171:233|165:304,1,140,10|0,0:0|1:0,0:0:0:0:
66,349,84445,1,2,0:0:0:0:
66,349,84622,6,0,P|71:311|77:269,1,70,10|0,0:0|0:0,0:0:0:0:
44,194,84975,2,0,P|4:138|15:71,2,140,0|10|2,1:0|0:0|1:2,0:0:0:0:
150,46,86033,5,2,1:2:0:0:
150,46,86386,2,0,P|186:55|230:61,1,70,0|8,1:0|0:0,0:0:0:0:
362,22,86739,2,0,P|328:14|294:9,1,70,0|8,1:0|0:0,0:0:0:0:
273,128,87092,2,0,P|309:137|353:143,1,70,2|8,1:2|0:0,0:0:0:0:
422,100,87445,5,2,1:2:0:0:
422,100,87622,1,2,1:2:0:0:
491,167,87798,1,2,1:2:0:0:
491,167,87975,1,2,1:2:0:0:
417,221,88151,2,0,P|404:277|396:335,1,105,2|8,1:2|0:0,0:0:0:0:
411,349,88504,2,0,L|465:342,2,35,0|0|0,1:0|1:0|1:0,0:0:0:0:
308,261,88857,6,0,B|224:245|249:321|155:299,1,157.500006008148,4|0,1:0|0:0,0:0:0:0:
72,296,89563,6,0,L|82:227,1,70,2|2,0:0|0:0,0:0:0:0:
171,208,89916,2,0,L|180:138,1,70,2|2,0:0|0:0,0:0:0:0:
140,56,90269,6,0,P|191:100|260:99,1,140,12|0,0:0|1:0,0:0:0:0:
325,34,90798,1,0,0:0:0:0:
413,54,90975,2,0,P|423:92|430:139,1,70,10|0,0:0|0:1,0:0:0:0:
360,229,91327,2,0,P|351:195|345:161,1,70,2|0,1:2|0:1,0:0:0:0:
446,258,91680,6,0,P|407:312|315:306,1,140,10|0,0:0|1:0,0:0:0:0:
263,264,92210,1,0,0:0:0:0:
188,315,92386,2,0,P|181:353|178:399,1,70,10|0,0:0|0:0,0:0:0:0:
105,280,92739,2,0,P|112:242|115:196,1,70,2|0,1:2|0:0,0:0:0:0:
177,144,93092,6,0,P|126:97|58:97,2,140,10|2|10,0:0|1:2|0:0,0:0:0:0:
228,225,93975,1,0,0:0:0:0:
228,225,94151,2,0,P|271:213|314:207,1,70,2|0,1:2|0:0,0:0:0:0:
372,258,94504,6,0,P|433:255|466:204,1,105,10|8,0:0|0:0,0:0:0:0:
490,214,94857,2,0,P|479:177|468:127,1,70,0|8,1:0|0:0,0:0:0:0:
486,113,95122,1,8,0:0:0:0:
486,113,95210,2,0,P|452:101|402:81,1,70,10|0,0:0|0:0,0:0:0:0:
341,43,95563,2,0,L|352:9,2,35,2|0|0,1:2|0:0|0:0,0:0:0:0:
309,128,95916,6,0,P|277:117|223:102,1,70,12|0,0:0|0:0,0:0:0:0:
182,38,96269,2,0,P|130:32|67:105,1,140,0|10,1:0|0:0,0:0:0:0:
47,177,96798,1,8,0:0:0:0:
128,215,96975,2,0,P|122:262|119:304,1,70,2|0,1:2|0:0,0:0:0:0:
206,312,97327,6,0,P|137:323|69:343,2,140,10|0|10,0:0|1:0|0:0,0:0:0:0:
271,376,98210,1,8,0:0:0:0:
342,320,98386,2,0,P|335:288|328:232,1,70,2|0,1:2|0:0,0:0:0:0:
413,214,98739,6,0,P|451:141|422:81,1,140,12|2,0:0|1:2,0:0:0:0:
374,21,99269,1,8,0:0:0:0:
432,91,99445,2,0,L|514:74,1,70,2|0,1:2|0:0,0:0:0:0:
374,21,99798,6,0,L|237:49,1,140,12|8,0:0|1:2,0:0:0:0:
155,7,100327,1,0,0:0:0:0:
97,77,100504,2,0,P|90:112|83:163,1,70,0|8,1:0|0:0,0:0:0:0:
159,242,100857,2,0,P|165:208|171:174,1,70,10|8,0:0|0:0,0:0:0:0:
196,159,101122,1,8,0:0:0:0:
196,159,101210,2,0,L|230:152,3,35,0|0|0|0,1:0|1:0|1:0|1:0,0:0:0:0:
252,132,101563,6,0,P|323:135|370:188,1,140,12|0,0:0|1:0,0:0:0:0:
443,233,102092,1,0,0:0:0:0:
368,284,102269,2,0,P|333:287|298:292,1,70,10|0,0:0|0:0,0:0:0:0:
180,377,102622,2,0,P|215:374|250:369,1,70,2|0,1:2|0:0,0:0:0:0:
230,239,102975,6,0,P|166:248|84:256,1,140,10|0,0:0|1:0,0:0:0:0:
9,212,103504,1,0,0:0:0:0:
80,156,103680,2,0,P|94:119|88:74,1,70,10|0,0:0|0:0,0:0:0:0:
16,0,104033,2,0,P|3:31|4:66,1,70,2|0,1:2|0:0,0:0:0:0:
92,89,104386,6,0,B|175:91|138:33|244:42,1,140,10|2,0:0|1:2,0:0:0:0:
304,75,104916,1,0,0:0:0:0:
384,32,105092,2,0,P|394:95|405:186,1,140,10|2,0:0|1:2,0:0:0:0:
477,223,105622,1,0,0:0:0:0:
401,274,105798,6,0,P|354:264|288:255,1,105,10|8,0:0|0:0,0:0:0:0:
271,266,106151,1,0,1:0:0:0:
126,374,106416,1,8,0:0:0:0:
136,384,106504,2,0,P|142:348|152:306,1,70,10|0,0:0|0:0,0:0:0:0:
76,215,106857,2,0,P|70:249|63:284,1,70,0|0,1:0|0:0,0:0:0:0:
156,171,107210,6,0,P|104:126|28:136,2,140,12|0|10,0:0|1:0|0:0,0:0:0:0:
200,250,108092,1,8,0:0:0:0:
276,201,108269,2,0,P|318:191|367:183,1,70,0|0,1:0|0:0,0:0:0:0:
424,230,108622,6,0,P|402:307|445:368,2,140,10|2|10,0:0|1:2|0:0,0:0:0:0:
494,171,109504,1,8,0:0:0:0:
414,127,109680,2,0,L|404:57,1,70,2|0,1:2|0:0,0:0:0:0:
483,11,110033,5,12,0:0:0:0:
331,164,110386,2,0,L|242:155,1,70,8|8,0:0|0:0,0:0:0:0:
193,217,110739,1,0,1:0:0:0:
103,198,110916,1,0,1:0:0:0:
57,119,111092,1,0,1:0:0:0:
97,41,111269,1,0,1:0:0:0:
97,41,111357,1,0,1:0:0:0:
97,41,111445,6,0,B|179:28|147:88|245:77,1,140,14|8,0:0|0:0,0:0:0:0:
395,9,112151,1,10,0:0:0:0:
384,18,112504,1,10,0:0:0:0:
375,28,112857,6,0,P|388:109|399:188,1,140,12|8,0:0|0:0,0:0:0:0:
266,294,113563,2,0,P|335:248|401:268,2,140,2|2|8,1:2|0:0|0:0,0:0:0:0:
237,380,114445,6,0,P|165:359|85:348,1,140,0|8,1:0|0:0,0:0:0:0:
76,356,114886,1,8,0:0:0:0:
76,356,114975,2,0,P|58:329|64:272,1,70,2|0,1:2|0:0,0:0:0:0:
103,214,115327,1,2,1:2:0:0:
266,294,115680,5,4,0:1:0:0:
256,192,125386,5,2,0:0:0:0:
256,192,125475,12,0,126622,1:0:0:0:
64,193,126975,6,0,P|77:273|84:343,1,140,12|8,0:0|0:0,0:0:0:0:
177,370,127504,2,0,P|173:344|169:295,1,70,0|2,0:0|1:2,0:0:0:0:
169,300,128033,6,0,P|231:341|304:324,1,140,8|10,0:0|0:0,0:0:0:0:
351,261,128563,1,0,0:0:0:0:
351,261,128739,2,0,P|388:264|432:268,1,70,8|0,0:0|0:0,0:0:0:0:
511,183,129092,2,0,P|476:180|442:178,1,70,2|0,1:2|0:0,0:0:0:0:
398,97,129445,1,8,0:0:0:0:
398,97,129798,6,0,P|346:45|265:54,2,140,10|8|0,0:0|0:0|1:0,0:0:0:0:
243,193,130857,2,0,P|239:158|232:118,1,70,10|0,0:0|0:0,0:0:0:0:
162,66,131210,6,0,P|95:73|53:147,1,140,10|8,0:0|0:0,0:0:0:0:
10,209,131739,1,0,0:0:0:0:
10,209,131916,2,0,P|46:212|100:221,1,70,0|0,1:0|0:0,0:0:0:0:
166,242,132269,1,10,0:0:0:0:
112,316,132445,2,0,P|120:351|126:389,1,70,0|10,1:0|0:0,0:0:0:0:
277,282,132975,5,8,0:0:0:0:
277,282,133151,2,0,P|319:317|411:308,1,140,2|0,0:0|0:0,0:0:0:0:
464,248,133680,2,0,P|430:237|395:223,1,70,8|0,0:0|0:0,0:0:0:0:
370,214,133945,1,0,0:0:0:0:
370,214,134033,6,0,P|367:169|390:142,1,70,10|0,0:0|0:0,0:0:0:0:
458,102,134386,2,0,P|450:70|440:28,1,70,10|0,0:0|0:0,0:0:0:0:
339,0,134739,2,0,P|347:32|356:67,1,70,0|0,1:0|0:0,0:0:0:0:
289,129,135092,2,0,P|242:123|217:95,1,70,10|0,0:0|1:0,0:0:0:0:
214,81,135357,1,0,1:0:0:0:
214,81,135445,6,0,P|144:97|64:116,1,140,10|8,0:0|0:0,0:0:0:0:
2,279,136151,2,0,P|71:262|152:244,1,140,0|10,1:2|0:0,0:0:0:0:
210,191,136680,1,8,0:0:0:0:
273,256,136857,6,0,P|268:293|262:344,1,70,2|8,1:2|0:0,0:0:0:0:
339,376,137210,1,0,1:0:0:0:
405,314,137386,2,0,P|408:281|414:230,1,70,10|0,0:0|0:0,0:0:0:0:
380,158,137739,2,0,P|427:207|495:205,1,140,2|0,1:2|1:0,0:0:0:0:
462,120,138269,6,0,P|394:107|325:91,1,140,12|0,0:0|1:0,0:0:0:0:
234,75,138798,2,0,P|243:112|251:155,1,70,2|8,0:0|0:0,0:0:0:0:
266,237,139151,1,8,0:0:0:0:
266,237,139327,2,0,P|225:232|183:224,1,70,0|0,1:0|0:0,0:0:0:0:
106,210,139680,6,0,P|157:246|170:324,2,140,10|0|10,0:0|1:0|0:0,0:0:0:0:
18,199,140563,1,8,0:0:0:0:
18,199,140739,2,0,P|22:163|31:110,1,70,2|0,1:2|0:0,0:0:0:0:
2,41,141092,6,0,P|32:86|121:96,1,140,10|0,0:0|1:0,0:0:0:0:
194,149,141622,1,0,0:0:0:0:
194,149,141798,2,0,P|235:140|275:133,1,70,8|8,0:0|0:0,0:0:0:0:
347,169,142151,1,2,1:2:0:0:
414,108,142327,1,0,0:0:0:0:
373,26,142504,6,0,P|309:18|220:3,1,140,10|0,0:0|1:0,0:0:0:0:
151,38,143033,1,0,0:0:0:0:
151,38,143210,2,0,P|144:92|124:202,1,140,10|0,0:0|1:0,0:0:0:0:
164,270,143739,1,0,1:0:0:0:
164,270,143827,1,0,1:0:0:0:
164,270,143916,6,0,P|114:220|30:232,1,140,10|0,0:0|1:0,0:0:0:0:
15,306,144445,2,0,P|62:354|130:354,1,140,2|8,0:0|0:0,0:0:0:0:
221,343,144975,2,0,P|259:357|294:366,1,70,0|0,1:0|0:0,0:0:0:0:
366,319,145327,6,0,P|402:257|383:187,1,140,12|0,0:0|1:0,0:0:0:0:
399,102,145857,2,0,L|321:120,1,70,2|8,0:0|0:0,0:0:0:0:
289,201,146210,1,8,0:0:0:0:
289,201,146386,2,0,L|211:219,1,70,2|0,1:2|0:0,0:0:0:0:
136,181,146739,6,0,L|147:103,1,70,12|8,0:0|0:0,0:0:0:0:
110,27,147092,2,0,P|159:71|242:63,1,140,2|10,1:2|0:0,0:0:0:0:
304,15,147622,1,0,0:0:0:0:
304,15,147798,2,0,P|343:24|400:34,1,70,2|0,1:2|0:0,0:0:0:0:
456,0,148151,6,0,P|402:50|408:119,1,140,10|0,0:0|1:0,0:0:0:0:
509,244,148769,1,0,1:0:0:0:
512,258,148857,2,0,P|435:236|362:219,1,140,2|10,1:2|0:2,0:0:0:0:
287,243,149386,1,8,0:0:0:0:
221,179,149563,6,0,P|178:231|181:299,1,140,12|0,0:0|1:0,0:0:0:0:
220,382,150092,2,0,P|168:338|100:341,1,140,10|8,0:0|0:0,0:0:0:0:
17,382,150622,1,0,1:0:0:0:
100,220,150975,6,0,P|153:176|221:179,1,140,12|0,0:0|1:0,0:0:0:0:
304,217,151504,2,0,P|261:164|264:96,1,140,10|2,0:0|1:2,0:0:0:0:
321,24,152033,2,0,P|359:35|407:41,1,70,2|8,0:0|0:0,0:0:0:0:
476,14,152386,6,0,P|464:83|455:152,1,140,12|0,0:0|1:0,0:0:0:0:
364,163,152916,2,0,P|352:232|343:301,1,140,10|8,0:0|0:0,0:0:0:0:
426,340,153445,1,0,1:0:0:0:
426,340,153798,6,0,P|358:335|308:382,1,140,10|0,0:0|1:0,0:0:0:0:
233,331,154327,2,0,P|199:341|165:348,1,70,10|0,0:0|0:0,0:0:0:0:
78,360,154680,1,0,1:0:0:0:
78,360,154857,2,0,P|85:319|90:280,1,70,10|0,0:0|0:0,0:0:0:0:
46,209,155210,6,0,P|99:251|167:248,1,140,12|0,0:0|1:0,0:0:0:0:
258,240,155739,2,0,P|248:178|236:92,1,140,10|8,0:0|0:0,0:0:0:0:
159,54,156269,1,0,1:0:0:0:
159,54,156622,6,0,P|219:11|291:30,1,140,10|0,0:0|1:0,0:0:0:0:
315,107,157151,2,0,P|351:97|399:90,1,70,10|0,0:0|0:0,0:0:0:0:
477,105,157504,1,2,1:2:0:0:
477,105,157680,2,0,P|482:69|490:25,1,70,2|8,0:0|0:0,0:0:0:0:
414,173,158033,5,12,0:0:0:0:
512,336,158386,1,0,1:0:0:0:
512,336,158563,2,0,P|457:289|369:306,1,140,10|8,0:0|0:0,0:0:0:0:
313,247,159092,2,0,P|302:301|293:370,1,105,2|0,1:2|0:0,0:0:0:0:
302,377,159445,6,0,B|224:390|247:324|149:350,1,140,10|0,0:0|1:0,0:0:0:0:
94,384,159975,1,8,0:0:0:0:
94,384,160063,1,8,0:0:0:0:
94,384,160151,2,0,P|141:333|137:265,1,140,10|0,0:0|1:0,0:0:0:0:
7,142,160769,1,8,0:0:0:0:
0,154,160857,6,0,P|70:162|139:172,1,140,12|0,0:0|1:0,0:0:0:0:
223,205,161386,2,0,P|231:135|241:66,1,140,10|8,0:0|0:0,0:0:0:0:
166,13,161916,1,0,1:0:0:0:
322,168,162269,6,0,P|381:118|458:135,1,140,10|0,0:0|1:0,0:0:0:0:
508,183,162798,1,10,0:0:0:0:
508,183,163151,2,0,P|500:217|495:251,1,70,2|0,1:2|0:0,0:0:0:0:
432,317,163504,1,8,0:0:0:0:
354,270,163680,6,0,P|285:266|227:314,1,140,12|0,0:0|1:0,0:0:0:0:
176,381,164210,2,0,P|191:309|139:251,1,140,10|8,0:0|0:0,0:0:0:0:
69,225,164739,2,0,P|74:188|81:147,1,70,0|0,1:0|0:0,0:0:0:0:
106,138,165004,1,0,0:0:0:0:
106,138,165092,6,0,P|64:84|69:16,2,140,10|0|0,0:0|1:0|1:0,0:0:0:0:
198,177,165975,1,0,1:0:0:0:
198,177,166063,1,0,1:0:0:0:
198,177,166151,2,0,L|255:169,3,35,0|0|0|0,1:0|1:0|1:0|1:0,0:0:0:0:
263,173,166504,6,0,P|257:145|251:105,1,70,12|0,0:0|0:0,0:0:0:0:
213,20,166857,2,0,P|264:65|333:66,1,140,2|10,1:2|0:0,0:0:0:0:
382,148,167386,1,10,0:0:0:0:
382,148,167563,2,0,P|420:140|466:132,1,70,2|2,1:2|0:0,0:0:0:0:
511,66,167916,6,0,P|496:142|486:212,1,140,10|0,0:0|1:0,0:0:0:0:
403,240,168445,2,0,P|411:276|420:317,1,70,2|8,0:0|0:0,0:0:0:0:
359,378,168798,1,10,0:0:0:0:
359,378,168975,2,0,P|320:373|268:363,1,70,2|0,1:2|0:0,0:0:0:0:
224,304,169327,6,0,P|155:303|105:354,2,140,10|2|10,0:0|1:2|0:0,0:0:0:0:
310,267,170210,1,10,0:0:0:0:
310,267,170386,2,0,P|314:232|322:185,1,70,2|2,1:2|0:0,0:0:0:0:
349,111,170739,6,0,P|280:123|210:133,1,140,10|0,0:0|1:0,0:0:0:0:
161,55,171269,2,0,P|91:65|22:77,1,140,10|0,0:0|0:0,0:0:0:0:
0,166,171798,1,0,1:0:0:0:
0,166,172151,6,0,P|68:163|118:209,1,140,12|0,0:0|1:0,0:0:0:0:
210,187,172680,1,2,0:0:0:0:
210,187,172857,2,0,P|198:262|192:333,1,140,10|0,0:0|1:0,0:0:0:0:
278,384,173386,1,2,0:0:0:0:
278,384,173563,6,0,P|283:346|289:304,1,70,10|0,0:0|0:0,0:0:0:0:
354,252,173916,2,0,P|438:265|467:306,2,140,0|10|2,1:0|0:0|1:2,0:0:0:0:
357,73,174975,5,2,1:2:0:0:
357,73,175327,2,0,P|321:82|277:88,1,70,0|8,1:0|0:0,0:0:0:0:
194,187,175680,2,0,P|228:179|263:174,1,70,0|8,1:0|0:0,0:0:0:0:
229,19,176033,2,0,P|193:28|149:34,1,70,2|8,1:2|0:0,0:0:0:0:
78,69,176386,5,2,1:2:0:0:
78,69,176563,1,2,1:2:0:0:
113,157,176739,1,2,1:2:0:0:
113,157,176916,1,2,1:2:0:0:
28,191,177092,2,0,P|-2:246|13:295,1,105,2|8,1:2|0:0,0:0:0:0:
22,309,177445,2,0,L|7:360,2,35,0|0|0,1:0|1:0|1:0,0:0:0:0:
109,250,177798,6,0,B|199:235|168:310|262:288,1,157.500006008148,4|0,1:0|0:0,0:0:0:0:
344,299,178504,6,0,L|334:230,1,70,2|2,0:0|0:0,0:0:0:0:
247,201,178857,2,0,L|238:131,1,70,2|2,0:0|0:0,0:0:0:0:
274,47,179210,6,0,P|223:91|154:90,1,140,12|0,0:0|1:0,0:0:0:0:
87,26,179739,1,0,0:0:0:0:
25,93,179916,2,0,P|15:131|8:178,1,70,10|0,0:0|0:0,0:0:0:0:
84,239,180269,2,0,P|93:205|100:171,1,70,2|0,1:2|0:0,0:0:0:0:
0,283,180622,6,0,P|82:287|122:333,1,140,10|0,0:0|1:0,0:0:0:0:
196,277,181151,1,0,0:0:0:0:
249,350,181327,2,0,P|287:343|333:340,1,70,10|0,0:0|0:0,0:0:0:0:
404,240,181680,2,0,P|369:246|335:250,1,70,2|0,1:2|0:0,0:0:0:0:
258,189,182033,6,0,P|227:130|261:54,2,140,10|2|10,0:0|1:2|0:0,0:0:0:0:
335,250,182916,1,0,0:0:0:0:
335,250,183092,2,0,P|342:217|353:164,1,70,2|0,1:2|0:0,0:0:0:0:
428,134,183445,6,0,P|456:92|447:41,1,105,10|0,0:0|1:0,0:0:0:0:
430,18,183798,2,0,P|395:26|362:36,1,70,0|0,1:0|0:0,0:0:0:0:
342,57,184063,1,0,1:0:0:0:
342,57,184151,2,0,P|304:48|252:39,1,70,2|0,1:2|0:0,0:0:0:0:
191,81,184504,2,0,L|202:115,2,35,2|0|0,1:2|0:0|0:0,0:0:0:0:
108,26,184857,6,0,P|101:63|89:120,1,70,12|0,0:0|0:0,0:0:0:0:
11,131,185210,2,0,P|63:125|126:198,1,140,0|10,1:0|0:0,0:0:0:0:
86,265,185739,1,0,0:0:0:0:
169,302,185916,2,0,P|175:349|178:391,1,70,2|0,1:2|0:0,0:0:0:0:
265,354,186269,6,0,P|334:365|402:385,2,140,10|2|10,0:0|1:2|0:0,0:0:0:0:
298,268,187151,1,8,0:0:0:0:
216,227,187327,2,0,P|223:195|230:139,1,70,2|0,1:2|0:0,0:0:0:0:
188,76,187680,6,0,P|241:118|314:107,1,140,12|2,0:0|1:2,0:0:0:0:
371,42,188210,1,8,0:0:0:0:
454,78,188386,2,0,L|468:146,1,70,2|0,1:2|0:0,0:0:0:0:
432,325,188739,6,0,P|388:273|400:207,1,140,12|0,0:0|1:0,0:0:0:0:
468,146,189269,1,8,0:0:0:0:
400,206,189445,2,0,P|365:199|314:192,1,70,0|8,1:0|0:0,0:0:0:0:
235,268,189798,2,0,P|269:274|303:280,1,70,10|0,0:0|0:0,0:0:0:0:
328,304,190063,1,0,1:0:0:0:
328,304,190151,2,0,L|337:353,3,35,0|0|0|0,1:0|1:0|1:0|1:0,0:0:0:0:
325,369,190504,6,0,P|255:357|184:345,1,140,12|0,0:0|1:2,0:0:0:0:
102,381,191033,1,0,0:0:0:0:
40,313,191210,2,0,P|35:278|32:243,1,70,10|0,0:0|0:0,0:0:0:0:
115,174,191563,2,0,P|120:209|122:244,1,70,2|0,1:2|0:0,0:0:0:0:
32,136,191916,6,0,P|108:128|151:82,1,140,10|0,0:0|1:0,0:0:0:0:
186,0,192445,1,0,0:0:0:0:
275,14,192622,2,0,P|288:42|297:92,1,70,10|0,0:0|0:0,0:0:0:0:
202,202,192975,2,0,P|209:167|224:136,1,70,2|0,1:2|0:0,0:0:0:0:
296,80,193327,6,0,B|376:71|352:125|426:118,1,140,10|2,0:2|1:2,0:0:0:0:
492,181,193857,1,0,0:0:0:0:
502,271,194033,2,0,B|421:279|445:225|371:232,1,140,10|2,0:2|1:2,0:0:0:0:
296,283,194563,1,0,0:0:0:0:
213,244,194739,6,0,P|205:295|194:347,1,105,10|0,0:0|1:0,0:0:0:0:
178,374,195092,1,0,1:0:0:0:
10,270,195357,1,0,1:0:0:0:
0,260,195445,2,0,P|36:254|78:244,1,70,2|0,1:2|0:0,0:0:0:0:
160,170,195798,2,0,P|126:164|92:158,1,70,2|0,1:2|0:0,0:0:0:0:
207,92,196151,6,0,P|252:146|229:230,2,140,12|0|10,0:0|1:0|0:0,0:0:0:0:
122,58,197033,1,8,0:0:0:0:
193,0,197210,2,0,P|227:6|261:14,1,70,2|0,1:2|0:0,0:0:0:0:
327,77,197563,6,0,P|405:78|442:30,2,140,10|2|10,0:0|1:2|0:0,0:0:0:0:
250,126,198445,1,8,0:0:0:0:
309,194,198622,2,0,L|299:264,1,70,2|0,1:2|0:0,0:0:0:0:
203,362,198975,5,12,0:2:0:0:
203,362,199327,2,0,L|213:292,1,70,8|8,0:0|0:0,0:0:0:0:
299,263,199680,1,2,1:2:0:0:
378,307,199857,1,0,1:0:0:0:
461,272,200033,1,0,1:0:0:0:
483,189,200210,1,0,1:0:0:0:
483,189,200298,1,0,1:0:0:0:
483,189,200386,6,0,P|444:149|454:47,1,140,12|8,0:0|0:0,0:0:0:0:
296,0,200916,2,0,P|340:52|337:120,1,140,0|0,1:0|0:0,0:0:0:0:
278,189,201445,1,2,1:2:0:0:
278,189,201798,6,0,L|199:179,1,70,12|0,0:0|0:0,0:0:0:0:
121,207,202151,2,0,L|109:125,1,70,0|0,1:0|0:0,0:0:0:0:
34,97,202504,1,10,0:0:0:0:
34,97,202680,1,8,0:0:0:0:
2,182,202857,2,0,L|16:269,1,70,2|0,1:2|0:0,0:0:0:0:
89,300,203210,6,0,P|155:249|228:265,1,140,10|0,0:0|1:0,0:0:0:0:
345,351,203827,1,0,1:0:0:0:
342,365,203916,2,0,P|417:345|495:331,1,140,0|8,1:0|0:0,0:0:0:0:
509,247,204445,1,8,0:0:0:0:
427,207,204622,6,0,P|409:147|456:64,1,157.500006008148,12|2,0:0|1:2,0:0:0:0:
451,67,205327,2,0,L|515:79,1,52.5000020027161,0|2,0:0|0:0,0:0:0:0:
374,17,205680,2,0,B|288:9|321:81|209:57,1,157.500006008148,2|0,1:2|0:0,0:0:0:0:
228,60,206386,2,0,L|219:130,1,52.5000020027161,10|0,0:0|0:0,0:0:0:0:
267,191,206739,6,0,P|208:152|130:169,1,140,2|2,1:2|0:0,0:0:0:0:
75,222,207269,1,0,0:0:0:0:
15,149,207445,6,0,P|43:283|48:327,1,157.500006008148,10|2,0:0|1:2,0:0:0:0:
45,303,208151,2,0,P|19:308|-5:316,1,52.5000020027161,0|2,0:0|0:0,0:0:0:0:
120,357,208504,2,0,P|208:353|252:295,1,157.500006008148,2|10,1:2|0:0,0:0:0:0:
249,304,209210,2,0,L|234:245,1,52.5000020027161,10|0,0:0|1:0,0:0:0:0:
349,178,209563,5,2,1:2:0:0:
349,178,209739,1,0,1:0:0:0:
330,262,209916,1,10,0:0:0:0:
330,262,210092,1,10,0:0:0:0:
405,312,210269,6,0,P|422:247|441:151,1,157.500006008148,12|2,0:0|1:2,0:0:0:0:
439,158,210975,2,0,P|472:165|507:168,1,52.5000020027161
477,71,211327,2,0,P|431:119|339:117,1,157.500006008148,0|0,1:0|0:0,0:0:0:0:
344,119,212033,2,0,L|353:56,1,52.5000020027161,10|0,0:0|0:0,0:0:0:0:
272,22,212386,6,0,P|235:85|269:166,1,140,2|2,1:2|0:0,0:0:0:0:
319,206,212916,1,0,0:0:0:0:
246,265,213092,6,0,B|166:267|195:204|92:212,1,157.500006008148,10|2,0:0|1:2,0:0:0:0:
103,211,213798,2,0,L|94:285,1,52.5000020027161,0|0,0:0|0:0,0:0:0:0:
0,296,214151,5,2,1:2:0:0:
0,296,214327,2,0,L|20:149,1,140,10|8,0:0|0:0,0:0:0:0:
0,67,214857,2,0,P|32:56|73:44,1,70,6|10,1:2|0:0,0:0:0:0:
149,83,215210,1,6,1:2:0:0:
244,66,215386,1,0,1:0:0:0:
244,66,215475,1,0,1:0:0:0:
244,66,215563,2,0,L|236:120,3,35,0|0|0|0,1:0|1:0|1:0|1:0,0:0:0:0:
254,125,215916,6,0,P|310:83|381:94,2,140,12|2|10,0:0|1:2|0:0,0:0:0:0:
177,175,216798,2,0,P|184:209|192:264,1,70,8|0,0:0|1:0,0:0:0:0:
140,320,217151,1,10,0:0:0:0:
223,354,217327,6,0,P|268:342|318:333,1,70,12|0,0:0|0:0,0:0:0:0:
378,364,217680,2,0,P|445:370|491:320,1,140,2|10,1:2|0:0,0:0:0:0:
504,229,218210,1,8,0:0:0:0:
412,229,218386,2,0,P|418:197|429:145,1,70,0|0,1:0|0:0,0:0:0:0:
382,79,218739,6,0,P|428:28|496:26,2,140,12|0|10,0:0|1:0|0:0,0:0:0:0:
333,156,219622,2,0,P|290:146|248:139,1,70,8|0,0:0|1:0,0:0:0:0:
167,99,219975,6,0,L|177:169,1,70,10|0,0:0|0:0,0:0:0:0:
101,219,220327,2,0,L|109:288,1,70,10|0,0:0|1:0,0:0:0:0:
73,372,220680,2,0,P|129:325|209:333,1,140,10|8,0:0|0:0,0:0:0:0:
274,367,221210,2,0,L|323:351,3,35,2|0|0|0,1:2|1:0|1:0|1:0,0:0:0:0:
336,355,221563,6,0,P|296:302|310:221,1,140,12|0,0:0|1:0,0:0:0:0:
379,181,222092,2,0,L|399:266,1,70,10|0,0:0|0:0,0:0:0:0:
458,136,222445,1,10,0:0:0:0:
458,136,222622,2,0,L|441:67,1,70,2|0,1:2|0:0,0:0:0:0:
371,9,222975,5,10,0:0:0:0:
307,74,223151,2,0,L|222:62,1,70,10|0,0:0|1:0,0:0:0:0:
147,48,223504,1,2,0:0:0:0:
109,130,223680,2,0,L|178:139,1,70,10|0,0:2|0:0,0:0:0:0:
258,183,224033,2,0,L|263:217,3,35,2|2|2|2,1:2|1:2|1:2|1:2,0:0:0:0:
285,242,224386,6,0,P|225:234|159:290,1,140,12|0,0:0|1:0,0:0:0:0:
107,358,224916,1,2,1:2:0:0:
107,358,225004,1,2,1:2:0:0:
107,358,225092,2,0,P|141:368|199:376,1,70,2|0,1:2|1:0,0:0:0:0:
250,322,225445,1,0,1:0:0:0:
330,383,225622,1,2,1:2:0:0:
330,383,225710,1,2,1:2:0:0:
330,383,225798,5,14,1:2:0:0:
256,192,225886,12,12,227210,0:0:0:0:
104,313,232151,6,0,L|95:378,2,52.5000020027161,2|0|2,0:0|0:0|0:0,0:0:0:0:
104,313,232857,6,0,B|189:304|157:355|241:348,1,140,10|8,0:0|0:0,0:0:0:0:
312,300,233386,1,0,0:0:0:0:
312,300,233475,1,0,0:0:0:0:
312,300,233563,2,0,P|320:338|327:378,1,70,10|0,0:0|0:0,0:0:0:0:
418,384,233916,2,0,P|412:350|405:316,1,70,10|0,0:0|0:0,0:0:0:0:
471,254,234269,6,0,P|507:195|493:128,2,140,10|10|10,0:0|0:0|0:0,0:0:0:0:
390,234,235151,1,0,0:0:0:0:
390,234,235239,1,0,0:0:0:0:
390,234,235327,2,0,P|350:225|302:218,1,70,10|0,0:0|0:0,0:0:0:0:
263,290,235680,6,0,P|216:330|126:305,1,140,12|2,0:0|1:2,0:0:0:0:
88,252,236210,1,8,0:0:0:0:
6,292,236386,2,0,L|-3:373,1,70,2|0,1:2|0:0,0:0:0:0:
88,252,236739,6,0,P|139:175|115:104,1,157.500006008148,6|8,1:2|0:0,0:0:0:0:
63,48,237445,1,0,1:0:0:0:
63,48,237798,6,0,P|134:33|216:19,1,140,2|2,1:2|1:2,0:0:0:0:
299,27,238327,1,0,1:0:0:0:
299,27,238416,1,0,1:0:0:0:
299,27,238504,6,0,P|291:67|285:116,1,70,12|0,0:0|0:0,0:0:0:0:
375,118,238857,2,0,P|422:155|410:242,1,140,0|2,1:0|1:2,0:0:0:0:
354,293,239386,1,8,0:0:0:0:
427,347,239563,2,0,P|470:340|521:334,1,70,0|0,1:0|0:0,0:0:0:0:
354,293,239916,6,0,B|272:286|298:351|204:331,2,140,4|0|2,1:2|1:0|1:2,0:0:0:0:
419,229,240798,1,8,0:0:0:0:
361,158,240975,1,2,1:2:0:0:
426,94,241151,1,8,0:0:0:0:
364,27,241327,6,0,P|314:38|272:44,1,70,4|0,1:2|0:0,0:0:0:0:
262,126,241680,2,0,P|227:131|193:139,1,70,2|0,1:2|0:0,0:0:0:0:
147,220,242033,1,2,1:2:0:0:
147,220,242210,1,8,0:0:0:0:
227,271,242386,1,2,1:2:0:0:
227,271,242563,1,8,0:0:0:0:
187,352,242739,6,0,P|117:360|59:319,1,140,4|0,1:2|1:0,0:0:0:0:
1,150,243445,2,0,L|13:63,1,70,2|0,1:2|0:0,0:0:0:0:
74,15,243798,1,2,1:2:0:0:
140,76,243975,1,8,0:0:0:0:
215,24,244151,6,0,P|291:29|344:99,2,140,4|0|2,1:2|1:0|1:2,0:0:0:0:
140,76,245033,1,8,0:0:0:0:
199,145,245210,1,2,1:2:0:0:
126,199,245386,1,8,0:0:0:0:
186,266,245563,6,0,P|221:260|256:257,1,70,4|0,1:2|0:0,0:0:0:0:
324,317,245916,2,0,P|358:311|393:308,1,70,2|0,1:2|0:0,0:0:0:0:
470,260,246269,1,2,1:2:0:0:
400,200,246445,1,8,3:0:0:0:
478,155,246622,2,0,L|486:61,1,70,2|0,1:2|1:0,0:0:0:0:
473,61,246886,1,0,1:0:0:0:
473,61,246975,6,0,P|433:20|352:22,1,140,4|0,1:2|1:0,0:0:0:0:
280,75,247504,1,2,0:0:0:0:
301,163,247680,2,0,L|211:150,1,70,8|0,0:0|0:0,0:0:0:0:
149,112,248033,2,0,L|132:215,1,105,2|0,1:2|0:0,0:0:0:0:
151,241,248386,6,0,P|70:246|31:291,2,140,12|0|2,0:0|1:0|1:2,0:0:0:0:
238,292,249269,1,0,1:0:0:0:
238,292,249357,1,0,1:0:0:0:
238,292,249445,2,0,L|230:338,3,35,2|0|2|0,1:2|1:0|1:2|1:0,0:0:0:0:
252,352,249798,6,0,P|329:339|411:329,1,140,12|0,0:0|1:0,0:0:0:0:
485,356,250327,1,0,0:0:0:0:
503,259,250504,2,0,P|496:224|487:190,1,70,10|0,0:0|0:1,0:0:0:0:
373,131,250857,2,0,P|381:166|390:200,1,70,2|0,1:2|0:1,0:0:0:0:
458,81,251210,6,0,P|407:35|338:37,1,140,10|0,0:0|1:0,0:0:0:0:
244,64,251739,1,0,0:0:0:0:
304,140,251916,2,0,L|373:131,1,70,10|0,0:0|0:0,0:0:0:0:
258,227,252269,2,0,L|188:235,1,70,2|0,1:2|0:0,0:0:0:0:
325,298,252622,6,0,L|473:280,2,140,10|2|10,0:0|1:2|0:0,0:0:0:0:
253,366,253504,1,0,0:0:0:0:
177,304,253680,2,0,P|181:274|192:218,1,70,2|0,1:2|0:0,0:0:0:0:
96,199,254033,6,0,P|65:161|71:102,1,105,10|8,0:0|0:0,0:0:0:0:
89,78,254386,1,0,1:0:0:0:
167,17,254563,1,8,0:0:0:0:
167,17,254651,1,8,0:0:0:0:
167,17,254739,2,0,P|205:26|257:35,1,70,10|0,0:0|0:0,0:0:0:0:
287,114,255092,2,0,L|243:124,2,35,2|0|0,1:2|0:0|0:0,0:0:0:0:
370,166,255445,6,0,P|376:131|384:97,1,70,12|0,0:0|0:0,0:0:0:0:
454,216,255798,2,0,P|423:252|336:261,1,140,0|10,1:0|0:0,0:0:0:0:
247,215,256327,1,8,0:0:0:0:
175,282,256504,2,0,P|167:330|164:371,1,70,2|0,1:2|0:0,0:0:0:0:
61,380,256857,6,0,P|70:322|84:231,2,140,10|0|10,0:0|1:0|0:0,0:0:0:0:
165,351,257739,1,8,0:0:0:0:
183,254,257916,2,0,P|217:247|251:241,1,70,2|0,1:2|0:0,0:0:0:0:
339,198,258269,6,0,P|269:201|224:143,1,140,12|2,0:0|1:2,0:0:0:0:
265,61,258798,1,8,0:0:0:0:
177,17,258975,2,0,P|139:24|86:35,1,70,2|0,1:2|0:0,0:0:0:0:
265,61,259327,6,0,P|339:44|416:30,1,140,12|8,0:0|1:2,0:0:0:0:
491,74,259857,1,0,0:0:0:0:
425,146,260033,2,0,P|418:181|411:232,1,70,0|8,1:0|0:0,0:0:0:0:
328,305,260386,2,0,P|323:269|316:237,1,70,10|8,0:0|0:0,0:0:0:0:
291,224,260651,1,8,0:0:0:0:
291,224,260739,2,0,L|233:233,3,35,0|0|0|0,1:0|1:0|1:0|1:0,0:0:0:0:
233,258,261092,6,0,B|160:264|182:207|90:222,1,140,12|0,0:0|1:0,0:0:0:0:
32,288,261622,1,0,0:0:0:0:
0,194,261798,2,0,P|3:164|12:108,1,70,10|0,0:0|0:0,0:0:0:0:
113,43,262151,2,0,P|109:78|106:113,1,70,2|0,1:2|0:0,0:0:0:0:
182,174,262504,6,0,P|255:174|302:122,1,140,10|0,0:0|1:0,0:0:0:0:
244,47,263033,1,0,0:0:0:0:
333,3,263210,2,0,P|367:10|401:18,1,70,10|0,0:0|0:0,0:0:0:0:
496,130,263563,2,0,P|462:120|428:113,1,70,2|0,1:2|0:0,0:0:0:0:
329,111,263916,6,0,B|322:185|376:161|367:241,1,140,10|2,0:0|1:2,0:0:0:0:
268,236,264445,1,0,0:0:0:0:
277,333,264622,2,0,B|196:341|220:287|146:294,1,140,10|2,0:0|1:2,0:0:0:0:
61,342,265151,1,0,0:0:0:0:
10,258,265327,6,0,P|18:207|29:155,1,105,10|8,0:0|0:0,0:0:0:0:
43,126,265680,1,0,1:0:0:0:
191,30,265945,1,8,0:0:0:0:
181,20,266033,2,0,P|175:56|165:98,1,70,10|0,0:0|0:0,0:0:0:0:
249,143,266386,2,0,P|283:137|317:131,1,70,0|0,1:0|0:0,0:0:0:0:
384,58,266739,6,0,P|451:52|502:97,2,140,12|0|10,0:0|1:0|0:0,0:0:0:0:
318,131,267622,1,8,0:0:0:0:
401,183,267798,2,0,L|415:270,1,70,0|0,1:0|0:0,0:0:0:0:
370,340,268151,6,0,P|423:297|496:309,2,140,10|2|10,0:0|1:2|0:0,0:0:0:0:
294,276,269033,1,8,0:0:0:0:
204,315,269210,2,0,L|194:385,1,70,2|0,1:2|0:0,0:0:0:0:
294,276,269563,5,12,0:0:0:0:
112,200,269916,2,0,L|126:110,1,70,8|8,0:0|0:0,0:0:0:0:
160,40,270269,1,0,1:0:0:0:
256,18,270445,1,0,1:0:0:0:
317,94,270622,1,0,1:0:0:0:
267,181,270798,1,2,1:2:0:0:
267,181,270886,1,2,1:2:0:0:
267,181,270975,5,6,1:2:0:0:
256,192,271065,12,2,273443,0:0:0:0:
53,143,274266,6,0,P|64:194|71:246,1,105.000004005432,2|0,0:0|0:0,0:0:0:0:
194,321,275110,2,0,P|182:269|175:217,1,105.000004005432,2|0,0:0|0:0,0:0:0:0:
233,93,275920,5,2,0:0:0:0:
237,112,276342,1,0,0:0:0:0:
326,24,276765,1,2,0:0:0:0:
319,3,277187,1,0,0:0:0:0:
437,84,277587,6,0,P|387:94|320:113,1,105.000004005432,2|2,0:0|0:0,0:0:0:0:
363,248,278409,2,0,P|413:238|480:219,1,105.000004005432,2|2,0:0|0:0,0:0:0:0:
256,192,279281,5,2,0:0:0:0:
256,192,279422,12,0,283769,0:0:0:0:
