osu file format v14

[General]
AudioFilename: audio.mp3
AudioLeadIn: 0
PreviewTime: 178327
Countdown: 0
SampleSet: Soft
StackLeniency: 0.3
Mode: 0
LetterboxInBreaks: 0
WidescreenStoryboard: 1

[Editor]
Bookmarks: 2670,129401,218343,252225
DistanceSpacing: 2
BeatDivisor: 4
GridSize: 16
TimelineZoom: 2.939999

[Metadata]
Title:little flapping
TitleUnicode:little flapping
Artist:Misaki
ArtistUnicode:岬
Creator:Garden
Version:Dorhas' Insane
Source:ランドセルシンドローム
Tags:dored irohas pumpkingdom randoseru syndrome mochi no otoshigo eroge visual novel opening video game japanese
BeatmapID:2064116
BeatmapSetID:939958

[Difficulty]
HPDrainRate:6
CircleSize:4
OverallDifficulty:8
ApproachRate:9
SliderMultiplier:1.8
SliderTickRate:1

[Events]
//Background and Video events
0,0,"1weW.jpg",0,0
//Break Periods
2,115880,124786
//Storyboard Layer 0 (Background)
//Storyboard Layer 1 (Fail)
//Storyboard Layer 2 (Pass)
//Storyboard Layer 3 (Foreground)
//Storyboard Layer 4 (Overlay)
//Storyboard Sound Samples

[TimingPoints]
243,413.793103448276,4,2,1,35,1,0
656,410.95890410959,4,2,1,35,1,0
1066,413.793103448276,4,2,1,35,1,0
1066,-166.666666666667,4,2,1,35,0,0
1479,-166.666666666667,4,2,1,25,0,0
1893,-166.666666666667,4,2,1,35,0,0
2100,-166.666666666667,4,2,1,10,0,0
2307,413.793103448276,4,2,1,35,1,0
2307,-166.666666666667,4,2,1,35,0,0
2509,-166.666666666667,4,2,1,10,0,0
2712,-166.666666666667,4,2,1,35,0,0
2720,416.666666666667,4,2,1,35,1,0
3136,410.958904109589,4,2,1,35,1,0
3545,419.58041958042,4,2,1,35,1,0
3964,410.958904109589,4,2,1,35,1,0
4374,413.793103448276,4,2,1,35,1,0
4374,-166.666666666667,4,2,1,35,0,0
4787,-166.666666666667,4,2,1,25,0,0
5201,-166.666666666667,4,2,1,35,0,0
5408,-166.666666666667,4,2,1,10,0,0
5615,416.666666666667,4,2,1,30,1,0
5615,-166.666666666667,4,2,1,35,0,0
5823,-166.666666666667,4,2,1,10,0,0
6031,410.958904109589,4,2,1,25,1,0
6031,-166.666666666667,4,2,1,35,0,0
6852,416.666666666667,4,2,1,35,1,0
7685,410.958904109589,4,2,1,35,1,0
7685,-166.666666666667,4,2,1,35,0,0
8095,-166.666666666667,4,2,1,10,0,0
8506,422.535211267606,4,2,1,35,1,0
8506,-166.666666666667,4,2,1,35,0,0
8928,410.958904109589,4,2,1,35,1,0
9338,413.793103448276,4,2,1,35,1,0
9751,416.666666666667,4,2,1,35,1,0
10167,422.535211267606,4,2,1,35,1,0
10589,419.58041958042,4,2,1,35,1,0
11002,410.958904109589,4,2,1,35,1,0
12645,419.58041958042,4,2,1,35,1,0
13485,397.350993377483,4,2,1,35,1,0
13882,425.531914893617,4,2,1,35,1,0
14311,428.57142857143,4,2,1,35,1,0
14311,-166.666666666667,4,2,1,35,0,0
14739,-166.666666666667,4,2,1,10,0,0
15168,461.538461538463,4,2,1,35,1,0
15168,-166.666666666667,4,2,1,35,0,0
15629,468.75,4,2,1,35,1,0
16097,512.820512820513,4,2,1,35,1,0
16097,-166.666666666667,4,2,1,35,0,0
16609,517.241379310345,4,2,1,35,1,0
17126,555.555555555556,4,2,1,35,1,0
17681,588.235294117648,4,2,1,35,1,0
18269,352.941176470588,4,2,1,35,1,0
18269,-166.666666666667,4,2,1,35,0,0
18798,357.142857142857,4,2,1,35,1,0
19155,361.44578313253,4,2,1,35,1,0
19516,342.857142857143,4,2,1,35,1,0
19858,361.44578313253,4,2,1,35,1,0
20219,344.827586206897,4,2,1,35,1,0
20563,352.941176470588,4,2,1,35,1,0
21621,357.142857142857,4,2,1,35,1,0
21978,350.877192982456,4,2,1,35,1,0
22328,352.941176470588,4,2,1,35,1,0
22328,-166.666666666667,4,2,1,35,0,0
22504,352.941176470588,4,2,1,35,1,0
23563,-83.3333333333333,4,2,1,60,0,0
23916,-100,4,2,1,60,0,0
24180,-100,4,2,1,5,0,0
24268,-100,4,2,1,60,0,0
27004,-100,4,2,1,5,0,0
27092,-100,4,2,1,60,0,0
29827,-100,4,2,1,5,0,0
29916,-100,4,2,1,60,0,0
31239,-100,4,2,1,5,0,0
31327,-100,4,2,1,60,0,0
37592,-100,4,2,1,5,0,0
37680,-100,4,2,1,60,0,0
38033,-125,4,2,1,45,0,0
47916,-125,4,2,1,50,0,0
49327,-111.111111111111,4,2,1,55,0,0
55239,-111.111111111111,4,2,1,5,0,0
55327,-111.111111111111,4,2,1,55,0,0
70768,-111.111111111111,4,2,1,5,0,0
70857,-111.111111111111,4,2,1,55,0,0
77827,-111.111111111111,4,2,1,5,0,0
77916,-111.111111111111,4,2,1,55,0,0
80651,-111.111111111111,4,2,1,5,0,0
80739,-111.111111111111,4,2,1,55,0,0
82857,-200,4,2,1,55,0,0
83121,-200,4,2,1,5,0,0
83210,-111.111111111111,4,2,1,55,0,0
86033,-100,4,2,1,60,0,0
86298,-100,4,2,1,5,0,0
86386,-100,4,2,1,60,0,0
88857,-166.666666666667,4,2,1,60,0,0
89474,-166.666666666667,4,2,1,5,0,0
89563,-111.111111111111,4,2,1,50,0,0
90268,-90.9090909090909,4,2,1,75,0,1
90533,-90.9090909090909,4,2,1,5,0,1
90621,-90.9090909090909,4,2,1,75,0,1
93357,-90.9090909090909,4,2,1,5,0,1
93445,-90.9090909090909,4,2,1,75,0,1
94063,-90.9090909090909,4,2,1,5,0,1
94151,-90.9090909090909,4,2,1,75,0,1
96180,-90.9090909090909,4,2,1,5,0,1
96268,-90.9090909090909,4,2,1,75,0,1
99004,-90.9090909090909,4,2,1,5,0,1
99092,-90.9090909090909,4,2,1,75,0,1
100063,-90.9090909090909,4,2,1,5,0,1
100151,-90.9090909090909,4,2,1,75,0,1
101827,-90.9090909090909,4,2,1,5,0,1
101916,-90.9090909090909,4,2,1,75,0,1
104651,-90.9090909090909,4,2,1,5,0,1
104739,-90.9090909090909,4,2,1,75,0,1
105357,-90.9090909090909,4,2,1,5,0,1
105445,-90.9090909090909,4,2,1,75,0,1
107474,-90.9090909090909,4,2,1,5,0,1
107563,-90.9090909090909,4,2,1,75,0,1
110298,-90.9090909090909,4,2,1,5,0,1
110386,-90.9090909090909,4,2,1,75,0,1
111445,-142.857142857143,4,2,1,60,0,0
112151,-142.857142857143,4,2,1,50,0,0
112857,-125,4,2,1,50,0,0
126974,-125,4,2,1,45,0,0
136857,-125,4,2,1,50,0,0
137386,-83.3333333333333,4,2,1,50,0,0
137916,-100,4,2,1,50,0,0
138268,-125,4,2,1,55,0,0
143739,-100,4,2,1,55,0,0
143916,-125,4,2,1,55,0,0
144180,-125,4,2,1,5,0,0
144268,-125,4,2,1,55,0,0
146121,-125,4,2,1,5,0,0
146210,-125,4,2,1,55,0,0
149563,-133.333333333333,4,2,1,55,0,0
150092,-100,4,2,1,55,0,0
150180,-100,4,2,1,5,0,0
150445,-100,4,2,1,55,0,0
150621,-133.333333333333,4,2,1,55,0,0
152916,-100,4,2,1,55,0,0
153004,-100,4,2,1,5,0,0
153268,-100,4,2,1,55,0,0
153445,-133.333333333333,4,2,1,55,0,0
155739,-100,4,2,1,55,0,0
155827,-100,4,2,1,5,0,0
156092,-100,4,2,1,55,0,0
156268,-133.333333333333,4,2,1,55,0,0
159004,-133.333333333333,4,2,1,5,0,0
159092,-133.333333333333,4,2,1,55,0,0
161386,-100,4,2,1,55,0,0
161474,-100,4,2,1,5,0,0
161739,-133.333333333333,4,2,1,55,0,0
164210,-100,4,2,1,55,0,0
164298,-100,4,2,1,5,0,0
164563,-100,4,2,1,55,0,0
165092,-133.333333333333,4,2,1,55,0,0
166504,-117.647058823529,4,2,1,55,0,0
171798,-105.263157894737,4,2,1,55,0,0
172063,-105.263157894737,4,2,1,5,0,0
172151,-117.647058823529,4,2,1,55,0,0
173563,-105.263157894737,4,2,1,55,0,0
173827,-105.263157894737,4,2,1,5,0,0
173916,-117.64705882353,4,2,1,55,0,0
174974,-117.64705882353,4,2,1,60,0,0
178151,-117.64705882353,4,2,1,40,0,0
178504,-200,4,2,1,50,0,0
179209,-111.111111111111,4,2,1,75,0,1
179474,-111.111111111111,4,2,1,5,0,1
179563,-111.111111111111,4,2,1,75,0,1
180886,-111.111111111111,4,2,1,5,0,1
180974,-111.111111111111,4,2,1,75,0,1
182298,-111.111111111111,4,2,1,5,0,1
182386,-111.111111111111,4,2,1,75,0,1
187680,-100,4,2,1,75,0,1
189004,-100,4,2,1,5,0,1
189092,-100,4,2,1,75,0,1
189268,-111.111111111111,4,2,1,75,0,1
190768,-111.111111111111,4,2,1,5,0,1
190857,-111.111111111111,4,2,1,75,0,1
193592,-111.111111111111,4,2,1,5,0,1
193680,-111.111111111111,4,2,1,75,0,1
195798,-90.9090909090909,4,2,1,75,0,1
196151,-111.111111111111,4,2,1,75,0,1
196416,-111.111111111111,4,2,1,5,0,1
196504,-111.111111111111,4,2,1,75,0,1
200386,-181.818181818181,4,2,1,60,0,0
201092,-181.818181818181,4,2,1,50,0,0
201798,-153.846153846153,4,2,1,50,0,0
214857,-133.333333333333,4,2,1,60,0,0
215916,-100,4,2,1,65,0,0
217592,-100,4,2,1,5,0,0
217680,-100,4,2,1,65,0,0
219004,-100,4,2,1,5,0,0
219092,-100,4,2,1,65,0,0
224033,-100,4,2,1,70,0,0
225886,-100,4,2,1,55,0,0
227210,-125,4,2,1,45,0,0
232151,-125,4,2,1,65,0,0
232857,-100,4,2,1,75,0,0
236739,-142.857142857143,4,2,1,75,0,0
237445,-100,4,2,1,75,0,0
238503,-90.9090909090909,4,2,1,80,0,1
238768,-90.9090909090909,4,2,1,5,0,1
238857,-90.9090909090909,4,2,1,80,0,1
243004,-90.9090909090909,4,2,1,5,0,1
243092,-90.9090909090909,4,2,1,80,0,1
244416,-90.9090909090909,4,2,1,5,0,1
244504,-90.9090909090909,4,2,1,80,0,1
248386,-90.9090909090909,4,2,1,75,0,0
249798,-100,4,2,1,80,0,1
250063,-100,4,2,1,5,0,1
250151,-100,4,2,1,80,0,1
252886,-100,4,2,1,5,0,1
252974,-100,4,2,1,80,0,1
255710,-100,4,2,1,5,0,1
255798,-100,4,2,1,80,0,1
257474,-100,4,2,1,5,0,1
257563,-100,4,2,1,80,0,1
261357,-100,4,2,1,5,0,1
261445,-100,4,2,1,80,0,1
262063,-100,4,2,1,5,0,1
262151,-100,4,2,1,80,0,1
264180,-100,4,2,1,5,0,1
264268,-100,4,2,1,80,0,1
266386,-83.3333333333333,4,2,1,80,0,1
267004,-83.3333333333333,4,2,1,5,0,1
267092,-100,4,2,1,80,0,1
268416,-100,4,2,1,5,0,1
268504,-100,4,2,1,80,0,1
269121,-100,4,2,1,5,0,1
269210,-100,4,2,1,80,0,1
270974,365.853658536585,4,2,1,35,1,0
270974,-250,4,2,1,60,0,0
271065,-250,4,2,1,5,0,0
273443,-166.666666666667,4,2,1,35,0,0
274266,444.444444444444,4,2,1,35,1,0
274266,-166.666666666667,4,2,1,40,0,0
274710,400,4,2,1,35,1,0
275110,405.405405405405,4,2,1,35,1,0
275110,-166.666666666667,4,2,1,35,0,0
275920,422.535211267605,4,2,1,35,1,0
275920,-166.666666666667,4,2,1,35,0,0
277187,399.999999999999,4,2,1,35,1,0
277187,-166.666666666667,4,2,1,35,0,0
277487,-166.666666666667,4,2,1,5,0,0
277587,-208.333333333333,4,2,1,40,0,0
277987,422.535211267606,4,2,1,35,1,0
278409,444.444444444443,4,2,1,35,1,0
278409,-208.333333333333,4,2,1,35,0,0
278853,428.571428571427,4,2,1,35,1,0
278853,-208.333333333333,4,2,1,35,0,0
279281,566.037735849054,4,2,1,35,1,0
279281,-212.765957446809,4,2,1,35,0,0
279334,-212.765957446809,4,2,1,10,0,0
279830,606.060606060603,4,2,1,5,1,0

[Colours]
Combo1 : 145,194,255
Combo2 : 145,255,255

[HitObjects]
86,322,243,5,2,0:0:0:0:
50,245,656,1,2,0:0:0:0:
163,286,1066,6,0,P|215:277|269:267,1,107.999996704102,2|0,0:0|0:0,0:0:0:0:
334,323,1686,1,0,0:0:0:0:
380,204,1893,2,0,P|385:230|389:257,1,53.9999983520508,2|0,0:0|0:0,0:0:0:0:
454,313,2307,2,0,P|458:339|463:366,1,53.9999983520508,2|0,0:0|0:0,0:0:0:0:
510,248,2720,5,2,0:0:0:0:
510,248,3546,1,2,0:0:0:0:
495,165,3964,1,2,0:0:0:0:
406,36,4374,6,0,P|427:84|414:135,1,107.999996704102,2|2,0:0|0:0,0:0:0:0:
342,175,4994,1,0,0:0:0:0:
290,82,5201,2,0,P|316:87|343:91,1,53.9999983520508,2|0,0:0|0:0,0:0:0:0:
256,162,5615,2,0,P|229:166|202:171,1,53.9999983520508,2|0,0:0|0:0,0:0:0:0:
129,125,6031,5,2,0:0:0:0:
129,125,6852,1,2,0:0:0:0:
175,52,7268,1,0,0:0:0:0:
42,121,7685,6,0,P|51:174|60:227,1,107.999996704102,2|0,0:0|0:0,0:0:0:0:
156,371,8506,1,2,0:0:0:0:
108,299,8928,1,2,0:0:0:0:
234,217,9338,5,2,0:0:0:0:
147,222,9751,1,2,0:0:0:0:
195,294,10167,1,2,0:0:0:0:
282,289,10589,1,2,0:0:0:0:
321,212,11002,1,2,0:0:0:0:
196,307,12645,6,0,L|193:290,1,15,2|0,0:0|0:0,0:0:0:0:
273,140,13484,1,2,0:0:0:0:
234,217,13882,1,2,0:0:0:0:
247,59,14311,6,0,P|299:68|353:77,1,107.999996704102,2|0,0:0|0:0,0:0:0:0:
503,55,15168,2,0,P|461:21|408:19,1,107.999996704102,2|2,0:0|0:0,0:0:0:0:
493,135,16097,2,0,P|483:188|473:241,1,107.999996704102,2|2,0:0|0:0,0:0:0:0:
419,308,17126,1,2,0:0:0:0:
474,369,17681,1,2,0:0:0:0:
273,140,18269,5,2,0:0:0:0:
273,140,18621,1,2,0:0:0:0:
331,207,18798,1,2,0:0:0:0:
285,282,19155,1,2,0:0:0:0:
285,282,19516,5,2,0:0:0:0:
285,282,19858,1,0,0:0:0:0:
199,261,20038,1,2,0:0:0:0:
192,172,20219,1,2,0:0:0:0:
192,172,20563,5,2,0:0:0:0:
199,261,20739,1,2,0:0:0:0:
116,295,20915,1,2,0:0:0:0:
58,226,21092,5,2,0:0:0:0:
58,226,21445,1,2,0:0:0:0:
105,149,21621,1,2,0:0:0:0:
46,80,21978,1,2,0:0:0:0:
199,261,22328,6,0,B|187:271|179:296|179:296|144:250|146:188|191:150|248:148|290:173|305:208|305:236,1,323.999990112305,2|0,0:0|0:0,0:0:0:0:
371,286,23563,6,0,P|325:315|272:312,1,107.999996704102,8|0,1:0|0:0,0:0:0:0:
432,339,23828,1,8,0:0:0:0:
432,339,23916,6,0,P|452:276|419:220,1,135,12|0,0:0|0:0,0:0:0:0:
384,191,24269,2,0,P|392:146|399:102,1,90,2|0,1:2|0:0,0:0:0:0:
414,13,24622,1,10,0:0:0:0:
314,133,24798,1,10,0:0:0:0:
487,117,24975,1,0,1:0:0:0:
304,23,25151,6,0,P|215:39|126:54,1,180,12|8,0:0|0:0,0:0:0:0:
18,119,25680,1,0,1:0:0:0:
126,54,25857,2,0,P|133:98|140:142,1,90,2|8,0:0|0:0,0:0:0:0:
233,228,26210,1,10,0:0:0:0:
112,265,26386,2,0,P|67:257|23:250,1,90,2|8,1:2|0:0,0:0:0:0:
220,384,26739,6,0,P|186:327|206:264,1,135,12|0,0:0|0:0,0:0:0:0:
233,228,27092,2,0,P|277:235|321:242,1,90,0|0,1:0|0:0,0:0:0:0:
436,294,27445,1,10,0:0:0:0:
414,188,27622,1,10,0:0:0:0:
343,348,27798,1,0,1:0:0:0:
497,207,27975,6,0,P|470:125|385:114,1,180,12|8,0:0|0:0,0:0:0:0:
321,242,28504,1,0,1:0:0:0:
229,127,28680,2,0,P|222:83|215:39,1,90,2|8,0:0|0:0,0:0:0:0:
321,242,29033,1,10,0:0:0:0:
217,230,29210,1,0,1:0:0:0:
154,314,29386,1,2,0:0:0:0:
73,115,29563,6,0,P|123:156|188:146,1,135,12|0,0:0|0:0,0:0:0:0:
229,127,29916,1,0,1:0:0:0:
321,242,30092,2,0,P|328:198|335:154,1,90,12|0,0:0|0:0,0:0:0:0:
305,49,30445,1,8,0:0:0:0:
428,107,30622,2,0,P|472:112|512:92,1,90,2|0,1:2|0:0,0:0:0:0:
482,250,30975,6,0,P|427:213|364:228,1,135,12|0,0:0|0:0,0:0:0:0:
321,242,31327,1,0,1:0:0:0:
395,370,31504,2,0,P|439:377|483:384,1,90,12|0,0:0|0:0,0:0:0:0:
321,242,31857,1,8,0:0:0:0:
247,370,32033,2,0,P|203:377|159:384,1,90,2|0,1:2|0:0,0:0:0:0:
63,273,32298,1,8,0:0:0:0:
63,273,32386,6,0,P|120:209|202:234,2,180,12|0|8,0:0|1:0|0:0,0:0:0:0:
158,384,33269,1,8,0:0:0:0:
202,234,33445,2,0,P|195:190|188:146,1,90,0|0,1:0|0:0,0:0:0:0:
7,45,33798,5,10,0:0:0:0:
97,132,33975,1,8,0:0:0:0:
215,25,34151,2,0,P|171:18|127:11,1,90,0|0,1:0|0:0,0:0:0:0:
277,158,34504,1,10,0:0:0:0:
277,158,34592,1,0,1:0:0:0:
277,158,34680,1,8,0:0:0:0:
372,45,34857,2,0,P|416:52|460:59,1,90,2|0,1:2|0:0,0:0:0:0:
425,255,35210,6,0,B|418:206|393:162|354:132|354:132|359:150|358:167,1,180,12|8,0:0|0:0,0:0:0:0:
202,234,35739,1,8,0:0:0:0:
277,158,35916,1,8,0:0:0:0:
231,337,36092,1,10,0:0:0:0:
202,234,36269,1,0,1:0:0:0:
335,364,36445,1,2,1:2:0:0:
127,310,36622,5,2,1:2:0:0:
306,261,36798,1,0,1:0:0:0:
175,131,36975,1,0,1:0:0:0:
231,337,37151,1,0,1:0:0:0:
231,337,37239,1,0,1:0:0:0:
231,337,37327,2,0,P|298:330|365:325,1,135,2|0,1:2|0:0,0:0:0:0:
400,295,37680,2,0,P|407:339|414:383,1,90,10|0,0:0|0:0,0:0:0:0:
486,222,38033,6,0,P|498:292|511:363,2,144,4|8|8,1:0|0:0|0:0,0:0:0:0:
441,114,38916,1,0,0:0:0:0:
441,114,39092,2,0,P|476:120|511:126,1,72,10|0,0:0|0:0,0:0:0:0:
369,206,39445,6,0,P|334:212|299:218,1,72,10|0,0:0|0:0,0:0:0:0:
173,116,39798,2,0,P|208:110|243:104,1,72,10|0,0:0|0:0,0:0:0:0:
226,258,40151,2,0,P|220:223|214:188,1,72,10|0,0:0|0:0,0:0:0:0:
316,64,40504,2,0,P|322:99|328:134,1,72,10|0,0:0|0:0,0:0:0:0:
132,187,40857,6,0,P|92:129|110:62,2,144,10|8|8,0:0|0:0|0:0,0:0:0:0:
243,104,41739,1,0,0:0:0:0:
243,104,41916,2,0,P|208:110|173:116,1,72,10|0,0:0|0:0,0:0:0:0:
7,209,42269,6,0,P|65:169|132:187,1,144,10|8,0:0|0:0,0:0:0:0:
226,258,42798,1,4,0:3:0:0:
154,353,42975,2,0,P|119:347|84:341,1,72,10|0,0:0|0:0,0:0:0:0:
226,258,43327,1,10,0:0:0:0:
131,186,43504,1,0,1:0:0:0:
280,324,43680,6,0,P|309:260|280:197,2,144,10|8|8,0:0|0:0|0:0,0:0:0:0:
392,353,44563,1,0,0:0:0:0:
392,353,44739,2,0,P|427:347|462:341,1,72,10|0,0:0|0:0,0:0:0:0:
495,178,45092,6,0,P|488:213|482:248,1,72,10|0,0:0|0:0,0:0:0:0:
386,156,45445,2,0,P|388:191|392:227,1,72,10|0,0:0|0:0,0:0:0:0:
280,197,45798,2,0,P|291:230|304:264,1,72,10|0,0:0|0:0,0:0:0:0:
298,85,46151,1,10,0:0:0:0:
168,179,46327,1,0,1:0:0:0:
168,179,46416,1,0,1:0:0:0:
168,179,46504,6,0,P|97:166|26:153,2,144,10|8|8,0:0|0:0|0:0,0:0:0:0:
208,284,47386,1,0,0:0:0:0:
208,284,47563,2,0,P|173:290|138:296,1,72,8|0,0:0|0:0,0:0:0:0:
3,376,47916,5,2,1:2:0:0:
47,230,48092,1,8,0:0:0:0:
137,296,48269,1,10,0:0:0:0:
180,108,48445,2,0,P|174:143|168:178,1,72,2|0,1:2|0:0,0:0:0:0:
305,55,48798,2,0,P|291:125|279:196,1,144,2|0,1:2|1:0,0:0:0:0:
379,338,49327,6,0,P|380:260|446:219,1,161.999995056153,12|0,0:0|1:0,0:0:0:0:
476,109,49857,2,0,P|436:116|396:123,1,80.9999975280763,2|8,0:0|0:0,0:0:0:0:
279,196,50210,1,8,0:0:0:0:
396,123,50386,2,0,P|403:83|409:42,1,80.9999975280763,2|0,1:2|0:0,0:0:0:0:
245,42,50739,6,0,P|279:64|297:99,1,80.9999975280763,10|0,0:0|0:0,0:0:0:0:
127,147,51092,2,0,P|162:128|202:130,1,80.9999975280763,0|0,1:0|0:0,0:0:0:0:
157,302,51445,2,0,P|158:262|180:228,1,80.9999975280763,10|8,0:0|0:0,0:0:0:0:
306,353,51798,2,0,P|272:331|254:295,1,80.9999975280763,2|0,1:2|0:0,0:0:0:0:
411,229,52151,6,0,P|335:248|278:195,2,161.999995056153,10|0|8,0:0|1:0|0:0,0:0:0:0:
396,123,53033,1,8,0:0:0:0:
497,268,53210,2,0,P|502:227|510:188,1,80.9999975280763,2|0,1:2|0:0,0:0:0:0:
410,378,53563,6,0,P|330:363|250:349,1,161.999995056153,10|0,0:0|1:0,0:0:0:0:
278,195,54092,1,0,0:0:0:0:
157,302,54269,2,0,P|117:295|77:288,1,80.9999975280763,10|0,0:0|0:0,0:0:0:0:
42,309,54533,1,8,0:0:0:0:
42,309,54622,2,0,P|45:328|49:348,1,40.4999987640381,0|0,1:0|0:0,0:0:0:0:
164,187,54798,1,0,0:0:0:0:
164,187,54886,1,0,1:0:0:0:
164,187,54975,6,0,P|175:128|143:77,1,121.499996292114,0|0,1:0|0:0,0:0:0:0:
115,48,55327,1,0,1:0:0:0:
15,157,55504,2,0,P|55:150|95:143,1,80.9999975280763,2|0,0:0|0:0,0:0:0:0:
207,18,55857,1,8,0:0:0:0:
278,195,56033,2,0,P|285:155|292:115,1,80.9999975280763,0|8,1:0|0:0,0:0:0:0:
437,12,56386,6,0,P|451:91|465:171,1,161.999995056153,12|0,0:0|1:0,0:0:0:0:
512,293,56916,2,0,P|476:275|436:278,1,80.9999975280763,2|8,0:0|0:0,0:0:0:0:
328,314,57269,1,8,0:0:0:0:
278,195,57445,2,0,P|318:202|358:209,1,80.9999975280763,0|0,1:0|0:0,0:0:0:0:
172,324,57798,6,0,P|165:284|158:244,1,80.9999975280763,12|0,0:0|0:0,0:0:0:0:
15,157,58151,2,0,P|-3:193|0:233,1,80.9999975280763,0|0,1:0|0:0,0:0:0:0:
158,244,58504,1,10,0:0:0:0:
70,70,58680,1,8,0:0:0:0:
158,244,58857,1,0,1:0:0:0:
114,157,59033,1,0,0:0:0:0:
172,324,59210,6,0,P|212:317|252:310,1,80.9999975280763,10|8,0:0|0:0,0:0:0:0:
392,275,59563,2,0,P|432:282|472:289,1,80.9999975280763,0|0,1:0|0:0,0:0:0:0:
512,293,59827,1,0,1:0:0:0:
512,293,59916,2,0,P|522:331|510:369,1,80.9999975280763,2|0,1:2|0:0,0:0:0:0:
439,195,60269,2,0,P|427:155|437:117,1,80.9999975280763,10|0,0:0|0:0,0:0:0:0:
492,0,60622,6,0,P|413:20|335:40,1,161.999995056153,12|0,0:0|1:0,0:0:0:0:
278,195,61151,1,10,0:0:0:0:
300,207,61504,1,8,0:0:0:0:
164,131,61680,2,0,P|124:124|84:117,1,80.9999975280763,0|0,1:0|0:0,0:0:0:0:
322,219,62033,6,0,P|243:233|163:247,1,161.999995056153,10|0,0:0|1:0,0:0:0:0:
30,343,62563,1,10,0:0:0:0:
14,323,62916,1,0,1:0:0:0:
160,363,63092,1,8,0:3:0:0:
57,230,63269,1,4,0:3:0:0:
176,383,63445,6,0,P|244:346|252:269,1,161.999995056153,12|0,0:0|1:0,0:0:0:0:
164,131,63975,1,10,0:0:0:0:
149,150,64327,1,8,0:0:0:0:
255,26,64504,2,0,P|295:33|335:40,1,80.9999975280763,0|0,1:0|0:0,0:0:0:0:
507,110,64857,6,0,P|429:112|387:178,1,161.999995056153,10|0,0:0|1:0,0:0:0:0:
419,337,65386,1,10,0:0:0:0:
439,323,65739,1,8,0:0:0:0:
251,268,65916,1,8,0:3:0:0:
387,178,66092,1,4,0:3:0:0:
321,377,66269,6,0,P|239:369|159:362,1,161.999995056153,12|0,0:0|1:0,0:0:0:0:
57,230,66798,1,10,0:0:0:0:
46,253,67151,1,8,0:0:0:0:
216,195,67327,2,0,P|230:157|224:118,1,80.9999975280763,0|0,1:0|0:0,0:0:0:0:
51,4,67680,6,0,P|66:84|80:164,1,161.999995056153,10|0,0:0|1:0,0:0:0:0:
214,94,68210,1,10,0:0:0:0:
198,73,68563,1,0,1:0:0:0:
302,187,68739,1,8,0:3:0:0:
147,273,68916,1,4,0:3:0:0:
358,337,69092,6,0,P|371:257|386:177,1,161.999995056153,12|0,0:0|1:0,0:0:0:0:
453,30,69622,1,10,0:0:0:0:
442,52,69975,1,8,0:0:0:0:
277,86,70151,2,0,P|237:79|197:72,1,80.9999975280763,2|0,1:2|0:0,0:0:0:0:
28,140,70504,6,0,P|85:128|137:158,1,121.499996292114,10|0,0:0|0:0,0:0:0:0:
160,193,70857,2,0,P|153:233|146:273,1,80.9999975280763,0|0,1:0|0:0,0:0:0:0:
34,344,71210,2,0,P|27:304|20:264,1,80.9999975280763,10|0,0:0|0:0,0:0:0:0:
28,140,71563,1,0,1:0:0:0:
146,272,71739,1,8,0:0:0:0:
146,272,71827,1,8,0:0:0:0:
146,272,71916,6,0,P|225:258|305:243,1,161.999995056153,12|0,0:0|1:0,0:0:0:0:
404,364,72445,1,10,0:0:0:0:
382,351,72798,1,8,0:0:0:0:
504,252,72975,2,0,P|508:292|511:332,1,80.9999975280763,0|0,1:0|0:0,0:0:0:0:
376,162,73327,6,0,P|405:90|481:74,1,161.999995056153,10|0,0:0|1:0,0:0:0:0:
313,39,73857,1,10,0:0:0:0:
326,19,74210,1,0,1:0:0:0:
241,151,74386,1,8,0:3:0:0:
170,12,74563,1,4,0:3:0:0:
252,172,74739,6,0,P|212:165|172:158,1,80.9999975280763,12|0,0:0|0:0,0:0:0:0:
92,254,75092,1,0,1:0:0:0:
283,247,75269,2,0,P|331:186|308:112,1,161.999995056153,10|8,0:0|0:0,0:0:0:0:
172,158,75798,2,0,P|179:198|186:238,1,80.9999975280763,0|0,1:0|0:0,0:0:0:0:
109,347,76151,6,0,P|74:326|34:325,1,80.9999975280763,10|8,0:0|0:0,0:0:0:0:
242,357,76504,2,0,P|282:350|322:343,1,80.9999975280763,0|0,1:0|0:0,0:0:0:0:
426,377,76857,1,0,1:0:0:0:
504,252,77033,6,0,L|487:206,1,40.4999987640381,8|8,0:0|0:0,0:0:0:0:
376,162,77210,2,0,L|392:116,1,40.4999987640381,0|0,1:0|1:0,0:0:0:0:
487,46,77386,2,0,L|448:32,1,40.4999987640381,0|0,1:0|1:0,0:0:0:0:
308,117,77563,6,0,P|295:175|327:227,1,121.499996292114,12|0,0:0|0:0,0:0:0:0:
349,259,77916,2,0,P|309:266|269:273,1,80.9999975280763,2|0,1:2|0:0,0:0:0:0:
172,158,78269,1,10,0:0:0:0:
260,179,78445,1,10,0:0:0:0:
183,307,78622,1,2,1:2:0:0:
124,237,78798,1,2,0:0:0:0:
269,273,78975,6,0,P|309:266|349:259,1,80.9999975280763,10|0,0:0|0:0,0:0:0:0:
172,158,79327,1,0,1:0:0:0:
308,117,79504,2,0,P|319:77|309:38,1,80.9999975280763,2|8,0:0|0:0,0:0:0:0:
114,90,79857,1,10,0:0:0:0:
172,158,80033,1,2,1:2:0:0:
198,8,80210,1,0,0:0:0:0:
0,69,80386,6,0,P|10:128|21:188,1,121.499996292114,10|0,0:0|0:0,0:0:0:0:
44,223,80739,2,0,P|84:230|124:237,1,80.9999975280763,2|0,1:2|0:0,0:0:0:0:
269,273,81092,1,10,0:0:0:0:
183,307,81269,1,10,0:0:0:0:
172,158,81445,1,2,1:2:0:0:
260,179,81622,1,2,0:0:0:0:
124,237,81798,6,0,P|100:269|95:308,1,80.9999975280763,10|0,0:0|0:0,0:0:0:0:
269,273,82151,1,0,1:0:0:0:
204,384,82327,2,0,P|194:345|183:305,1,80.9999975280763,10|0,0:0|0:0,0:0:0:0:
260,179,82680,1,0,0:0:0:0:
126,81,82857,6,0,P|159:75|192:69,1,67.5,0|0,1:0|0:0,0:0:0:0:
231,16,83210,6,0,P|151:30|71:45,1,161.999995056153,10|0,0:0|1:0,0:0:0:0:
172,158,83739,1,2,0:0:0:0:
359,102,83916,2,0,P|319:95|279:88,1,80.9999975280763,10|0,0:0|0:0,0:0:0:0:
172,158,84269,1,0,1:0:0:0:
334,279,84445,6,0,P|341:239|348:199,1,80.9999975280763,2|10,0:0|0:0,0:0:0:0:
183,305,84798,1,0,0:0:0:0:
346,375,84975,2,0,P|306:368|266:361,1,80.9999975280763,0|2,1:0|0:0,0:0:0:0:
430,288,85327,2,0,P|470:281|510:274,1,80.9999975280763,10|0,0:0|0:0,0:0:0:0:
348,199,85680,2,0,P|308:192|268:185,1,80.9999975280763,2|0,1:2|0:0,0:0:0:0:
477,134,86033,6,0,P|480:68|435:19,1,135,2|0,1:2|0:0,0:0:0:0:
396,0,86386,1,0,1:0:0:0:
348,199,86563,1,8,0:0:0:0:
279,88,86739,2,0,P|323:96|367:103,1,90,0|8,1:0|0:0,0:0:0:0:
477,134,87092,1,2,1:2:0:0:
299,264,87269,6,0,P|272:229|267:184,1,90,8|2,0:0|1:2,0:0:0:0:
367,103,87622,1,2,1:2:0:0:
210,31,87798,1,2,1:2:0:0:
267,184,87975,1,2,1:2:0:0:
162,309,88151,2,0,P|118:301|74:294,1,90,2|8,1:2|0:0,0:0:0:0:
7,264,88416,1,8,0:0:0:0:
7,264,88504,2,0,L|14:219,1,45,0|0,1:0|1:0,0:0:0:0:
117,168,88680,2,0,P|113:145|110:123,1,45,0|0,1:0|1:0,0:0:0:0:
15,30,88857,6,0,B|45:16|101:53|101:53|148:7|186:15,1,188.999994232178,4|0,1:0|0:0,0:0:0:0:
209,30,89563,5,2,0:0:0:0:
367,103,89739,5,2,0:0:0:0:
325,195,89916,5,2,0:0:0:0:
310,21,90092,5,2,0:0:0:0:
512,134,90269,6,0,P|440:117|366:102,1,148.50000453186,12|0,0:0|0:0,0:0:0:0:
292,122,90622,2,0,P|255:154|244:202,1,99.0000030212403,0|0,1:0|0:0,0:0:0:0:
353,274,90975,1,10,0:0:0:0:
429,155,91151,1,0,0:1:0:0:
403,384,91327,2,0,P|354:374|305:366,1,99.0000030212403,2|0,1:2|0:1,0:0:0:0:
118,309,91680,6,0,P|210:290|244:201,1,198.000006042481,10|0,0:0|1:0,0:0:0:0:
72,150,92210,1,0,0:0:0:0:
166,117,92386,2,0,P|156:166|148:215,1,99.0000030212403,10|0,0:0|0:0,0:0:0:0:
20,318,92739,2,0,P|12:269|2:220,1,99.0000030212403,2|0,1:2|0:0,0:0:0:0:
53,10,93092,6,0,P|126:23|199:35,1,148.50000453186,10|0,0:0|0:0,0:0:0:0:
263,99,93445,2,0,P|214:106|165:116,1,99.0000030212403,2|0,1:2|0:0,0:0:0:0:
388,12,93798,2,0,P|341:66|355:136,1,148.50000453186,10|0,0:0|0:0,0:0:0:0:
419,87,94151,2,0,P|466:93|501:126,1,99.0000030212403,2|0,1:2|0:0,0:0:0:0:
448,263,94504,6,0,P|438:214|430:165,1,99.0000030212403,10|0,0:0|0:0,0:0:0:0:
355,136,94769,1,8,0:0:0:0:
355,136,94857,2,0,P|347:184|337:233,1,99.0000030212403,0|8,1:0|0:0,0:0:0:0:
278,294,95122,1,8,0:0:0:0:
278,294,95210,2,0,P|238:268|190:271,1,99.0000030212403,10|0,0:0|0:0,0:0:0:0:
418,334,95563,2,0,P|457:308|505:311,1,99.0000030212403,2|0,1:2|0:0,0:0:0:0:
355,136,95916,6,0,P|281:149|208:161,1,148.50000453186,12|0,0:0|0:0,0:0:0:0:
130,188,96269,2,0,P|94:157|85:109,1,99.0000030212403,0|0,1:0|0:0,0:0:0:0:
173,35,96622,1,10,0:0:0:0:
0,126,96798,1,8,0:0:0:0:
173,35,96975,2,0,P|221:26|270:17,1,99.0000030212403,2|0,1:2|0:0,0:0:0:0:
0,126,97327,6,0,P|9:174|17:223,1,99.0000030212403,10|0,0:0|0:0,0:0:0:0:
132,348,97680,2,0,P|154:306|147:258,1,99.0000030212403,0|0,1:0|0:0,0:0:0:0:
292,203,98033,2,0,P|269:245|277:292,1,99.0000030212403,10|8,0:0|0:0,0:0:0:0:
405,380,98386,2,0,P|412:331|422:282,1,99.0000030212403,2|0,1:2|0:0,0:0:0:0:
512,127,98739,6,0,P|457:174|387:159,1,148.50000453186,12|0,0:0|0:0,0:0:0:0:
355,136,99092,1,2,1:2:0:0:
421,282,99269,1,8,0:0:0:0:
292,203,99445,1,2,1:2:0:0:
438,95,99622,1,8,0:0:0:0:
233,36,99798,6,0,P|246:110|258:183,1,148.50000453186,12|0,0:0|0:0,0:0:0:0:
292,203,100151,1,8,1:2:0:0:
152,123,100327,1,8,0:0:0:0:
336,66,100504,1,0,1:0:0:0:
152,123,100680,1,8,0:0:0:0:
278,293,100857,6,0,P|301:251|293:204,1,99.0000030212403,10|8,0:0|0:0,0:0:0:0:
361,174,101122,1,8,0:0:0:0:
361,174,101210,2,0,P|383:180|408:186,1,49.5000015106202,0|0,1:0|1:0,0:0:0:0:
213,361,101386,1,0,1:0:0:0:
213,361,101475,1,0,1:0:0:0:
213,361,101563,6,0,P|287:348|360:336,1,148.50000453186,12|0,0:0|0:0,0:0:0:0:
421,282,101916,2,0,B|450:322|450:322|436:369,1,99.0000030212403,0|0,1:0|0:0,0:0:0:0:
292,202,102269,1,10,0:0:0:0:
359,336,102445,1,0,0:0:0:0:
488,225,102622,2,0,P|479:176|471:127,1,99.0000030212403,2|0,1:2|0:0,0:0:0:0:
277,40,102975,6,0,B|354:63|436:53|436:53|417:64|406:76,1,198.000006042481,10|0,0:0|1:0,0:0:0:0:
238,125,103504,1,0,0:0:0:0:
382,218,103680,2,0,P|338:194|290:202,1,99.0000030212403,10|0,0:0|0:0,0:0:0:0:
213,361,104033,2,0,P|205:312|196:263,1,99.0000030212403,2|0,1:2|0:0,0:0:0:0:
58,123,104386,6,0,P|11:176|25:246,1,148.50000453186,10|0,0:0|0:0,0:0:0:0:
98,280,104739,2,0,P|146:271|195:263,1,99.0000030212403,2|0,1:2|0:0,0:0:0:0:
382,218,105092,2,0,P|414:280|384:345,1,148.50000453186,10|0,0:0|0:0,0:0:0:0:
310,378,105445,2,0,P|262:369|213:361,1,99.0000030212403,2|0,1:2|0:0,0:0:0:0:
439,275,105798,6,0,P|463:231|455:183,1,99.0000030212403,10|0,0:0|0:0,0:0:0:0:
390,138,106063,1,8,0:0:0:0:
390,138,106151,2,0,P|358:99|357:51,1,99.0000030212403,0|8,1:0|0:0,0:0:0:0:
415,0,106416,1,8,0:0:0:0:
415,0,106504,2,0,P|463:9|512:17,1,99.0000030212403,10|0,0:0|0:0,0:0:0:0:
288,113,106857,2,0,P|239:120|190:130,1,99.0000030212403,0|0,1:0|0:0,0:0:0:0:
56,22,107210,6,0,B|12:53|12:53|36:144,1,148.50000453186,12|0,0:0|0:0,0:0:0:0:
98,197,107563,2,0,P|118:151|105:103,1,99.0000030212403,0|0,1:0|0:0,0:0:0:0:
0,289,107916,1,10,0:0:0:0:
192,238,108092,1,8,0:0:0:0:
76,378,108269,2,0,P|124:368|173:360,1,99.0000030212403,0|0,1:0|0:0,0:0:0:0:
289,256,108622,6,0,P|240:248|191:237,1,99.0000030212403,10|0,0:0|0:0,0:0:0:0:
407,359,108975,2,0,P|358:366|309:377,1,99.0000030212403,2|0,1:2|0:0,0:0:0:0:
308,158,109327,2,0,P|300:206|289:255,1,99.0000030212403,10|8,0:0|0:0,0:0:0:0:
437,87,109680,2,0,P|444:135|455:184,1,99.0000030212403,2|0,1:2|0:0,0:0:0:0:
311,11,110033,6,0,P|240:-3|187:43,1,148.50000453186,10|0,0:0|0:0,0:0:0:0:
174,81,110386,1,8,0:0:0:0:
308,158,110563,1,8,0:0:0:0:
98,197,110739,1,0,1:0:0:0:
218,158,110916,1,0,1:0:0:0:
110,10,111092,1,0,1:0:0:0:
262,76,111269,1,0,1:0:0:0:
49,138,111445,6,0,P|54:198|59:263,1,125.999996154785,14|8,0:0|0:0,0:0:0:0:
173,359,112151,1,10,0:0:0:0:
88,343,112504,1,10,0:0:0:0:
230,294,112857,6,0,P|287:333|354:316,1,144,12|8,0:0|0:0,0:0:0:0:
363,297,113563,2,0,P|369:261|375:226,1,72,2|0,1:2|0:0,0:0:0:0:
463,192,113916,2,0,P|456:156|450:121,1,72,2|0,0:0|0:0,0:0:0:0:
423,0,114269,5,8,0:0:0:0:
369,74,114445,2,0,P|333:67|298:61,1,72,0|0,1:0|0:0,0:0:0:0:
212,99,114798,1,8,0:0:0:0:
212,99,114886,1,8,0:0:0:0:
212,99,114975,2,0,P|206:63|199:28,1,72,2|0,1:2|0:0,0:0:0:0:
304,223,115327,2,0,P|298:187|291:152,1,72,2|0,1:2|0:0,0:0:0:0:
202,327,115680,5,4,0:1:0:0:
256,192,125386,12,0,126622,1:0:0:0:
512,314,126975,6,0,P|456:264|389:277,1,144,12|8,0:0|0:0,0:0:0:0:
305,212,127504,1,0,0:0:0:0:
305,212,127680,2,0,L|317:138,1,72,2|2,1:2|0:0,0:0:0:0:
184,78,128033,2,0,L|195:149,1,72,8|0,0:0|0:0,0:0:0:0:
120,207,128386,6,0,P|81:218|51:133,2,144,10|8|2,0:0|0:0|1:2,0:0:0:0:
252,326,129269,1,2,0:0:0:0:
172,384,129445,2,0,P|163:342|169:307,1,72,8|0,0:0|0:0,0:0:0:0:
266,224,129798,6,0,L|415:245,1,144,10|8,0:0|0:0,0:0:0:0:
498,140,130327,1,2,0:0:0:0:
492,136,130504,2,0,L|414:153,1,72,0|0,1:0|0:0,0:0:0:0:
319,76,130857,2,0,P|324:39|332:5,1,72,10|0,0:0|0:0,0:0:0:0:
195,86,131210,2,0,L|210:156,1,72,10|2,0:0|0:0,0:0:0:0:
149,240,131563,2,0,P|117:251|75:246,1,72,8|0,0:0|0:0,0:0:0:0:
246,314,131916,6,0,P|287:305|320:388,1,144,0|10,1:0|0:0,0:0:0:0:
455,206,132445,1,0,1:0:0:0:
390,149,132622,2,0,L|418:296,1,144,10|8,0:0|0:0,0:0:0:0:
490,375,133151,2,0,P|501:330|498:299,1,72,2|2,0:0|1:2,0:0:0:0:
298,168,133504,2,0,P|287:213|290:244,1,72,0|8,0:0|0:0,0:0:0:0:
464,153,133857,1,0,0:0:0:0:
461,148,133945,1,0,0:0:0:0:
458,142,134033,2,0,L|468:99,2,36,10|0|0,0:0|0:0|0:0,0:0:0:0:
337,33,134386,6,0,P|375:36|412:22,1,72,10|0,0:0|0:0,0:0:0:0:
297,167,134739,2,0,L|226:156,1,72,0|0,1:0|0:0,0:0:0:0:
111,59,135092,2,0,L|127:137,1,72,10|0,0:0|1:0,0:0:0:0:
117,143,135357,1,0,1:0:0:0:
111,153,135445,6,0,P|73:168|30:159,1,72,10|0,0:0|0:0,0:0:0:0:
236,78,135798,2,0,L|310:90,1,72,8|0,0:0|0:0,0:0:0:0:
460,168,136151,2,0,P|423:178|388:172,1,72,0|2,1:2|0:0,0:0:0:0:
411,70,136504,1,10,0:0:0:0:
458,275,136680,1,8,0:0:0:0:
325,235,136857,6,0,P|262:193|188:210,1,144,2|0,1:2|1:0,0:0:0:0:
91,133,137386,6,0,P|82:167|83:197,1,53.9999983520508,10|0,0:0|0:0,0:0:0:0:
226,349,137739,2,0,P|233:316|230:285,1,53.9999983520508,2|0,1:2|0:0,0:0:0:0:
129,269,137916,2,0,P|82:277|29:287,1,90,2|0,0:0|1:0,0:0:0:0:
302,159,138269,5,12,0:0:0:0:
392,181,138445,1,2,0:0:0:0:
480,203,138622,1,0,1:0:0:0:
351,89,138798,6,0,P|277:130|208:105,1,144,2|8,0:0|0:0,0:0:0:0:
107,46,139327,2,0,P|149:31|178:32,1,72,0|0,1:0|0:0,0:0:0:0:
71,137,139680,6,0,L|-12:124,1,72,10|0,0:0|0:0,0:0:0:0:
71,322,140033,2,0,L|-12:335,1,72,0|0,1:0|0:0,0:0:0:0:
181,254,140386,6,0,P|233:254|257:263,1,72,10|8,0:0|0:0,0:0:0:0:
407,170,140739,2,0,P|372:180|336:179,1,72,2|0,1:2|0:0,0:0:0:0:
264,110,141092,2,0,L|285:-18,1,108,10|0,0:0|0:0,0:0:0:0:
309,0,141445,1,0,1:0:0:0:
169,81,141622,2,0,B|103:94|92:41|18:63,1,144,2|8,0:0|0:0,0:0:0:0:
141,168,142151,1,2,1:2:0:0:
32,248,142327,1,2,0:0:0:0:
140,370,142504,2,0,P|147:323|155:290,1,72,10|8,0:0|0:0,0:0:0:0:
147,282,142769,1,8,0:0:0:0:
140,273,142857,6,0,L|61:288,1,72,0|0,1:0|0:0,0:0:0:0:
262,365,143210,2,0,L|332:351,1,72,10|0,0:0|0:0,0:0:0:0:
424,313,143475,2,0,B|437:348|437:348|431:384,1,72,2|0,0:0|0:0,0:0:0:0:
337,263,143739,2,8,L|347:210,1,45,2|0,1:2|1:0,0:0:0:0:
361,194,143916,6,0,P|311:201|242:211,1,108,12|0,0:0|0:0,0:0:0:0:
229,232,144269,1,0,1:0:0:0:
139,159,144445,2,0,P|146:114|151:80,1,72,2|8,0:0|0:0,0:0:0:0:
33,192,144798,1,8,0:0:0:0:
161,281,144975,1,0,1:0:0:0:
27,195,145151,1,0,0:0:0:0:
110,367,145327,6,0,P|170:325|240:340,1,144,12|0,0:0|1:0,0:0:0:0:
399,210,145857,2,0,L|377:324,1,108,2|0,0:0|0:0,0:0:0:0:
452,384,146210,2,0,P|464:344|461:314,1,72,8|2,0:0|1:2,0:0:0:0:
289,218,146563,1,0,0:0:0:0:
372,160,146739,2,0,L|454:175,1,72,12|8,0:0|0:0,0:0:0:0:
262,72,147092,2,0,L|191:84,1,72,2|0,1:2|0:0,0:0:0:0:
368,0,147445,2,0,P|362:37|355:79,1,72,10|0,0:0|0:0,0:0:0:0:
189,235,147798,2,0,P|183:199|177:163,1,72,2|0,1:2|0:0,0:0:0:0:
284,217,148151,5,10,0:0:0:0:
112,309,148327,1,8,0:0:0:0:
268,384,148504,1,0,1:0:0:0:
207,313,148680,1,0,1:0:0:0:
209,303,148769,1,0,1:0:0:0:
211,291,148857,1,2,1:2:0:0:
135,220,149033,5,2,0:0:0:0:
366,306,149210,1,10,0:2:0:0:
366,306,149386,1,0,0:0:0:0:
408,380,149563,6,0,P|421:294|433:241,1,135.000005149842,12|0,0:0|1:0,0:0:0:0:
335,165,150092,2,0,L|344:220,1,45,10|0,0:0|0:0,0:0:0:0:
474,66,150445,5,8,0:0:0:0:
404,17,150622,2,0,P|366:36|321:30,1,67.5000025749208,0|0,1:0|0:0,0:0:0:0:
256,79,150975,2,0,P|203:70|116:55,1,135.000005149842,12|0,0:0|1:0,0:0:0:0:
39,105,151504,2,0,L|51:183,1,67.5000025749208,10|0,0:0|0:0,0:0:0:0:
150,284,151857,2,0,P|158:250|152:213,1,67.5000025749208,2|0,1:2|3:0,0:0:0:0:
44,274,152210,1,8,0:0:0:0:
217,352,152386,6,0,B|278:360|284:316|369:336,1,135.000005149842,12|0,0:0|1:0,0:0:0:0:
455,271,152916,2,0,P|426:264|400:265,1,45,10|0,0:0|0:0,0:0:0:0:
509,181,153269,5,8,0:0:0:0:
441,124,153445,2,0,L|453:50,1,67.5000025749208,0|0,1:0|0:0,0:0:0:0:
377,2,153798,6,0,P|335:-1|312:59,1,101.250003862381,10|0,0:0|0:0,0:0:0:0:
293,61,154151,2,0,L|215:53,1,67.5000025749208,0|10,1:0|0:0,0:0:0:0:
44,100,154504,1,0,0:0:0:0:
121,0,154680,5,0,1:0:0:0:
137,89,154857,1,10,0:0:0:0:
155,183,155033,1,0,0:0:0:0:
99,268,155210,6,0,P|68:237|-20:245,1,135.000005149842,12|0,0:0|1:0,0:0:0:0:
150,357,155739,2,0,L|204:348,1,45,10|0,0:0|0:0,0:0:0:0:
380,271,156092,5,8,0:0:0:0:
301,226,156269,2,0,L|223:240,1,67.5000025749208,0|0,1:0|0:0,0:0:0:0:
424,350,156622,6,0,P|434:282|446:203,1,135.000005149842,10|0,0:0|1:0,0:0:0:0:
499,135,157151,2,0,P|459:121|429:122,1,67.5000025749208,10|0,0:0|0:0,0:0:0:0:
341,6,157504,2,0,P|324:41|325:75,1,67.5000025749208,2|0,1:2|0:0,0:0:0:0:
440,24,157857,1,8,0:0:0:0:
273,139,158033,6,0,B|166:107|161:226|44:253|-26:160|22:70|94:72|135:113,1,371.250014162064,12|0,0:0|0:0,0:0:0:0:
120,94,159092,2,0,P|115:127|110:162,1,67.5000025749208,2|0,1:2|0:0,0:0:0:0:
250,294,159445,2,0,P|244:260|240:227,1,67.5000025749208,10|2,0:0|0:0,0:0:0:0:
129,320,159798,6,0,P|86:311|55:308,1,67.5000025749208,0|0,1:0|0:0,0:0:0:0:
342,213,160151,2,0,P|385:222|416:225,1,67.5000025749208,10|0,0:0|0:0,0:0:0:0:
512,340,160504,2,0,P|473:349|419:315,1,101.250003862381,0|8,1:0|0:0,0:0:0:0:
482,258,160857,2,0,P|497:168|509:115,1,135.000005149842,12|0,0:0|1:0,0:0:0:0:
421,49,161386,2,0,L|431:105,1,45,10|0,0:0|0:0,0:0:0:0:
305,0,161739,5,8,0:0:0:0:
229,49,161916,2,0,P|180:37|152:38,1,67.5000025749208,0|0,1:0|0:0,0:0:0:0:
4,164,162269,2,0,B|62:171|72:118|149:133,1,135.000005149842,10|0,0:0|1:0,0:0:0:0:
228,68,162798,2,0,P|242:104|243:134,1,67.5000025749208,10|0,0:0|0:0,0:0:0:0:
139,302,163151,2,0,P|125:266|124:236,1,67.5000025749208,2|0,1:2|0:0,0:0:0:0:
236,204,163504,1,8,0:0:0:0:
240,209,163592,1,8,0:0:0:0:
243,214,163680,6,0,L|386:231,1,135.000005149842,12|0,0:0|1:0,0:0:0:0:
484,163,164210,2,0,L|430:157,1,45,10|0,0:0|0:0,0:0:0:0:
464,250,164563,1,8,0:0:0:0:
487,69,164739,1,0,1:0:0:0:
406,23,164916,1,0,0:0:0:0:
402,28,165004,1,0,0:0:0:0:
399,33,165092,6,0,P|329:44|318:99,1,135.000005149842,10|0,0:0|1:0,0:0:0:0:
233,163,165622,2,0,L|158:152,1,67.5000025749208,0|0,3:0|1:0,0:0:0:0:
0,226,165975,1,0,1:0:0:0:
27,209,166063,1,0,1:0:0:0:
61,209,166151,1,0,1:0:0:0:
89,226,166239,1,0,1:0:0:0:
104,256,166327,1,0,1:0:0:0:
102,289,166416,1,0,1:0:0:0:
86,314,166504,6,0,B|160:294|160:294|189:333|228:329,1,153.000002918243,12|2,0:0|1:2,0:0:0:0:
371,237,167033,1,0,0:0:0:0:
266,169,167210,2,0,L|280:253,1,76.5000014591217,10|10,0:0|0:0,0:0:0:0:
371,136,167563,1,2,1:2:0:0:
230,71,167739,1,2,0:0:0:0:
371,237,167916,2,0,P|415:230|463:223,1,76.5000014591217,10|2,0:0|0:0,0:0:0:0:
395,333,168269,5,0,1:0:0:0:
210,228,168445,1,2,0:0:0:0:
371,136,168622,1,8,0:0:0:0:
280,366,168798,1,10,0:0:0:0:
133,297,168975,5,2,1:2:0:0:
310,217,169151,1,0,0:0:0:0:
121,129,169327,6,0,L|31:147,1,76.5000014591217,10|2,0:0|0:0,0:0:0:0:
227,10,169680,2,0,P|243:51|242:88,1,76.5000014591217,2|0,1:2|0:0,0:0:0:0:
133,297,170033,2,0,P|123:257|126:221,1,76.5000014591217,10|10,0:0|0:0,0:0:0:0:
234,192,170386,2,0,L|317:204,1,76.5000014591217,2|2,1:2|0:0,0:0:0:0:
411,127,170739,1,10,0:0:0:0:
357,283,170916,1,0,0:0:0:0:
298,68,171092,1,0,1:0:0:0:
440,217,171269,2,0,P|477:220|521:199,1,76.5000014591217,10|2,0:0|0:0,0:0:0:0:
321,170,171622,5,0,0:0:0:0:
407,377,171798,2,0,P|378:341|286:351,1,128.249996575356,0|0,1:0|0:0,0:0:0:0:
204,379,172151,6,0,P|197:333|213:290,1,76.5000014591217,12|0,0:0|0:0,0:0:0:0:
100,246,172504,2,0,P|66:253|11:264,1,76.5000014591217,0|2,1:0|0:0,0:0:0:0:
193,185,172857,1,10,0:0:0:0:
74,86,173033,1,0,3:0:0:0:
188,8,173210,2,0,L|175:88,1,76.5000014591217,0|2,1:0|0:0,0:0:0:0:
304,185,173563,6,0,B|364:189|361:146|449:153,1,128.249996575356,10|0,0:0|0:0,0:0:0:0:
507,222,173916,2,0,P|466:241|425:237,1,76.5000014591217,0|2,1:0|0:0,0:0:0:0:
382,72,174269,2,0,P|423:53|464:57,1,76.5000014591217,10|0,0:0|0:0,0:0:0:0:
304,185,174622,2,0,L|226:176,1,76.5000014591217,2|0,1:2|0:0,0:0:0:0:
82,256,174975,1,2,1:2:0:0:
7,189,175327,5,0,1:0:0:0:
27,107,175504,1,8,0:0:0:0:
175,249,175680,5,0,1:0:0:0:
155,331,175857,1,8,0:0:0:0:
52,294,176033,5,2,1:2:0:0:
278,216,176210,1,8,0:0:0:0:
196,142,176386,5,2,1:2:0:0:
198,133,176563,1,2,1:2:0:0:
387,260,176739,1,2,1:2:0:0:
385,251,176916,1,2,1:2:0:0:
195,382,177092,1,2,1:2:0:0:
276,265,177269,5,8,0:0:0:0:
280,260,177357,1,8,0:0:0:0:
285,253,177445,2,0,L|276:206,3,38.2500007295609,0|0|0|0,1:0|1:0|1:0|1:0,0:0:0:0:
298,185,177798,5,4,1:0:0:0:
176,261,178151,5,4,0:0:0:0:
315,324,178504,5,2,0:0:0:0:
276,351,178680,5,2,0:0:0:0:
269,300,178857,5,2,0:0:0:0:
284,327,179033,5,2,0:0:0:0:
292,324,179210,6,0,L|314:184,1,121.499996292114,12|0,0:0|0:0,0:0:0:0:
228,165,179563,2,0,P|208:207|215:252,1,80.9999975280763,0|2,1:0|0:0,0:0:0:0:
395,369,179916,2,0,P|438:360|488:354,1,80.9999975280763,10|0,0:0|0:0,0:0:0:0:
210,240,180269,2,0,P|173:248|117:255,1,80.9999975280763,2|0,1:2|0:0,0:0:0:0:
349,170,180622,6,0,P|378:129|350:54,1,121.499996292114,10|0,0:0|0:0,0:0:0:0:
273,10,180975,2,0,L|285:103,1,80.9999975280763,0|0,1:0|0:0,0:0:0:0:
123,239,181327,2,0,P|113:193|127:152,1,80.9999975280763,10|0,0:0|0:0,0:0:0:0:
244,272,181680,1,2,1:2:0:0:
88,354,181857,1,0,0:0:0:0:
244,272,182033,6,0,P|287:243|360:256,1,121.499996292114,10|0,0:0|0:0,0:0:0:0:
466,323,182386,2,0,L|379:337,1,80.9999975280763,2|0,1:2|0:0,0:0:0:0:
500,150,182739,2,0,B|518:190|518:190|512:234,1,80.9999975280763,10|0,0:0|0:0,0:0:0:0:
357,351,183092,2,0,B|342:312|342:312|352:266,1,80.9999975280763,2|0,1:2|0:0,0:0:0:0:
433,218,183445,5,10,0:0:0:0:
239,294,183622,1,8,0:0:0:0:
233,300,183710,1,0,1:0:0:0:
226,305,183798,2,0,P|184:299|131:292,1,80.9999975280763,0|2,1:0|0:0,0:0:0:0:
45,248,184063,1,0,1:0:0:0:
40,252,184151,2,0,B|27:291|27:291|42:336,1,80.9999975280763,2|0,1:2|0:0,0:0:0:0:
131,198,184416,1,0,1:0:0:0:
133,192,184504,2,0,L|121:138,2,40.4999987640381,2|2|0,1:2|0:0|0:0,0:0:0:0:
315,374,184857,6,0,P|327:325|316:289,1,80.9999975280763,12|2,0:0|0:0,0:0:0:0:
204,248,185210,2,0,L|112:264,1,80.9999975280763,0|0,1:0|0:0,0:0:0:0:
314,153,185563,2,0,L|393:166,1,80.9999975280763,10|0,0:0|0:0,0:0:0:0:
512,22,185916,1,2,1:2:0:0:
364,77,186092,1,0,0:0:0:0:
486,225,186269,2,0,P|499:179|488:132,1,80.9999975280763,10|2,0:0|0:0,0:0:0:0:
251,6,186622,6,0,L|266:97,1,80.9999975280763,2|0,1:2|0:0,0:0:0:0:
142,198,186975,2,0,B|103:216|103:216|53:206,1,80.9999975280763,10|8,0:0|0:0,0:0:0:0:
296,298,187327,2,0,L|383:286,1,80.9999975280763,2|0,1:2|0:0,0:0:0:0:
161,384,187680,6,0,P|153:330|144:281,1,90,12|0,0:0|0:0,0:0:0:0:
357,0,188033,2,0,P|365:54|374:103,1,90,2|0,1:2|0:0,0:0:0:0:
261,214,188386,1,2,1:2:0:0:
207,31,188563,1,8,0:0:0:0:
388,191,188739,6,0,P|449:187|471:255,1,135,12|0,0:0|0:0,0:0:0:0:
455,270,189092,1,0,1:0:0:0:
306,380,189269,2,0,L|320:289,1,80.9999975280763,8|0,0:0|1:0,0:0:0:0:
207,146,189622,1,8,0:0:0:0:
388,191,189798,1,10,0:0:0:0:
211,325,190063,1,0,1:0:0:0:
208,337,190151,5,0,1:0:0:0:
186,307,190239,1,0,1:0:0:0:
153,293,190327,1,0,1:0:0:0:
117,296,190416,1,0,1:0:0:0:
91,315,190504,6,0,P|77:237|69:188,1,121.499996292114,12|0,0:0|0:0,0:0:0:0:
172,121,190857,2,0,L|161:207,1,80.9999975280763,0|2,1:2|0:0,0:0:0:0:
7,92,191210,2,0,L|93:76,1,80.9999975280763,10|0,0:0|0:0,0:0:0:0:
335,198,191563,2,0,P|292:214|249:207,1,80.9999975280763,2|0,1:2|0:0,0:0:0:0:
404,98,191916,6,0,P|449:86|511:173,1,161.999995056153,10|0,0:0|1:0,0:0:0:0:
327,288,192445,1,0,0:0:0:0:
438,352,192622,2,0,P|444:307|451:263,1,80.9999975280763,10|0,0:0|0:0,0:0:0:0:
282,194,192975,1,2,1:2:0:0:
335,380,193151,1,0,0:0:0:0:
180,287,193327,6,0,P|131:284|104:348,1,121.499996292114,10|0,0:2|0:0,0:0:0:0:
80,360,193680,2,0,P|38:365|-4:374,1,80.9999975280763,2|0,1:2|0:0,0:0:0:0:
79,96,194033,2,0,P|37:91|-5:82,1,80.9999975280763,10|0,0:2|0:0,0:0:0:0:
241,218,194386,6,0,B|315:227|320:173|420:194,1,161.999995056153,2|10,1:2|0:0,0:0:0:0:
512,110,194916,5,0,0:0:0:0:
489,99,195004,1,0,1:0:0:0:
468,99,195092,1,0,1:0:0:0:
430,284,195269,5,0,0:0:0:0:
453,295,195357,1,0,1:0:0:0:
474,295,195445,1,2,1:2:0:0:
488,189,195622,5,0,0:0:0:0:
318,362,195798,2,0,P|314:333|305:302,1,49.5000015106202,2|0,1:2|0:0,0:0:0:0:
414,236,195975,2,0,L|403:284,1,49.5000015106202,8|0,0:0|0:0,0:0:0:0:
308,313,196151,6,0,P|228:306|171:301,1,121.499996292114,12|0,0:0|0:0,0:0:0:0:
102,368,196504,2,0,P|149:384|185:377,1,80.9999975280763,0|2,1:0|0:0,0:0:0:0:
79,263,196857,2,0,L|-16:282,1,80.9999975280763,10|8,0:0|0:0,0:0:0:0:
184,151,197210,2,0,L|168:236,1,80.9999975280763,2|0,1:2|0:0,0:0:0:0:
63,170,197563,5,10,0:0:0:0:
43,84,197739,1,2,0:0:0:0:
195,0,197916,5,2,1:2:0:0:
218,82,198092,1,0,0:0:0:0:
351,160,198269,5,10,0:0:0:0:
370,78,198445,1,8,0:0:0:0:
234,178,198622,5,2,1:2:0:0:
441,249,198798,1,0,0:0:0:0:
253,373,198975,1,2,1:2:0:0:
330,251,199327,5,8,0:0:0:0:
326,263,199504,1,8,0:0:0:0:
456,368,199680,5,2,1:2:0:0:
445,333,199857,1,0,1:0:0:0:
234,178,200033,5,0,1:0:0:0:
204,253,200210,1,0,1:0:0:0:
340,384,200386,6,0,P|320:272|311:224,1,148.50000453186,12|0,0:0|1:0,0:0:0:0:
439,137,201092,2,0,L|423:248,1,99.0000030212403,2|2,0:0|1:2,0:0:0:0:
468,306,201798,6,0,P|418:272|349:287,1,116.999994644165,12|0,0:0|1:0,0:0:0:0:
291,329,202327,1,2,0:0:0:0:
285,333,202504,2,0,L|217:325,1,58.4999973220826,10|8,0:0|0:0,0:0:0:0:
94,279,202857,2,0,P|127:268|161:269,1,58.4999973220826,2|0,1:2|0:0,0:0:0:0:
207,199,203210,6,0,L|185:73,1,116.999994644165,10|0,0:0|1:0,0:0:0:0:
291,18,203739,1,8,0:0:0:0:
298,23,203827,1,0,1:0:0:0:
304,29,203916,2,0,L|291:101,1,58.4999973220826,0|0,1:0|0:0,0:0:0:0:
410,165,204269,2,0,P|407:136|396:107,1,58.4999973220826,8|8,0:0|0:0,0:0:0:0:
347,264,204622,6,0,P|374:220|502:226,2,175.499991966248,12|2|2,0:0|1:2|1:2,0:0:0:0:
272,318,205857,1,0,0:0:0:0:
265,328,205945,1,2,0:0:0:0:
259,337,206033,6,0,L|187:326,1,58.4999973220826,10|0,0:0|0:0,0:0:0:0:
48,279,206386,2,0,P|82:281|120:268,1,58.4999973220826,10|0,0:0|0:0,0:0:0:0:
231,212,206739,2,0,P|202:204|173:205,1,58.4999973220826,2|0,1:2|0:0,0:0:0:0:
85,154,207092,2,0,P|79:122|71:84,1,58.4999973220826,2|0,0:0|0:0,0:0:0:0:
136,36,207445,6,0,P|174:26|221:83,1,116.999994644165,10|0,0:0|0:0,0:0:0:0:
512,175,208151,2,0,P|482:222|426:217,1,116.999994644165,2|2,0:0|1:2,0:0:0:0:
353,159,208680,1,2,0:0:0:0:
349,154,208857,2,0,P|357:105|369:22,1,116.999994644165,2|10,0:0|0:0,0:0:0:0:
228,160,209386,1,0,1:0:0:0:
250,256,209563,1,2,1:2:0:0:
276,355,209739,1,0,1:0:0:0:
353,282,209916,5,10,0:0:0:0:
353,282,210092,1,10,0:0:0:0:
178,367,210269,6,0,B|142:316|80:314|80:314|53:348|11:346,2,175.499991966248,12|2|0,0:0|1:2|1:0,0:0:0:0:
275,361,211504,1,0,0:0:0:0:
275,361,211592,1,2,0:0:0:0:
280,365,211680,6,0,L|352:354,1,58.4999973220826,10|0,0:0|0:0,0:0:0:0:
456,279,212033,2,0,L|444:354,1,58.4999973220826,10|0,0:0|0:0,0:0:0:0:
353,237,212386,2,0,L|365:162,1,58.4999973220826,2|2,1:2|0:0,0:0:0:0:
476,87,212739,2,0,L|464:162,1,58.4999973220826,2|0,0:0|0:0,0:0:0:0:
264,236,213092,6,0,B|187:239|184:175|87:190,1,175.499991966248,10|2,0:0|1:2,0:0:0:0:
0,249,213798,2,0,P|41:282|121:269,1,116.999994644165,0|2,0:0|1:2,0:0:0:0:
151,129,214327,2,0,P|110:96|30:109,1,116.999994644165,10|8,0:0|0:0,0:0:0:0:
262,221,214857,6,0,L|337:211,1,67.5000025749208,6|10,1:2|0:0,0:0:0:0:
474,162,215210,2,0,P|442:152|407:154,1,67.5000025749208,6|0,1:2|1:0,0:0:0:0:
340,107,215475,1,0,1:0:0:0:
333,100,215563,1,0,1:0:0:0:
318,69,215651,1,0,1:0:0:0:
326,37,215739,1,0,1:0:0:0:
351,16,215827,1,0,1:0:0:0:
384,15,215916,6,0,P|327:78|245:54,2,180,12|2|10,0:0|1:2|0:0,0:0:0:0:
474,162,216798,1,8,0:0:0:0:
340,107,216975,1,0,1:0:0:0:
256,225,217151,1,10,0:0:0:0:
389,278,217327,6,0,P|377:212|365:146,1,135,12|0,0:0|0:0,0:0:0:0:
340,107,217680,2,0,P|296:114|252:121,1,90,2|0,1:2|0:0,0:0:0:0:
125,32,218033,1,10,0:0:0:0:
251,121,218210,1,8,0:0:0:0:
125,32,218386,2,0,P|132:76|139:120,1,90,0|0,1:0|0:0,0:0:0:0:
56,288,218739,6,0,P|15:238|25:173,1,135,12|0,0:0|0:0,0:0:0:0:
50,135,219092,2,0,P|94:128|138:121,1,90,0|0,1:0|0:0,0:0:0:0:
256,225,219445,1,10,0:0:0:0:
94,216,219622,1,8,0:0:0:0:
251,121,219798,1,0,1:0:0:0:
226,319,219975,6,0,P|182:312|138:305,1,90,10|0,0:0|0:0,0:0:0:0:
344,239,220327,2,0,P|300:232|256:225,1,90,10|0,0:0|1:0,0:0:0:0:
417,379,220680,1,10,0:0:0:0:
449,192,220857,2,0,P|442:236|435:280,1,90,8|8,0:0|0:0,0:0:0:0:
466,93,221210,1,2,1:2:0:0:
466,93,221563,6,0,P|422:100|378:107,1,90,12|0,0:0|0:0,0:0:0:0:
300,43,221916,1,0,1:0:0:0:
360,206,222092,2,0,P|404:199|448:192,1,90,10|0,0:0|0:0,0:0:0:0:
283,142,222445,1,10,0:0:0:0:
430,290,222622,2,0,P|386:297|342:304,1,90,2|0,1:2|0:0,0:0:0:0:
283,142,222975,5,10,0:0:0:0:
177,255,223151,2,0,P|221:248|265:241,1,90,10|0,0:0|1:0,0:0:0:0:
341,304,223504,1,2,0:0:0:0:
283,142,223680,2,0,P|239:149|195:156,1,90,10|0,0:2|0:0,0:0:0:0:
30,200,224033,1,2,1:2:0:0:
14,229,224122,1,2,1:2:0:0:
11,262,224210,1,2,1:2:0:0:
22,293,224298,1,2,1:2:0:0:
46,317,224386,6,0,P|130:326|175:253,1,180,12|0,0:0|1:0,0:0:0:0:
167,51,224916,1,2,1:2:0:0:
173,59,225004,1,2,1:2:0:0:
179,67,225092,2,0,P|186:111|193:155,1,90,2|0,1:2|1:0,0:0:0:0:
55,126,225445,1,0,1:0:0:0:
305,57,225622,1,2,1:2:0:0:
305,57,225710,1,2,1:2:0:0:
305,57,225798,1,14,1:2:0:0:
256,192,225886,12,12,227210,0:0:0:0:
187,161,228622,6,0,B|138:182|91:157|69:104|109:40|177:42|207:100|207:100|241:163|303:169|353:146,1,432,10|0,0:0|0:0,0:0:0:0:
352,146,230033,6,0,B|366:95|406:57|406:57|339:87|302:151|311:223|350:281|415:315,1,432,10|0,0:0|0:0,0:0:0:0:
414,314,231445,6,0,B|362:311|326:278|326:278|251:327|251:327|210:297|154:304,1,288,10|2,0:0|0:0,0:0:0:0:
326,379,232327,1,0,0:0:0:0:
244,230,232504,1,2,0:0:0:0:
326,379,232680,1,0,0:0:0:0:
359,146,232857,6,0,P|270:132|181:116,1,180,10|8,0:0|0:0,0:0:0:0:
10,185,233386,1,0,0:0:0:0:
61,12,233563,2,0,P|68:56|75:100,1,90,10|0,0:0|0:0,0:0:0:0:
167,204,233916,2,0,P|174:160|181:116,1,90,10|0,0:0|0:0,0:0:0:0:
65,318,234269,6,0,P|109:311|153:304,1,90,10|0,0:0|0:0,0:0:0:0:
326,379,234622,2,0,P|282:372|238:365,1,90,10|0,0:0|0:0,0:0:0:0:
167,204,234975,2,0,P|211:211|255:218,1,90,10|0,0:0|0:0,0:0:0:0:
428,264,235327,2,0,P|384:271|340:278,1,90,10|0,0:0|0:0,0:0:0:0:
237,364,235680,5,12,0:0:0:0:
349,176,235857,1,0,0:0:0:0:
339,278,236033,5,2,1:2:0:0:
451,90,236210,1,8,0:0:0:0:
402,0,236386,5,2,1:2:0:0:
500,180,236563,1,8,0:0:0:0:
312,49,236739,6,0,P|223:28|158:91,1,188.999994232178,6|8,1:2|0:0,0:0:0:0:
255,218,237445,1,0,1:0:0:0:
255,218,237798,2,0,P|211:211|167:204,1,90,2|0,1:2|0:0,0:0:0:0:
38,122,238151,2,0,P|45:166|52:210,1,90,2|0,1:2|0:0,0:0:0:0:
35,345,238416,1,0,1:0:0:0:
35,345,238504,6,0,P|89:298|159:312,1,148.50000453186,12|0,0:0|0:0,0:0:0:0:
237,315,238857,2,0,P|244:266|254:217,1,99.0000030212403,0|0,1:0|0:0,0:0:0:0:
440,114,239210,1,2,1:2:0:0:
340,231,239386,1,8,0:0:0:0:
312,49,239563,2,0,P|360:42|409:32,1,99.0000030212403,0|0,1:0|0:0,0:0:0:0:
503,262,239916,6,0,P|429:201|339:230,1,198.000006042481,4|0,1:2|1:0,0:0:0:0:
239,126,240445,1,0,0:0:0:0:
237,315,240622,2,0,P|285:321|334:331,1,99.0000030212403,2|0,1:2|0:0,0:0:0:0:
137,212,240975,2,0,P|88:221|39:228,1,99.0000030212403,2|0,1:2|0:0,0:0:0:0:
189,3,241327,5,4,1:2:0:0:
239,126,241504,1,0,0:0:0:0:
57,13,241680,1,2,1:2:0:0:
189,3,241857,1,0,0:0:0:0:
26,142,242033,1,2,1:2:0:0:
57,13,242210,1,8,0:0:0:0:
137,212,242386,1,2,1:2:0:0:
26,142,242563,1,8,0:0:0:0:
239,126,242739,6,0,P|312:112|385:100,1,148.50000453186,4|0,1:2|0:0,0:0:0:0:
445,46,243092,2,0,P|406:20|358:23,1,99.0000030212403,0|0,1:0|0:0,0:0:0:0:
239,126,243445,2,0,P|248:174|255:223,1,99.0000030212403,2|0,1:2|0:0,0:0:0:0:
398,274,243798,2,0,P|404:225|414:176,1,99.0000030212403,2|0,1:2|0:0,0:0:0:0:
283,376,244151,6,0,P|228:329|158:343,1,148.50000453186,4|0,1:2|0:0,0:0:0:0:
233,312,244504,2,0,P|259:273|256:225,1,99.0000030212403,0|0,1:0|0:0,0:0:0:0:
133,125,244857,1,2,1:2:0:0:
326,151,245033,1,8,0:0:0:0:
254,28,245210,2,0,P|247:77|238:125,1,99.0000030212403,2|0,1:2|0:0,0:0:0:0:
36,247,245563,5,4,1:2:0:0:
133,125,245739,1,0,0:0:0:0:
158,344,245916,1,2,1:2:0:0:
255,222,246092,1,0,0:0:0:0:
64,244,246269,5,2,1:2:0:0:
228,225,246445,1,8,0:0:0:0:
155,316,246622,1,2,1:2:0:0:
136,152,246798,1,0,1:0:0:0:
135,139,246886,1,0,1:0:0:0:
133,125,246975,6,0,B|175:89|242:88|278:120|278:120|258:117|237:124,2,198.000006042481,4|0|8,1:2|1:0|0:0,0:0:0:0:
255,222,247857,1,8,0:0:0:0:
351,44,248033,2,0,P|399:37|448:27,1,99.0000030212403,2|0,1:2|0:0,0:0:0:0:
117,29,248386,6,0,P|44:90|56:184,1,198.000006042481,12|0,0:0|1:0,0:0:0:0:
237,123,248916,1,8,0:0:0:0:
183,305,249092,2,0,P|176:257|166:208,1,99.0000030212403,2|0,1:2|0:0,0:0:0:0:
100,369,249357,1,0,1:0:0:0:
100,369,249445,2,0,P|75:374|52:381,1,49.5000015106202,2|0,1:2|1:0,0:0:0:0:
281,297,249622,2,0,P|304:303|328:309,1,49.5000015106202,2|0,1:2|1:0,0:0:0:0:
404,368,249798,6,0,P|461:378|501:304,1,135,12|0,0:0|0:0,0:0:0:0:
432,181,250151,2,0,L|418:272,1,90,0|0,1:0|0:0,0:0:0:0:
208,333,250504,2,0,B|120:309|127:383|32:363,1,180,10|2,0:0|1:2,0:0:0:0:
135,194,251033,1,0,0:1:0:0:
11,121,251210,2,0,P|22:170|28:218,1,90,10|0,0:0|0:0,0:0:0:0:
208,333,251563,2,0,P|214:288|224:244,1,90,0|0,1:0|0:0,0:0:0:0:
108,328,251916,6,0,P|63:347|13:339,1,90,10|0,0:0|0:0,0:0:0:0:
364,219,252269,2,0,P|408:215|449:234,1,90,2|0,1:2|0:0,0:0:0:0:
200,19,252622,6,0,B|161:41|161:41|183:130,1,135,10|0,0:0|0:0,0:0:0:0:
271,198,252975,2,0,P|276:153|286:109,1,90,2|0,1:2|0:0,0:0:0:0:
126,226,253327,2,0,L|140:314,1,90,10|0,0:0|0:0,0:0:0:0:
239,384,253680,6,0,P|253:336|248:295,1,90,2|0,1:2|0:0,0:0:0:0:
29,152,254033,2,0,P|15:200|20:241,1,90,10|0,0:0|0:0,0:0:0:0:
130,143,254298,1,8,0:0:0:0:
134,135,254386,6,0,P|123:86|103:-7,1,135,0|8,1:0|0:0,0:0:0:0:
34,61,254739,5,10,0:0:0:0:
22,57,254827,1,8,3:0:0:0:
245,169,255092,5,2,1:2:0:0:
262,165,255180,1,8,3:0:0:0:
498,90,255445,6,0,P|447:49|372:68,1,135,12|0,0:0|0:0,0:0:0:0:
267,0,255798,2,0,L|284:95,1,90,0|0,1:0|0:0,0:0:0:0:
151,258,256151,2,0,P|139:213|162:164,1,90,10|8,0:0|0:0,0:0:0:0:
88,82,256504,2,0,P|41:92|-5:102,1,90,2|0,1:2|0:0,0:0:0:0:
263,245,256857,6,0,P|310:235|356:225,1,90,10|0,0:0|0:0,0:0:0:0:
512,354,257210,2,0,P|480:312|400:314,1,135,0|0,1:0|0:0,0:0:0:0:
350,226,257563,2,0,P|339:181|361:121,1,90,10|8,0:0|0:0,0:0:0:0:
458,13,257916,6,0,L|471:104,1,90,2|0,1:2|0:0,0:0:0:0:
241,377,258269,2,0,P|236:331|227:284,1,90,12|0,0:0|0:0,0:0:0:0:
350,226,258622,6,0,P|404:235|446:247,1,90,2|0,1:2|0:0,0:0:0:0:
217,89,258975,2,0,L|129:107,1,90,2|0,1:2|0:0,0:0:0:0:
0,288,259327,6,0,B|41:231|111:239|111:239|125:271|172:275,1,180,12|8,0:0|1:2,0:0:0:0:
311,121,259857,1,0,0:0:0:0:
345,212,260033,2,0,L|254:197,1,90,0|8,1:0|0:0,0:0:0:0:
149,271,260386,1,10,0:0:0:0:
327,384,260651,1,8,0:0:0:0:
334,366,260739,5,0,1:0:0:0:
364,333,260827,1,0,1:0:0:0:
407,324,260916,1,0,1:0:0:0:
448,340,261004,1,0,1:0:0:0:
474,365,261092,6,0,P|485:306|501:219,1,135,12|0,0:0|0:0,0:0:0:0:
420,116,261445,2,0,B|400:160|400:160|413:205,1,90,0|0,1:0|0:0,0:0:0:0:
240,334,261798,2,0,P|194:352|134:299,1,135,10|0,0:0|0:0,0:0:0:0:
92,207,262151,2,0,L|201:226,1,90,2|0,1:2|0:0,0:0:0:0:
17,365,262504,2,0,P|2:321|15:275,1,90,10|0,0:0|0:0,0:0:0:0:
152,122,262857,6,0,P|144:81|133:30,1,90,0|0,1:0|0:0,0:0:0:0:
339,208,263210,2,0,P|346:163|358:116,1,90,10|0,0:0|0:0,0:0:0:0:
225,256,263563,1,2,1:2:0:0:
359,345,263739,1,0,0:0:0:0:
225,256,263916,6,0,P|162:215|102:230,1,135,10|0,0:0|0:0,0:0:0:0:
29,325,264269,2,0,L|122:308,1,90,2|0,1:2|0:0,0:0:0:0:
335,183,264622,2,0,P|352:223|341:271,1,90,10|0,0:0|0:0,0:0:0:0:
227,381,264975,2,0,P|233:332|244:279,1,90,2|0,1:2|0:0,0:0:0:0:
82,78,265327,2,0,P|75:126|65:180,1,90,10|0,0:0|0:0,0:0:0:0:
124,226,265592,1,8,0:0:0:0:
130,233,265680,1,0,1:0:0:0:
35,314,265857,5,8,0:0:0:0:
30,297,265945,1,8,0:0:0:0:
35,279,266033,1,10,0:0:0:0:
220,153,266210,1,0,0:0:0:0:
143,298,266386,6,0,L|131:244,1,53.9999983520508,0|0,1:0|0:0,0:0:0:0:
30,297,266563,1,0,0:0:0:0:
225,354,266739,6,0,B|293:361|299:300|383:308,1,161.999995056153,12|0,0:0|0:0,0:0:0:0:
497,232,267092,2,0,B|470:353|470:353|491:318|525:310,1,180,0|10,1:0|0:0,0:0:0:0:
370,201,267622,1,8,0:0:0:0:
272,298,267798,2,0,P|320:290|379:281,1,90,0|0,1:0|0:0,0:0:0:0:
198,210,268151,2,0,P|154:250|180:336,1,135,10|0,0:0|0:0,0:0:0:0:
258,384,268504,2,0,P|267:326|273:286,1,90,2|0,1:2|0:0,0:0:0:0:
101,53,268857,2,0,P|110:111|125:198,1,135,10|0,0:0|0:0,0:0:0:0:
75,254,269210,2,0,P|25:280|-21:264,1,90,2|0,1:2|0:0,0:0:0:0:
240,125,269563,6,0,P|295:133|390:148,1,135,10|0,0:0|0:0,0:0:0:0:
442,197,269916,1,8,0:0:0:0:
512,134,270092,1,8,0:0:0:0:
428,43,270269,5,0,1:0:0:0:
512,134,270445,1,0,1:0:0:0:
371,275,270622,1,0,1:0:0:0:
463,378,270798,5,2,1:2:0:0:
463,378,270886,1,2,1:2:0:0:
463,378,270975,2,0,B|451:305|359:268|305:293|256:322|308:466|201:443|137:350|169:312|222:273|280:312|286:327,1,450,6|0,1:2|0:0,0:0:0:0:
282,322,273443,2,0,L|298:196,1,125.999996154785,2|2,0:0|0:0,0:0:0:0:
181,138,274220,5,2,0:3:0:0:
178,144,274266,6,0,P|188:196|199:253,1,107.999996704102,2|0,0:0|0:0,0:0:0:0:
136,320,275110,2,0,P|80:353|32:336,1,107.999996704102,2|2,0:0|0:0,0:0:0:0:
365,225,275920,6,0,P|417:216|459:247,2,107.999996704102,2|0|2,0:0|0:0|0:0,0:0:0:0:
288,173,277187,2,0,L|302:86,1,80.9999975280763,2|0,0:0|0:1,0:0:0:0:
316,83,277587,6,0,L|307:30,1,43.2000010546875,2|0,0:0|0:0,0:0:0:0:
370,0,277987,1,2,0:0:0:0:
509,272,278409,6,0,L|465:265,1,43.2000010546875,2|0,0:0|0:0,0:0:0:0:
396,315,278853,2,0,L|346:307,1,43.2000010546875,2|0,0:0|0:0,0:0:0:0:
276,273,279281,6,0,B|326:297|336:393|240:459|192:334|149:342|161:218|225:172|281:164|259:31|259:31|192:51|175:104|204:153,1,671,2|0,0:0|0:0,0:0:0:0:
