osu file format v14

[General]
AudioFilename: audio.mp3
AudioLeadIn: 0
PreviewTime: 29866
Countdown: 0
SampleSet: Normal
StackLeniency: 0.7
Mode: 1
LetterboxInBreaks: 0
WidescreenStoryboard: 1

[Editor]
DistanceSpacing: 1.2
BeatDivisor: 4
GridSize: 32
TimelineZoom: 0.9999999

[Metadata]
Title:Magnit
TitleUnicode:Магнит
Artist:Mirele
ArtistUnicode:Mirèle
Creator:Lexa14
Version:Attraction
Source:
Tags:pop russian Pishu i stirayu Eva Krause Gurari ева краузе гурари пишу и стираю magnet
BeatmapID:3317417
BeatmapSetID:1624787

[Difficulty]
HPDrainRate:6
CircleSize:2
OverallDifficulty:4.5
ApproachRate:10
SliderMultiplier:1.4
SliderTickRate:1

[Events]
//Background and Video events
0,0,"lovee.jpeg",0,0
//Break Periods
//Storyboard Layer 0 (Background)
//Storyboard Layer 1 (Fail)
//Storyboard Layer 2 (Pass)
//Storyboard Layer 3 (Foreground)
//Storyboard Layer 4 (Overlay)
//Storyboard Sound Samples

[TimingPoints]
-7,545.454545454546,4,1,0,40,1,0
30538,-100,4,1,0,50,0,1
47993,-100,4,1,0,45,0,0
65390,-100,4,1,0,40,0,0
87265,-100,4,1,0,50,0,1
122174,-100,4,1,0,30,0,0

[HitObjects]
256,192,8720,5,0,0:0:0:0:
256,192,9538,1,0,0:0:0:0:
256,192,9811,1,8,0:0:0:0:
256,192,10220,1,0,0:0:0:0:
256,192,10629,1,8,0:0:0:0:
256,192,11174,1,0,0:0:0:0:
256,192,11447,1,8,0:0:0:0:
256,192,11720,1,0,0:0:0:0:
256,192,11993,1,8,0:0:0:0:
256,192,12265,1,8,0:0:0:0:
256,192,12538,1,0,0:0:0:0:
256,192,12811,1,8,0:0:0:0:
256,192,13356,1,8,0:0:0:0:
256,192,13629,1,0,0:0:0:0:
256,192,14447,1,8,0:0:0:0:
256,192,14993,1,0,0:0:0:0:
256,192,15265,1,8,0:0:0:0:
256,192,16083,1,8,0:0:0:0:
256,192,16902,1,0,0:0:0:0:
256,192,17447,1,8,0:0:0:0:
256,192,18265,1,0,0:0:0:0:
256,192,18538,1,8,0:0:0:0:
256,192,18811,1,0,0:0:0:0:
256,192,19083,1,0,0:0:0:0:
256,192,19356,1,8,0:0:0:0:
256,192,19902,1,8,0:0:0:0:
256,192,20174,1,0,0:0:0:0:
256,192,20447,1,0,0:0:0:0:
256,192,20720,1,8,0:0:0:0:
256,192,20993,1,8,0:0:0:0:
256,192,21265,1,0,0:0:0:0:
256,192,21538,1,8,0:0:0:0:
256,192,22083,1,0,0:0:0:0:
256,192,22629,1,8,0:0:0:0:
256,192,22902,1,0,0:0:0:0:
256,192,23720,1,0,0:0:0:0:
256,192,23993,1,8,0:0:0:0:
256,192,24811,1,8,0:0:0:0:
256,192,25629,1,0,0:0:0:0:
256,192,29993,1,0,0:0:0:0:
256,192,30265,1,0,0:0:0:0:
256,192,30538,1,8,0:0:0:0:
256,192,30811,1,8,0:0:0:0:
256,192,30947,1,8,0:0:0:0:
256,192,31083,1,0,0:0:0:0:
256,192,31356,1,0,0:0:0:0:
256,192,31493,1,0,0:0:0:0:
256,192,31629,1,8,0:0:0:0:
256,192,32174,1,0,0:0:0:0:
256,192,32447,1,0,0:0:0:0:
256,192,32583,1,8,0:0:0:0:
256,192,32720,1,0,0:0:0:0:
256,192,32993,1,0,0:0:0:0:
256,192,33265,1,8,0:0:0:0:
256,192,33538,1,0,0:0:0:0:
256,192,33811,1,8,0:0:0:0:
256,192,34356,1,0,0:0:0:0:
256,192,34629,1,0,0:0:0:0:
256,192,34902,1,8,0:0:0:0:
256,192,35174,1,0,0:0:0:0:
256,192,35311,1,0,0:0:0:0:
256,192,35447,1,8,0:0:0:0:
256,192,35720,1,8,0:0:0:0:
256,192,35993,1,0,0:0:0:0:
256,192,36538,1,0,0:0:0:0:
256,192,36811,1,0,0:0:0:0:
256,192,37083,1,8,0:0:0:0:
256,192,37356,1,8,0:0:0:0:
256,192,37493,1,0,0:0:0:0:
256,192,37629,1,8,0:0:0:0:
256,192,37902,1,8,0:0:0:0:
256,192,38174,1,0,0:0:0:0:
256,192,38720,1,8,0:0:0:0:
256,192,38993,1,8,0:0:0:0:
256,192,39265,1,0,0:0:0:0:
256,192,39538,1,8,0:0:0:0:
256,192,39811,1,0,0:0:0:0:
256,192,39947,1,0,0:0:0:0:
256,192,40083,1,0,0:0:0:0:
256,192,40356,1,8,0:0:0:0:
256,192,40902,1,8,0:0:0:0:
256,192,41174,1,8,0:0:0:0:
256,192,41447,1,0,0:0:0:0:
256,192,41993,1,0,0:0:0:0:
256,192,42538,1,8,0:0:0:0:
256,192,43083,1,0,0:0:0:0:
256,192,43356,1,0,0:0:0:0:
256,192,43629,1,8,0:0:0:0:
256,192,43902,1,0,0:0:0:0:
256,192,44038,1,8,0:0:0:0:
256,192,44174,1,0,0:0:0:0:
256,192,44447,1,0,0:0:0:0:
256,192,44720,1,8,0:0:0:0:
256,192,45265,1,0,0:0:0:0:
256,192,45538,1,0,0:0:0:0:
256,192,45811,1,8,0:0:0:0:
256,192,46083,1,0,0:0:0:0:
256,192,46220,1,0,0:0:0:0:
256,192,46356,1,8,0:0:0:0:
256,192,46629,1,0,0:0:0:0:
256,192,46765,1,8,0:0:0:0:
256,192,46902,1,0,0:0:0:0:
256,192,47174,1,8,0:0:0:0:
256,192,47447,1,0,0:0:0:0:
256,192,47993,1,0,0:0:0:0:
256,192,48265,1,8,0:0:0:0:
256,192,48538,1,0,0:0:0:0:
256,192,48811,1,0,0:0:0:0:
256,192,49083,1,8,0:0:0:0:
256,192,49356,1,8,0:0:0:0:
256,192,49629,1,0,0:0:0:0:
256,192,49902,1,8,0:0:0:0:
256,192,50174,1,0,0:0:0:0:
256,192,50720,1,0,0:0:0:0:
256,192,50993,1,0,0:0:0:0:
256,192,51265,1,8,0:0:0:0:
256,192,51538,1,8,0:0:0:0:
256,192,51811,1,0,0:0:0:0:
256,192,52356,1,0,0:0:0:0:
256,192,52629,1,8,0:0:0:0:
256,192,52902,1,0,0:0:0:0:
256,192,53174,1,0,0:0:0:0:
256,192,53447,1,8,0:0:0:0:
256,192,53720,1,8,0:0:0:0:
256,192,53993,1,0,0:0:0:0:
256,192,54538,1,0,0:0:0:0:
256,192,54811,1,8,0:0:0:0:
256,192,55083,1,0,0:0:0:0:
256,192,55356,1,0,0:0:0:0:
256,192,55629,1,8,0:0:0:0:
256,192,55902,1,8,0:0:0:0:
256,192,56174,1,0,0:0:0:0:
256,192,56720,1,0,0:0:0:0:
256,192,56993,1,8,0:0:0:0:
256,192,57265,1,8,0:0:0:0:
256,192,57538,1,0,0:0:0:0:
256,192,57811,1,8,0:0:0:0:
256,192,58083,1,8,0:0:0:0:
256,192,58356,1,0,0:0:0:0:
256,192,58629,1,8,0:0:0:0:
256,192,58902,1,0,0:0:0:0:
256,192,59447,1,8,0:0:0:0:
256,192,59720,1,0,0:0:0:0:
256,192,59993,1,8,0:0:0:0:
256,192,60265,1,8,0:0:0:0:
256,192,60538,1,0,0:0:0:0:
256,192,61083,1,0,0:0:0:0:
256,192,61356,1,8,0:0:0:0:
256,192,61629,1,0,0:0:0:0:
256,192,61902,1,0,0:0:0:0:
256,192,62174,1,8,0:0:0:0:
256,192,62447,1,8,0:0:0:0:
256,192,62720,1,0,0:0:0:0:
256,192,63265,1,0,0:0:0:0:
256,192,63538,1,8,0:0:0:0:
256,192,63811,1,8,0:0:0:0:
256,192,64083,1,0,0:0:0:0:
256,192,64356,1,8,0:0:0:0:
256,192,64629,1,8,0:0:0:0:
256,192,64902,1,0,0:0:0:0:
256,192,65447,1,8,0:0:0:0:
256,192,66265,1,0,0:0:0:0:
256,192,66538,1,8,0:0:0:0:
256,192,66947,1,8,0:0:0:0:
256,192,67356,1,0,0:0:0:0:
256,192,67629,1,8,0:0:0:0:
256,192,67902,1,8,0:0:0:0:
256,192,68174,1,0,0:0:0:0:
256,192,68447,1,0,0:0:0:0:
256,192,68720,1,8,0:0:0:0:
256,192,69265,1,8,0:0:0:0:
256,192,69538,1,0,0:0:0:0:
256,192,70083,1,8,0:0:0:0:
256,192,70356,1,0,0:0:0:0:
256,192,70629,1,8,0:0:0:0:
256,192,71174,1,8,0:0:0:0:
256,192,71447,1,0,0:0:0:0:
256,192,71993,1,8,0:0:0:0:
256,192,72811,1,8,0:0:0:0:
256,192,73629,1,0,0:0:0:0:
256,192,74174,1,8,0:0:0:0:
256,192,74720,1,0,0:0:0:0:
256,192,74993,1,0,0:0:0:0:
256,192,75265,1,8,0:0:0:0:
256,192,75674,1,0,0:0:0:0:
256,192,76083,1,0,0:0:0:0:
256,192,76356,1,8,0:0:0:0:
256,192,76902,1,8,0:0:0:0:
256,192,77174,1,8,0:0:0:0:
256,192,77447,1,0,0:0:0:0:
256,192,77993,1,0,0:0:0:0:
256,192,78265,1,8,0:0:0:0:
256,192,78811,1,8,0:0:0:0:
256,192,79083,1,0,0:0:0:0:
256,192,79629,1,0,0:0:0:0:
256,192,79902,1,8,0:0:0:0:
256,192,80174,1,0,0:0:0:0:
256,192,80720,1,8,0:0:0:0:
256,192,81538,1,8,0:0:0:0:
256,192,82356,1,0,0:0:0:0:
256,192,82902,1,0,0:0:0:0:
256,192,86720,1,0,0:0:0:0:
256,192,86993,1,0,0:0:0:0:
256,192,87265,1,8,0:0:0:0:
256,192,87538,1,8,0:0:0:0:
256,192,87674,1,8,0:0:0:0:
256,192,87811,1,0,0:0:0:0:
256,192,88083,1,0,0:0:0:0:
256,192,88220,1,0,0:0:0:0:
256,192,88356,1,8,0:0:0:0:
256,192,88902,1,0,0:0:0:0:
256,192,89174,1,8,0:0:0:0:
256,192,89311,1,8,0:0:0:0:
256,192,89447,1,0,0:0:0:0:
256,192,89720,1,0,0:0:0:0:
256,192,89993,1,8,0:0:0:0:
256,192,90265,1,0,0:0:0:0:
256,192,90538,1,8,0:0:0:0:
256,192,91083,1,0,0:0:0:0:
256,192,91356,1,0,0:0:0:0:
256,192,91629,1,8,0:0:0:0:
256,192,91902,1,0,0:0:0:0:
256,192,92038,1,0,0:0:0:0:
256,192,92174,1,8,0:0:0:0:
256,192,92447,1,8,0:0:0:0:
256,192,92720,1,0,0:0:0:0:
256,192,93265,1,0,0:0:0:0:
256,192,93538,1,0,0:0:0:0:
256,192,93811,1,8,0:0:0:0:
256,192,94083,1,0,0:0:0:0:
256,192,94220,1,0,0:0:0:0:
256,192,94356,1,8,0:0:0:0:
256,192,94629,1,8,0:0:0:0:
256,192,94902,1,0,0:0:0:0:
256,192,95447,1,8,0:0:0:0:
256,192,95720,1,8,0:0:0:0:
256,192,95993,1,0,0:0:0:0:
256,192,96265,1,8,0:0:0:0:
256,192,96402,1,8,0:0:0:0:
256,192,96538,1,8,0:0:0:0:
256,192,96811,1,0,0:0:0:0:
256,192,97083,1,8,0:0:0:0:
256,192,97629,1,8,0:0:0:0:
256,192,97902,1,8,0:0:0:0:
256,192,98174,1,0,0:0:0:0:
256,192,98720,1,0,0:0:0:0:
256,192,99265,1,8,0:0:0:0:
256,192,99811,1,0,0:0:0:0:
256,192,100083,1,0,0:0:0:0:
256,192,100356,1,8,0:0:0:0:
256,192,100629,1,0,0:0:0:0:
256,192,100765,1,8,0:0:0:0:
256,192,100902,1,0,0:0:0:0:
256,192,101174,1,0,0:0:0:0:
256,192,101447,1,8,0:0:0:0:
256,192,101993,1,0,0:0:0:0:
256,192,102265,1,0,0:0:0:0:
256,192,102538,1,8,0:0:0:0:
256,192,102811,1,0,0:0:0:0:
256,192,102947,1,8,0:0:0:0:
256,192,103083,1,0,0:0:0:0:
256,192,103356,1,8,0:0:0:0:
256,192,103493,1,0,0:0:0:0:
256,192,103629,1,8,0:0:0:0:
256,192,103902,1,0,0:0:0:0:
256,192,104174,1,8,0:0:0:0:
256,192,104447,1,8,0:0:0:0:
256,192,104720,1,0,0:0:0:0:
256,192,105265,1,0,0:0:0:0:
256,192,105538,1,0,0:0:0:0:
256,192,105811,1,8,0:0:0:0:
256,192,106356,1,8,0:0:0:0:
256,192,106629,1,8,0:0:0:0:
256,192,106902,1,0,0:0:0:0:
256,192,107447,1,0,0:0:0:0:
256,192,107993,1,8,0:0:0:0:
256,192,108538,1,0,0:0:0:0:
256,192,108811,1,0,0:0:0:0:
256,192,109083,1,8,0:0:0:0:
256,192,109356,1,0,0:0:0:0:
256,192,109493,1,0,0:0:0:0:
256,192,109629,1,8,0:0:0:0:
256,192,109902,1,8,0:0:0:0:
256,192,110174,1,0,0:0:0:0:
256,192,110720,1,0,0:0:0:0:
256,192,110993,1,0,0:0:0:0:
256,192,111265,1,8,0:0:0:0:
256,192,111538,1,0,0:0:0:0:
256,192,111674,1,8,0:0:0:0:
256,192,111811,1,8,0:0:0:0:
256,192,112083,1,8,0:0:0:0:
256,192,112356,1,0,0:0:0:0:
256,192,112902,1,8,0:0:0:0:
256,192,113174,1,8,0:0:0:0:
256,192,113447,1,0,0:0:0:0:
256,192,113720,1,8,0:0:0:0:
256,192,113993,1,8,0:0:0:0:
256,192,114265,1,0,0:0:0:0:
256,192,114538,1,8,0:0:0:0:
256,192,115083,1,0,0:0:0:0:
256,192,115356,1,8,0:0:0:0:
256,192,115629,1,0,0:0:0:0:
256,192,116174,1,0,0:0:0:0:
256,192,116720,1,8,0:0:0:0:
256,192,117265,1,0,0:0:0:0:
256,192,117538,1,0,0:0:0:0:
256,192,117811,1,8,0:0:0:0:
256,192,118083,1,0,0:0:0:0:
256,192,118220,1,8,0:0:0:0:
256,192,118356,1,0,0:0:0:0:
256,192,118629,1,0,0:0:0:0:
256,192,118902,1,8,0:0:0:0:
256,192,119447,1,0,0:0:0:0:
256,192,119720,1,0,0:0:0:0:
256,192,119993,1,8,0:0:0:0:
256,192,120265,1,0,0:0:0:0:
256,192,120402,1,0,0:0:0:0:
256,192,120538,1,8,0:0:0:0:
256,192,120811,1,0,0:0:0:0:
256,192,120947,1,8,0:0:0:0:
256,192,121083,1,0,0:0:0:0:
256,192,121356,1,0,0:0:0:0:
256,192,121629,1,8,0:0:0:0:
256,192,122174,1,0,0:0:0:0:
256,192,122447,1,8,0:0:0:0:
256,192,122720,1,0,0:0:0:0:
256,192,123265,1,8,0:0:0:0:
256,192,123538,1,8,0:0:0:0:
256,192,123811,1,0,0:0:0:0:
256,192,124902,1,0,0:0:0:0:
256,192,125174,1,0,0:0:0:0:
256,192,125447,1,8,0:0:0:0:
256,192,125720,1,8,0:0:0:0:
256,192,125993,1,0,0:0:0:0:
256,192,126265,1,0,0:0:0:0:
256,192,126811,1,0,0:0:0:0:
256,192,127356,1,0,0:0:0:0:
256,192,127629,1,8,0:0:0:0:
256,192,127902,1,8,0:0:0:0:
256,192,128174,1,0,0:0:0:0:
256,192,128993,1,0,0:0:0:0:
256,192,129265,1,8,0:0:0:0:
256,192,129538,1,0,0:0:0:0:
256,192,129811,1,8,0:0:0:0:
256,192,130083,1,8,0:0:0:0:
256,192,130356,1,0,0:0:0:0:
256,192,130902,1,0,0:0:0:0:
