osu file format v14

[General]
AudioFilename: audio.mp3
AudioLeadIn: 0
PreviewTime: 36865
Countdown: 0
SampleSet: Normal
StackLeniency: 0.7
Mode: 1
LetterboxInBreaks: 0
WidescreenStoryboard: 1

[Editor]
Bookmarks: 7442,22211,36981,51750,66519,81288,96058
DistanceSpacing: 1
BeatDivisor: 4
GridSize: 32
TimelineZoom: 0.8

[Metadata]
Title:Estetika Grustnykh Lyudey (Cut Ver.)
TitleUnicode:Эстетика Грустных Людей (Cut Ver.)
Artist:Mirele
ArtistUnicode:Mirèle
Creator:Ryxliee
Version:Melancholy
Source:
Tags:female vocals vocalist pop russian русский поп Мирель Eva Krause Gurari ева краузе гурари cream soda short version froskya revialink
BeatmapID:3486562
BeatmapSetID:1706367

[Difficulty]
HPDrainRate:5
CircleSize:3
OverallDifficulty:5.5
ApproachRate:9
SliderMultiplier:1.4
SliderTickRate:1

[Events]
//Background and Video events
0,0,"bg.jpg",0,0
//Break Periods
//Storyboard Layer 0 (Background)
//Storyboard Layer 1 (Fail)
//Storyboard Layer 2 (Pass)
//Storyboard Layer 3 (Foreground)
//Storyboard Layer 4 (Overlay)
//Storyboard Sound Samples

[TimingPoints]
59,461.538461538462,4,1,0,50,1,0
59,-125,4,1,0,50,0,0
6480,-121.951219512195,4,1,0,50,0,0
6711,-119.047619047619,4,1,0,50,0,0
6942,-116.279069767442,4,1,0,50,0,0
7172,-113.636363636364,4,1,0,50,0,0
7288,-112.359550561798,4,1,0,50,0,0
7403,-111.111111111111,4,1,0,50,0,0
22172,-100,4,1,0,65,0,0
36480,-111.111111111111,4,1,0,65,0,0
36942,-125,4,1,0,55,0,0
50095,-119.047619047619,4,1,0,55,0,0
50326,-113.636363636364,4,1,0,55,0,0
50788,-106.382978723404,4,1,0,55,0,0
50903,-104.166666666667,4,1,0,55,0,0
51019,-102.040816326531,4,1,0,55,0,0
51249,-98.0392156862745,4,1,0,55,0,0
51480,-94.3396226415094,4,1,0,55,0,0
51595,-92.5925925925926,4,1,0,55,0,0
51711,-90.9090909090909,4,1,0,75,0,0
51751,-90.9090909090909,4,1,0,75,0,1
81249,-90.9090909090909,4,1,0,65,0,1
81289,-90.9090909090909,4,1,0,65,0,0
81711,-100,4,1,0,65,0,0

[HitObjects]
256,192,1905,5,0,0:0:0:0:
256,192,3751,1,0,0:0:0:0:
256,192,5597,1,0,0:0:0:0:
256,192,6059,1,8,0:0:0:0:
256,192,6520,1,0,0:0:0:0:
256,192,6751,1,8,0:0:0:0:
256,192,6982,1,8,0:0:0:0:
256,192,7212,1,8,0:0:0:0:
256,192,7328,1,8,0:0:0:0:
256,192,7443,1,0,0:0:0:0:
256,192,7905,1,8,0:0:0:0:
256,192,8135,1,0,0:0:0:0:
256,192,8366,1,8,0:0:0:0:
256,192,8828,1,0,0:0:0:0:
256,192,9059,1,0,0:0:0:0:
256,192,9289,1,8,0:0:0:0:
256,192,9751,1,0,0:0:0:0:
256,192,9982,1,8,0:0:0:0:
256,192,10212,1,8,0:0:0:0:
256,192,10443,1,0,0:0:0:0:
256,192,10674,1,8,0:0:0:0:
256,192,11135,1,0,0:0:0:0:
256,192,11597,1,0,0:0:0:0:
256,192,11828,1,8,0:0:0:0:
256,192,12059,1,0,0:0:0:0:
256,192,12520,1,8,0:0:0:0:
256,192,12751,1,0,0:0:0:0:
256,192,12982,1,8,0:0:0:0:
256,192,13443,1,8,0:0:0:0:
256,192,13674,1,8,0:0:0:0:
256,192,13905,1,0,0:0:0:0:
256,192,14135,1,0,0:0:0:0:
256,192,14366,1,8,0:0:0:0:
256,192,14828,1,0,0:0:0:0:
256,192,15289,1,8,0:0:0:0:
256,192,15520,1,8,0:0:0:0:
256,192,15751,1,0,0:0:0:0:
256,192,16212,1,0,0:0:0:0:
256,192,16443,1,0,0:0:0:0:
256,192,16674,1,8,0:0:0:0:
256,192,17135,1,0,0:0:0:0:
256,192,17366,1,8,0:0:0:0:
256,192,17597,1,8,0:0:0:0:
256,192,17828,1,0,0:0:0:0:
256,192,18059,1,8,0:0:0:0:
256,192,18520,1,0,0:0:0:0:
256,192,18982,1,8,0:0:0:0:
256,192,19212,1,8,0:0:0:0:
256,192,19443,1,0,0:0:0:0:
256,192,19674,1,0,0:0:0:0:
256,192,19905,1,8,0:0:0:0:
256,192,20020,1,8,0:0:0:0:
256,192,20135,1,0,0:0:0:0:
256,192,20366,1,0,0:0:0:0:
256,192,20828,1,8,0:0:0:0:
256,192,21059,1,0,0:0:0:0:
256,192,21289,1,0,0:0:0:0:
256,192,21751,1,8,0:0:0:0:
256,192,22212,1,4,0:0:0:0:
256,192,22443,1,0,0:0:0:0:
256,192,22674,1,8,0:0:0:0:
256,192,23135,1,0,0:0:0:0:
256,192,23597,1,0,0:0:0:0:
256,192,23828,1,0,0:0:0:0:
256,192,23943,1,0,0:0:0:0:
256,192,24059,1,8,0:0:0:0:
256,192,24289,1,0,0:0:0:0:
256,192,24520,1,8,0:0:0:0:
256,192,24751,1,8,0:0:0:0:
256,192,24982,1,0,0:0:0:0:
256,192,25443,1,8,0:0:0:0:
256,192,25674,1,8,0:0:0:0:
256,192,25789,1,8,0:0:0:0:
256,192,25905,1,0,0:0:0:0:
256,192,26135,1,0,0:0:0:0:
256,192,26366,1,8,0:0:0:0:
256,192,26597,1,8,0:0:0:0:
256,192,26712,1,0,0:0:0:0:
256,192,26828,1,0,0:0:0:0:
256,192,27059,1,0,0:0:0:0:
256,192,27289,1,8,0:0:0:0:
256,192,27520,1,0,0:0:0:0:
256,192,27635,1,0,0:0:0:0:
256,192,27751,1,8,0:0:0:0:
256,192,28212,1,8,0:0:0:0:
256,192,28443,1,8,0:0:0:0:
256,192,28674,1,0,0:0:0:0:
256,192,28905,1,0,0:0:0:0:
256,192,29135,1,8,0:0:0:0:
256,192,29597,1,0,0:0:0:0:
256,192,29828,1,8,0:0:0:0:
256,192,30059,1,0,0:0:0:0:
256,192,30520,1,0,0:0:0:0:
256,192,30982,1,8,0:0:0:0:
256,192,31212,1,8,0:0:0:0:
256,192,31328,1,8,0:0:0:0:
256,192,31443,1,0,0:0:0:0:
256,192,31674,1,0,0:0:0:0:
256,192,31905,1,8,0:0:0:0:
256,192,32135,1,0,0:0:0:0:
256,192,32366,1,0,0:0:0:0:
256,192,32828,1,8,0:0:0:0:
256,192,33059,1,0,0:0:0:0:
256,192,33174,1,0,0:0:0:0:
256,192,33289,1,8,0:0:0:0:
256,192,33520,1,0,0:0:0:0:
256,192,33751,1,8,0:0:0:0:
256,192,33982,1,8,0:0:0:0:
256,192,34097,1,8,0:0:0:0:
256,192,34212,1,0,0:0:0:0:
256,192,34443,1,8,0:0:0:0:
256,192,34674,1,0,0:0:0:0:
256,192,34905,1,0,0:0:0:0:
256,192,35020,1,0,0:0:0:0:
256,192,35135,1,8,0:0:0:0:
256,192,35597,1,0,0:0:0:0:
256,192,35828,1,0,0:0:0:0:
256,192,36059,1,0,0:0:0:0:
256,192,36520,1,8,0:0:0:0:
256,192,36982,1,4,0:0:0:0:
256,192,37212,1,0,0:0:0:0:
256,192,37443,1,8,0:0:0:0:
256,192,37674,1,0,0:0:0:0:
256,192,37905,1,8,0:0:0:0:
256,192,38135,1,8,0:0:0:0:
256,192,38366,1,0,0:0:0:0:
256,192,38597,1,0,0:0:0:0:
256,192,38828,1,8,0:0:0:0:
256,192,39289,1,8,0:0:0:0:
256,192,39520,1,0,0:0:0:0:
256,192,39751,1,8,0:0:0:0:
256,192,39982,1,8,0:0:0:0:
256,192,40212,1,0,0:0:0:0:
256,192,40443,1,0,0:0:0:0:
256,192,40674,1,8,0:0:0:0:
256,192,41366,1,8,0:0:0:0:
256,192,41597,1,0,0:0:0:0:
256,192,41828,1,0,0:0:0:0:
256,192,42059,1,8,0:0:0:0:
256,192,42751,1,8,0:0:0:0:
256,192,42982,1,0,0:0:0:0:
256,192,43212,1,0,0:0:0:0:
256,192,43443,1,8,0:0:0:0:
256,192,43905,1,8,0:0:0:0:
256,192,44366,1,0,0:0:0:0:
256,192,44597,1,0,0:0:0:0:
256,192,44828,1,8,0:0:0:0:
256,192,45059,1,0,0:0:0:0:
256,192,45289,1,8,0:0:0:0:
256,192,45520,1,8,0:0:0:0:
256,192,45751,1,0,0:0:0:0:
256,192,46212,1,8,0:0:0:0:
256,192,46443,1,0,0:0:0:0:
256,192,46674,1,8,0:0:0:0:
256,192,46905,1,8,0:0:0:0:
256,192,47135,1,0,0:0:0:0:
256,192,47366,1,0,0:0:0:0:
256,192,47597,1,8,0:0:0:0:
256,192,48059,1,0,0:0:0:0:
256,192,48751,1,0,0:0:0:0:
256,192,48982,1,8,0:0:0:0:
256,192,49212,1,8,0:0:0:0:
256,192,49443,1,0,0:0:0:0:
256,192,49905,1,0,0:0:0:0:
256,192,50135,1,0,0:0:0:0:
256,192,50366,1,8,0:0:0:0:
256,192,50828,1,8,0:0:0:0:
256,192,50943,1,8,0:0:0:0:
256,192,51059,1,8,0:0:0:0:
256,192,51289,1,0,0:0:0:0:
256,192,51520,1,0,0:0:0:0:
256,192,51635,1,0,0:0:0:0:
256,192,51751,1,12,0:0:0:0:
256,192,51982,1,8,0:0:0:0:
256,192,52097,1,0,0:0:0:0:
256,192,52212,1,8,0:0:0:0:
256,192,52443,1,0,0:0:0:0:
256,192,52674,1,8,0:0:0:0:
256,192,52789,1,0,0:0:0:0:
256,192,52905,1,8,0:0:0:0:
256,192,53020,1,8,0:0:0:0:
256,192,53135,1,0,0:0:0:0:
256,192,53366,1,0,0:0:0:0:
256,192,53482,1,0,0:0:0:0:
256,192,53597,1,8,0:0:0:0:
256,192,53828,1,0,0:0:0:0:
256,192,54059,1,8,0:0:0:0:
256,192,54174,1,8,0:0:0:0:
256,192,54289,1,0,0:0:0:0:
256,192,54520,1,8,0:0:0:0:
256,192,54635,1,0,0:0:0:0:
256,192,54751,1,0,0:0:0:0:
256,192,54982,1,8,0:0:0:0:
256,192,55212,1,0,0:0:0:0:
256,192,55443,1,8,0:0:0:0:
256,192,55905,1,0,0:0:0:0:
256,192,56135,1,0,0:0:0:0:
256,192,56251,1,0,0:0:0:0:
256,192,56366,1,8,0:0:0:0:
256,192,56597,1,0,0:0:0:0:
256,192,56828,1,8,0:0:0:0:
256,192,56943,1,8,0:0:0:0:
256,192,57059,1,0,0:0:0:0:
256,192,57289,1,0,0:0:0:0:
256,192,57520,1,8,0:0:0:0:
256,192,57635,1,0,0:0:0:0:
256,192,57751,1,8,0:0:0:0:
256,192,57982,1,0,0:0:0:0:
256,192,58212,1,8,0:0:0:0:
256,192,58443,1,8,0:0:0:0:
256,192,58674,1,0,0:0:0:0:
256,192,58789,1,0,0:0:0:0:
256,192,58905,1,0,0:0:0:0:
256,192,59020,1,0,0:0:0:0:
256,192,59135,1,8,0:0:0:0:
256,192,59366,1,0,0:0:0:0:
256,192,59597,1,8,0:0:0:0:
256,192,59828,1,8,0:0:0:0:
256,192,59943,1,0,0:0:0:0:
256,192,60059,1,8,0:0:0:0:
256,192,60289,1,0,0:0:0:0:
256,192,60520,1,8,0:0:0:0:
256,192,60635,1,8,0:0:0:0:
256,192,60751,1,0,0:0:0:0:
256,192,60982,1,8,0:0:0:0:
256,192,61212,1,0,0:0:0:0:
256,192,61443,1,8,0:0:0:0:
256,192,61559,1,0,0:0:0:0:
256,192,61674,1,8,0:0:0:0:
256,192,61789,1,0,0:0:0:0:
256,192,61905,1,8,0:0:0:0:
256,192,62135,1,8,0:0:0:0:
256,192,62366,1,0,0:0:0:0:
256,192,62482,1,0,0:0:0:0:
256,192,62597,1,0,0:0:0:0:
256,192,62828,1,8,0:0:0:0:
256,192,63289,1,8,0:0:0:0:
256,192,63520,1,0,0:0:0:0:
256,192,63635,1,0,0:0:0:0:
256,192,63751,1,8,0:0:0:0:
256,192,63982,1,0,0:0:0:0:
256,192,64212,1,8,0:0:0:0:
256,192,64328,1,0,0:0:0:0:
256,192,64443,1,8,0:0:0:0:
256,192,64674,1,8,0:0:0:0:
256,192,64789,1,8,0:0:0:0:
256,192,64905,1,0,0:0:0:0:
256,192,65020,1,0,0:0:0:0:
256,192,65135,1,8,0:0:0:0:
256,192,65366,1,8,0:0:0:0:
256,192,65597,1,0,0:0:0:0:
256,192,65712,1,8,0:0:0:0:
256,192,65828,1,0,0:0:0:0:
256,192,66059,1,8,0:0:0:0:
256,192,66289,1,0,0:0:0:0:
256,192,66405,1,0,0:0:0:0:
256,192,66520,1,12,0:0:0:0:
256,192,66751,1,8,0:0:0:0:
256,192,66866,1,0,0:0:0:0:
256,192,66982,1,8,0:0:0:0:
256,192,67212,1,0,0:0:0:0:
256,192,67443,1,8,0:0:0:0:
256,192,67559,1,8,0:0:0:0:
256,192,67674,1,0,0:0:0:0:
256,192,67789,1,0,0:0:0:0:
256,192,67905,1,8,0:0:0:0:
256,192,68135,1,0,0:0:0:0:
256,192,68251,1,0,0:0:0:0:
256,192,68366,1,8,0:0:0:0:
256,192,68597,1,0,0:0:0:0:
256,192,68828,1,8,0:0:0:0:
256,192,68943,1,8,0:0:0:0:
256,192,69059,1,0,0:0:0:0:
256,192,69289,1,8,0:0:0:0:
256,192,69405,1,0,0:0:0:0:
256,192,69520,1,0,0:0:0:0:
256,192,69751,1,8,0:0:0:0:
256,192,69982,1,0,0:0:0:0:
256,192,70212,1,8,0:0:0:0:
256,192,70674,1,0,0:0:0:0:
256,192,70905,1,0,0:0:0:0:
256,192,71020,1,0,0:0:0:0:
256,192,71135,1,8,0:0:0:0:
256,192,71366,1,0,0:0:0:0:
256,192,71597,1,8,0:0:0:0:
256,192,71712,1,0,0:0:0:0:
256,192,71828,1,0,0:0:0:0:
256,192,72059,1,8,0:0:0:0:
256,192,72289,1,0,0:0:0:0:
256,192,72520,1,8,0:0:0:0:
256,192,72635,1,8,0:0:0:0:
256,192,72751,1,0,0:0:0:0:
256,192,72982,1,8,0:0:0:0:
256,192,73212,1,0,0:0:0:0:
256,192,73443,1,8,0:0:0:0:
256,192,73559,1,8,0:0:0:0:
256,192,73674,1,8,0:0:0:0:
256,192,73789,1,8,0:0:0:0:
256,192,73905,1,0,0:0:0:0:
256,192,74135,1,0,0:0:0:0:
256,192,74366,1,8,0:0:0:0:
256,192,74597,1,0,0:0:0:0:
256,192,74712,1,0,0:0:0:0:
256,192,74828,1,8,0:0:0:0:
256,192,75059,1,0,0:0:0:0:
256,192,75289,1,8,0:0:0:0:
256,192,75405,1,8,0:0:0:0:
256,192,75520,1,0,0:0:0:0:
256,192,75751,1,8,0:0:0:0:
256,192,75982,1,0,0:0:0:0:
256,192,76212,1,8,0:0:0:0:
256,192,76328,1,8,0:0:0:0:
256,192,76443,1,0,0:0:0:0:
256,192,76559,1,0,0:0:0:0:
256,192,76674,1,8,0:0:0:0:
256,192,76905,1,0,0:0:0:0:
256,192,77135,1,0,0:0:0:0:
256,192,77251,1,0,0:0:0:0:
256,192,77366,1,0,0:0:0:0:
256,192,77597,1,8,0:0:0:0:
256,192,78059,1,8,0:0:0:0:
256,192,78289,1,8,0:0:0:0:
256,192,78405,1,8,0:0:0:0:
256,192,78520,1,8,0:0:0:0:
256,192,78751,1,0,0:0:0:0:
256,192,78982,1,8,0:0:0:0:
256,192,79097,1,0,0:0:0:0:
256,192,79212,1,8,0:0:0:0:
256,192,79443,1,8,0:0:0:0:
256,192,79559,1,0,0:0:0:0:
256,192,79674,1,8,0:0:0:0:
256,192,79789,1,8,0:0:0:0:
256,192,79905,1,0,0:0:0:0:
256,192,80135,1,0,0:0:0:0:
256,192,80366,1,8,0:0:0:0:
256,192,80482,1,0,0:0:0:0:
256,192,80597,1,0,0:0:0:0:
256,192,80828,1,8,0:0:0:0:
256,192,81059,1,0,0:0:0:0:
256,192,81174,1,0,0:0:0:0:
256,192,81289,1,12,0:0:0:0:
256,192,81751,1,0,0:0:0:0:
256,192,81982,1,8,0:0:0:0:
256,192,82097,1,8,0:0:0:0:
256,192,82212,1,0,0:0:0:0:
256,192,82443,1,8,0:0:0:0:
256,192,82674,1,8,0:0:0:0:
256,192,82905,1,0,0:0:0:0:
256,192,83020,1,0,0:0:0:0:
256,192,83135,1,8,0:0:0:0:
256,192,83366,1,0,0:0:0:0:
256,192,83597,1,8,0:0:0:0:
256,192,83828,1,0,0:0:0:0:
256,192,83943,1,0,0:0:0:0:
256,192,84059,1,8,0:0:0:0:
256,192,84289,1,0,0:0:0:0:
256,192,84520,1,0,0:0:0:0:
256,192,84635,1,8,0:0:0:0:
256,192,84751,1,8,0:0:0:0:
256,192,84866,1,0,0:0:0:0:
256,192,84982,1,8,0:0:0:0:
256,192,85443,1,8,0:0:0:0:
256,192,85674,1,0,0:0:0:0:
256,192,85789,1,8,0:0:0:0:
256,192,85905,1,0,0:0:0:0:
256,192,86135,1,8,0:0:0:0:
256,192,86366,1,8,0:0:0:0:
256,192,86597,1,0,0:0:0:0:
256,192,86712,1,0,0:0:0:0:
256,192,86828,1,8,0:0:0:0:
256,192,87059,1,0,0:0:0:0:
256,192,87289,1,8,0:0:0:0:
256,192,87520,1,0,0:0:0:0:
256,192,87635,1,8,0:0:0:0:
256,192,87751,1,0,0:0:0:0:
256,192,87982,1,0,0:0:0:0:
256,192,88212,1,8,0:0:0:0:
256,192,88443,1,8,0:0:0:0:
256,192,88559,1,8,0:0:0:0:
256,192,88674,1,4,0:0:0:0:
256,192,89135,1,8,0:0:0:0:
256,192,89366,1,0,0:0:0:0:
256,192,89482,1,8,0:0:0:0:
256,192,89597,1,8,0:0:0:0:
256,192,89828,1,8,0:0:0:0:
256,192,90059,1,8,0:0:0:0:
256,192,90289,1,8,0:0:0:0:
256,192,90405,1,0,0:0:0:0:
256,192,90520,1,0,0:0:0:0:
256,192,90751,1,0,0:0:0:0:
256,192,90982,1,8,0:0:0:0:
256,192,91212,1,0,0:0:0:0:
256,192,91328,1,8,0:0:0:0:
256,192,91443,1,8,0:0:0:0:
256,192,91674,1,0,0:0:0:0:
256,192,91905,1,8,0:0:0:0:
256,192,92135,1,0,0:0:0:0:
256,192,92366,1,0,0:0:0:0:
256,192,92828,1,8,0:0:0:0:
256,192,93059,1,0,0:0:0:0:
256,192,93174,1,8,0:0:0:0:
256,192,93289,1,0,0:0:0:0:
256,192,93520,1,0,0:0:0:0:
256,192,93751,1,8,0:0:0:0:
256,192,93982,1,8,0:0:0:0:
256,192,94097,1,0,0:0:0:0:
256,192,94212,1,8,0:0:0:0:
256,192,94443,1,0,0:0:0:0:
256,192,94674,1,8,0:0:0:0:
256,192,94905,1,0,0:0:0:0:
256,192,95135,1,0,0:0:0:0:
256,192,95366,1,0,0:0:0:0:
256,192,95597,1,8,0:0:0:0:
256,192,95828,1,8,0:0:0:0:
256,192,96059,1,0,0:0:0:0:
