osu file format v14

[General]
AudioFilename: audio.mp3
AudioLeadIn: 0
PreviewTime: 36865
Countdown: 0
SampleSet: Normal
StackLeniency: 0.7
Mode: 1
LetterboxInBreaks: 0
WidescreenStoryboard: 1

[Editor]
Bookmarks: 7442,22211,36981,51750,66519,81288,96058
DistanceSpacing: 1
BeatDivisor: 4
GridSize: 32
TimelineZoom: 0.8

[Metadata]
Title:Estetika Grustnykh Lyudey (Cut Ver.)
TitleUnicode:Эстетика Грустных Людей (Cut Ver.)
Artist:Mirele
ArtistUnicode:Mirèle
Creator:Ryxliee
Version:Froskya's Futsuu
Source:
Tags:female vocals vocalist pop russian русский поп Мирель Eva Krause Gurari ева краузе гурари cream soda short version froskya revialink
BeatmapID:3495952
BeatmapSetID:1706367

[Difficulty]
HPDrainRate:7
CircleSize:3
OverallDifficulty:3.5
ApproachRate:9
SliderMultiplier:1.4
SliderTickRate:1

[Events]
//Background and Video events
0,0,"bg.jpg",0,0
//Break Periods
//Storyboard Layer 0 (Background)
//Storyboard Layer 1 (Fail)
//Storyboard Layer 2 (Pass)
//Storyboard Layer 3 (Foreground)
//Storyboard Layer 4 (Overlay)
//Storyboard Sound Samples

[TimingPoints]
59,461.538461538462,4,1,0,50,1,0
22172,-100,4,1,0,65,0,0
36942,-100,4,1,0,55,0,0
51711,-100,4,1,0,75,0,0
51751,-100,4,1,0,75,0,1
81249,-100,4,1,0,65,0,1
81289,-100,4,1,0,65,0,0

[HitObjects]
256,192,1905,5,0,0:0:0:0:
256,192,3751,5,0,0:0:0:0:
256,192,5597,5,8,0:0:0:0:
256,192,6059,1,0,0:0:0:0:
256,192,6751,1,0,0:0:0:0:
256,192,6982,1,0,0:0:0:0:
256,192,7443,1,8,0:0:0:0:
256,192,8366,5,8,0:0:0:0:
256,192,9289,5,8,0:0:0:0:
256,192,9982,1,0,0:0:0:0:
256,192,10212,1,8,0:0:0:0:
256,192,10674,1,8,0:0:0:0:
256,192,11135,1,0,0:0:0:0:
256,192,12059,5,8,0:0:0:0:
256,192,12982,5,8,0:0:0:0:
256,192,13674,1,0,0:0:0:0:
256,192,13905,1,8,0:0:0:0:
256,192,14366,1,8,0:0:0:0:
256,192,14828,1,0,0:0:0:0:
256,192,15751,5,8,0:0:0:0:
256,192,16674,5,8,0:0:0:0:
256,192,17366,1,0,0:0:0:0:
256,192,17597,1,8,0:0:0:0:
256,192,18520,5,0,0:0:0:0:
256,192,18982,1,8,0:0:0:0:
256,192,19212,1,8,0:0:0:0:
256,192,19443,1,0,0:0:0:0:
256,192,19905,1,8,0:0:0:0:
256,192,20135,1,8,0:0:0:0:
256,192,20366,1,0,0:0:0:0:
256,192,22212,5,4,0:0:0:0:
256,192,22674,1,8,0:0:0:0:
256,192,23135,1,0,0:0:0:0:
256,192,23828,1,8,0:0:0:0:
256,192,24059,1,0,0:0:0:0:
256,192,24520,1,0,0:0:0:0:
256,192,24751,1,8,0:0:0:0:
256,192,25674,5,8,0:0:0:0:
256,192,25905,1,0,0:0:0:0:
256,192,26597,1,0,0:0:0:0:
256,192,26828,1,8,0:0:0:0:
256,192,27520,1,0,0:0:0:0:
256,192,27751,1,8,0:0:0:0:
256,192,28674,1,0,0:0:0:0:
256,192,29597,5,0,0:0:0:0:
256,192,30059,1,8,0:0:0:0:
256,192,30520,1,0,0:0:0:0:
256,192,31212,1,8,0:0:0:0:
256,192,31443,1,0,0:0:0:0:
256,192,31905,1,0,0:0:0:0:
256,192,32135,1,8,0:0:0:0:
256,192,32828,1,8,0:0:0:0:
256,192,33059,1,8,0:0:0:0:
256,192,33289,1,0,0:0:0:0:
256,192,33751,1,8,0:0:0:0:
256,192,33982,1,8,0:0:0:0:
256,192,34212,1,0,0:0:0:0:
256,192,34674,1,8,0:0:0:0:
256,192,34905,1,8,0:0:0:0:
256,192,35135,1,0,0:0:0:0:
256,192,35597,1,8,0:0:0:0:
256,192,35828,1,8,0:0:0:0:
256,192,36059,1,0,0:0:0:0:
256,192,36520,1,8,0:0:0:0:
256,192,36982,5,4,0:0:0:0:
256,192,37905,5,8,0:0:0:0:
256,192,38828,5,8,0:0:0:0:
256,192,39289,1,8,0:0:0:0:
256,192,39751,1,0,0:0:0:0:
256,192,40212,1,8,0:0:0:0:
256,192,40674,1,0,0:0:0:0:
256,192,41597,5,8,0:0:0:0:
256,192,42059,1,0,0:0:0:0:
256,192,42982,5,0,0:0:0:0:
256,192,43443,1,8,0:0:0:0:
256,192,44366,5,0,0:0:0:0:
256,192,45289,5,8,0:0:0:0:
256,192,46212,5,8,0:0:0:0:
256,192,46674,1,8,0:0:0:0:
256,192,47135,1,0,0:0:0:0:
256,192,47597,1,8,0:0:0:0:
256,192,48059,1,0,0:0:0:0:
256,192,48982,5,8,0:0:0:0:
256,192,49443,1,0,0:0:0:0:
256,192,49905,1,8,0:0:0:0:
256,192,50828,5,8,0:0:0:0:
256,192,51751,5,4,0:0:0:0:
256,192,52212,1,8,0:0:0:0:
256,192,52674,1,8,0:0:0:0:
256,192,52905,1,0,0:0:0:0:
256,192,53135,1,0,0:0:0:0:
256,192,53366,1,8,0:0:0:0:
256,192,53597,1,8,0:0:0:0:
256,192,54059,1,8,0:0:0:0:
256,192,54520,1,0,0:0:0:0:
256,192,54982,1,8,0:0:0:0:
256,192,55212,1,8,0:0:0:0:
256,192,55443,1,0,0:0:0:0:
256,192,56135,1,0,0:0:0:0:
256,192,56366,1,8,0:0:0:0:
256,192,56597,1,8,0:0:0:0:
256,192,56828,1,0,0:0:0:0:
256,192,57520,1,8,0:0:0:0:
256,192,57751,1,0,0:0:0:0:
256,192,58212,1,8,0:0:0:0:
256,192,59135,5,0,0:0:0:0:
256,192,59597,1,8,0:0:0:0:
256,192,60059,1,8,0:0:0:0:
256,192,60289,1,0,0:0:0:0:
256,192,60520,1,8,0:0:0:0:
256,192,60751,1,8,0:0:0:0:
256,192,60982,1,0,0:0:0:0:
256,192,61443,1,8,0:0:0:0:
256,192,61905,1,0,0:0:0:0:
256,192,62366,1,8,0:0:0:0:
256,192,62597,1,8,0:0:0:0:
256,192,62828,1,0,0:0:0:0:
256,192,63520,1,0,0:0:0:0:
256,192,63751,1,8,0:0:0:0:
256,192,63982,1,8,0:0:0:0:
256,192,64212,1,0,0:0:0:0:
256,192,64674,1,8,0:0:0:0:
256,192,65135,1,0,0:0:0:0:
256,192,65597,1,8,0:0:0:0:
256,192,66520,5,4,0:0:0:0:
256,192,66982,1,8,0:0:0:0:
256,192,67443,1,8,0:0:0:0:
256,192,67674,1,0,0:0:0:0:
256,192,67905,1,0,0:0:0:0:
256,192,68135,1,8,0:0:0:0:
256,192,68366,1,8,0:0:0:0:
256,192,68828,1,8,0:0:0:0:
256,192,69289,1,0,0:0:0:0:
256,192,69751,1,8,0:0:0:0:
256,192,69982,1,8,0:0:0:0:
256,192,70212,1,0,0:0:0:0:
256,192,70905,1,0,0:0:0:0:
256,192,71135,1,8,0:0:0:0:
256,192,71366,1,8,0:0:0:0:
256,192,71597,1,0,0:0:0:0:
256,192,72289,1,8,0:0:0:0:
256,192,72520,1,0,0:0:0:0:
256,192,72982,1,8,0:0:0:0:
256,192,73905,5,0,0:0:0:0:
256,192,74366,1,8,0:0:0:0:
256,192,74828,1,8,0:0:0:0:
256,192,75059,1,0,0:0:0:0:
256,192,75289,1,8,0:0:0:0:
256,192,75520,1,8,0:0:0:0:
256,192,75751,1,0,0:0:0:0:
256,192,76212,1,8,0:0:0:0:
256,192,76674,1,0,0:0:0:0:
256,192,77135,1,8,0:0:0:0:
256,192,77366,1,8,0:0:0:0:
256,192,77597,1,0,0:0:0:0:
256,192,78289,1,0,0:0:0:0:
256,192,78520,1,8,0:0:0:0:
256,192,78751,1,8,0:0:0:0:
256,192,78982,1,0,0:0:0:0:
256,192,79443,1,8,0:0:0:0:
256,192,79905,1,0,0:0:0:0:
256,192,80366,1,8,0:0:0:0:
256,192,81289,5,4,0:0:0:0:
256,192,81751,1,8,0:0:0:0:
256,192,82212,1,0,0:0:0:0:
256,192,82443,1,8,0:0:0:0:
256,192,82674,1,8,0:0:0:0:
256,192,82905,1,8,0:0:0:0:
256,192,83135,1,0,0:0:0:0:
256,192,83597,1,8,0:0:0:0:
256,192,84059,1,0,0:0:0:0:
256,192,84289,1,0,0:0:0:0:
256,192,84520,1,8,0:0:0:0:
256,192,84982,1,0,0:0:0:0:
256,192,85443,1,8,0:0:0:0:
255,193,85905,1,8,0:0:0:0:
255,193,86135,1,0,0:0:0:0:
255,193,86597,1,0,0:0:0:0:
255,193,86828,1,8,0:0:0:0:
255,193,87289,1,8,0:0:0:0:
255,193,87751,1,0,0:0:0:0:
256,192,88674,5,4,0:0:0:0:
254,195,89135,1,8,0:0:0:0:
254,195,89597,1,0,0:0:0:0:
254,195,89828,1,8,0:0:0:0:
254,195,90289,1,8,0:0:0:0:
254,195,90520,1,0,0:0:0:0:
254,195,90751,1,8,0:0:0:0:
256,192,91212,1,8,0:0:0:0:
254,195,91443,1,0,0:0:0:0:
254,195,91674,1,8,0:0:0:0:
256,192,92135,1,8,0:0:0:0:
256,192,92366,1,0,0:0:0:0:
255,193,92828,1,8,0:0:0:0:
255,193,93289,1,8,0:0:0:0:
255,193,93520,1,0,0:0:0:0:
255,193,93982,1,0,0:0:0:0:
255,193,94212,1,8,0:0:0:0:
255,193,94674,1,0,0:0:0:0:
255,193,95135,1,8,0:0:0:0:
255,193,95597,1,0,0:0:0:0:
255,193,96059,1,0,0:0:0:0:
