osu file format v14

[General]
AudioFilename: audio.mp3
AudioLeadIn: 0
PreviewTime: 2033
Countdown: 1
SampleSet: Normal
StackLeniency: 0.7
Mode: 0
LetterboxInBreaks: 0
WidescreenStoryboard: 0

[Editor]
DistanceSpacing: 1
BeatDivisor: 4
GridSize: 4
TimelineZoom: 1

[Metadata]
Title:Bang Bang Bang
TitleUnicode:Bang Bang Bang
Artist:Mirbi
ArtistUnicode:Мирби
Creator:Eldis Reverri
Version:Bang Bang Bang
Source:
Tags:
BeatmapID:1770858
BeatmapSetID:846742

[Difficulty]
HPDrainRate:6
CircleSize:4
OverallDifficulty:6
ApproachRate:8.5
SliderMultiplier:2.2
SliderTickRate:1

[Events]
//Background and Video events
0,0,"bang.jpg",0,0
Video,0,"bang bang.mp4"
//Break Periods
//Storyboard Layer 0 (Background)
//Storyboard Layer 1 (Fail)
//Storyboard Layer 2 (Pass)
//Storyboard Layer 3 (Foreground)
//Storyboard Sound Samples

[TimingPoints]
2033.87285317363,468.75,4,1,0,100,1,0
26701,468.75,4,1,0,100,1,0

[Colours]
Combo1 : 113,147,204
Combo2 : 235,114,217
Combo3 : 125,179,242
Combo4 : 184,48,218

[HitObjects]
277,106,2033,6,0,P|322:96|377:59,1,110
191,209,2502,2,0,P|136:237|91:287,1,110
232,106,2971,2,0,P|187:96|132:59,1,110
316,210,3440,1,0,0:0:0:0:
425,304,3674,1,0,0:0:0:0:
79,285,3908,6,0,P|100:223|93:154,1,110
156,30,4377,2,0,P|200:62|235:113,1,110
382,348,4846,2,0,P|345:300|323:246,1,110
432,116,5315,2,0,P|412:166|413:237,1,110
128,348,5783,6,0,P|165:300|187:246,1,110
354,30,6252,2,0,P|310:62|275:113,1,110
104,269,6721,2,0,P|143:230|194:210,1,110
405,269,7190,2,0,P|366:230|316:210,1,110
89,102,7658,6,0,P|118:144|172:182,1,110
421,102,8127,2,0,P|392:144|338:182,1,110
253,283,8596,1,0,0:0:0:0:
254,115,9533,5,0,0:0:0:0:
204,199,10002,1,0,0:0:0:0:
306,199,10471,1,0,0:0:0:0:
126,54,10940,5,0,0:0:0:0:
384,54,11174,1,0,0:0:0:0:
70,338,11408,6,0,P|91:287|135:242,1,110
440,338,11877,2,0,P|419:287|375:242,1,110
148,167,12346,2,0,P|253:192|373:160,1,220
86,104,13283,6,0,P|62:167|59:226,1,110
451,209,13752,2,0,P|445:154|424:104,1,110
158,370,14221,2,0,P|214:323|236:279,1,110
352,370,14690,2,0,P|296:323|274:279,1,110
126,54,15158,5,0,0:0:0:0:
128,326,15627,1,0,0:0:0:0:
384,54,16096,1,0,0:0:0:0:
382,326,16565,1,0,0:0:0:0:
254,115,17033,5,0,0:0:0:0:
81,198,17268,1,0,0:0:0:0:
254,269,17502,1,0,0:0:0:0:
431,198,17736,1,0,0:0:0:0:
384,54,17971,1,0,0:0:0:0:
126,54,18205,1,0,0:0:0:0:
256,197,18440,2,0,P|303:193|366:164,1,110
256,197,18908,2,0,P|209:193|146:164,1,110
256,197,19377,2,0,P|265:264|297:319,1,110
256,197,19846,6,0,B|252:243|229:298|229:298|173:316|125:346,1,220
137,199,20549,1,0,0:0:0:0:
379,200,20783,6,0,P|413:253|427:310,1,110
137,199,21252,2,0,P|103:252|89:309,1,110
378,197,21721,2,0,P|409:152|425:100,1,110
90,101,22190,2,0,P|105:153|136:198,1,110
225,303,22658,2,0,P|247:252|254:198,1,110
254,198,23127,2,0,P|261:252|283:302,1,110
283,302,23596,2,0,P|330:309|390:357,1,110
432,286,24768,5,0,0:0:0:0:
316,212,26701,6,0,B|371:235|371:235|424:298,1,110
106,274,27169,6,0,B|138:235|138:235|193:212,1,110
361,65,27638,2,0,B|256:102|256:102|154:66,1,220
127,345,28341,1,0,0:0:0:0:
315,195,28576,6,0,L|414:119,1,110
197,189,29044,2,0,L|98:267,1,110
315,195,29513,2,0,L|414:119,1,110
446,14,29982,1,0,0:0:0:0:
62,8,30451,6,0,P|69:68|96:118,1,110
208,201,30919,2,0,P|238:177|256:108,1,110
125,59,31388,2,0,P|86:96|65:177,1,110
57,223,31857,1,0,0:0:0:0:
88,293,32091,1,0,0:0:0:0:
253,40,32326,5,0,0:0:0:0:
414,197,32794,1,0,0:0:0:0:
253,359,33263,1,0,0:0:0:0:
95,192,33732,1,0,0:0:0:0:
