osu file format v14

[General]
AudioFilename: audio.mp3
AudioLeadIn: 0
PreviewTime: 39364
Countdown: 1
SampleSet: None
StackLeniency: 0.7
Mode: 0
LetterboxInBreaks: 0
WidescreenStoryboard: 0

[Editor]
DistanceSpacing: 1.1
BeatDivisor: 4
GridSize: 8
TimelineZoom: 1.5

[Metadata]
Title:Leave It All To Me (Theme from iCarly) (Album Version)
TitleUnicode:Leave It All To Me (Theme from iCarly) (Album Version)
Artist:Miranda Cosgrove featuring Drake Bell
ArtistUnicode:Miranda Cosgrove featuring Drake Bell
Creator:EijiKuinbii
Version:The Last Journey Home
Source:
Tags:
BeatmapID:1578953
BeatmapSetID:749638

[Difficulty]
HPDrainRate:5.5
CircleSize:4
OverallDifficulty:8
ApproachRate:9.6
SliderMultiplier:1.9
SliderTickRate:1

[Events]
//Background and Video events
0,0,"8hJd7VUSjeg.jpg",0,0
//Break Periods
//Storyboard Layer 0 (Background)
//Storyboard Layer 1 (Fail)
//Storyboard Layer 2 (Pass)
//Storyboard Layer 3 (Foreground)
//Storyboard Sound Samples

[TimingPoints]
5079,285.714285714286,4,3,0,70,1,0
7364,-90.9090909090909,4,3,0,70,0,0
25079,-133.333333333333,4,3,0,70,0,0
25650,-76.9230769230769,4,3,0,70,0,0
33936,-133.333333333333,4,3,0,70,0,0
34793,-76.9230769230769,4,3,0,70,0,0
37079,-90.9090909090909,4,3,0,70,0,0
38079,-133.333333333333,4,3,0,70,0,0
39364,-66.6666666666667,4,3,0,70,0,1
55936,-55.5555555555556,4,3,0,70,0,1
56221,-58.8235294117647,4,3,0,70,0,1
56507,-62.5,4,3,0,70,0,1
56793,-71.4285714285714,4,3,0,70,0,1
57079,-100,4,3,0,70,0,1
57650,-76.9230769230769,4,3,0,70,0,0

[Colours]
Combo1 : 132,215,255
Combo2 : 251,179,200
Combo3 : 209,186,187

[HitObjects]
256,192,1650,12,0,5007,0:0:0:0:
166,64,5078,6,0,B|139:57|139:57|78:100|120:176,1,142.5
264,129,5364,2,0,L|466:117,1,190
286,40,5793,1,0,0:0:0:0:
232,204,5936,2,0,L|245:318,1,95
75,141,6221,6,0,L|85:46,1,95
127,214,6507,2,0,B|143:241|143:241|27:224,1,142.5
0,157,6793,1,0,0:0:0:0:
183,78,6936,1,0,0:0:0:0:
188,307,7079,1,0,0:0:0:0:
126,200,7221,1,0,0:0:0:0:
287,251,7364,6,0,B|309:252|309:252|413:242,1,104.500003189087
408,61,7650,2,0,B|370:37|370:37|302:77|339:146,1,156.750004783631
444,310,7936,2,0,P|474:242|401:165,1,156.750004783631
260,164,8221,2,0,L|133:177,1,104.500003189087
50,49,8507,5,0,0:0:0:0:
130,91,8650,1,0,0:0:0:0:
31,213,8793,2,0,B|18:147|18:147|39:30,1,156.750004783631
192,41,9079,2,0,P|208:114|146:170,1,156.750004783631
154,167,9364,2,0,L|274:178,1,104.500003189087
435,104,9650,6,0,L|315:115,1,104.500003189087
85,221,9936,2,0,B|52:292|126:331|126:331|159:322,1,156.750004783631
348,299,10221,2,0,P|254:258|186:298,1,156.750004783631
201,298,10507,1,0,0:0:0:0:
316,376,10650,1,0,0:0:0:0:
353,204,10793,6,0,B|382:108|297:92|322:4,1,209.000006378174
477,78,11221,1,0,0:0:0:0:
400,46,11364,1,0,0:0:0:0:
272,222,11507,1,0,0:0:0:0:
476,260,11650,2,0,B|502:230|502:230|491:147|401:149,1,156.750004783631
289,301,11936,6,0,B|218:321|216:243|142:272,1,156.750004783631
57,342,12221,2,0,P|114:296|110:197,1,156.750004783631
0,64,12507,2,0,B|-8:145|-8:145|46:208,1,156.750004783631
180,162,12793,2,0,B|200:89|200:89|157:21,1,156.750004783631
157,21,13079,6,0,P|234:46|282:40,1,104.500003189087
465,65,13364,1,0,0:0:0:0:
379,22,13507,1,0,0:0:0:0:
435,151,13650,2,0,P|450:228|374:309,1,156.750004783631
282,304,13936,2,0,L|406:296,1,104.500003189087
218,356,14221,6,0,P|200:284|260:224,1,156.750004783631
332,225,14507,1,0,0:0:0:0:
119,329,14650,2,0,L|1:322,1,104.500003189087
122,241,14936,1,0,0:0:0:0:
360,245,15079,2,0,L|478:238,1,104.500003189087
238,15,15364,6,0,B|246:96|246:96|270:134|270:134|278:216,1,209.000006378174
327,66,15793,1,0,0:0:0:0:
193,159,15936,2,0,B|89:142|119:231|-1:206,1,209.000006378174
32,131,16293,1,0,0:0:0:0:
25,115,16364,1,0,0:0:0:0:
35,103,16436,1,0,0:0:0:0:
52,97,16507,6,0,L|31:325,1,209.000006378174
199,151,16936,2,0,L|189:46,1,104.500003189087
132,210,17221,1,0,0:0:0:0:
281,115,17364,2,0,P|356:117|429:178,1,156.750004783631
485,120,17650,6,0,P|445:198|428:315,1,156.750004783631
210,157,17936,2,0,P|216:66|310:35,1,156.750004783631
345,34,18221,2,0,L|166:25,1,156.750004783631
106,12,18507,1,0,0:0:0:0:
117,226,18650,1,0,0:0:0:0:
223,153,18793,6,0,P|281:201|278:276,1,156.750004783631
100,339,19079,2,0,L|112:216,1,104.500003189087
21,38,19364,2,0,L|36:194,1,156.750004783631
14,275,19650,1,0,0:0:0:0:
203,216,19793,1,0,0:0:0:0:
126,111,19936,6,0,L|103:342,1,209.000006378174
20,195,20364,1,0,0:0:0:0:
91,35,20507,2,0,B|219:10|153:106|282:80,1,209.000006378174
126,111,20936,1,0,0:0:0:0:
371,97,21079,5,0,0:0:0:0:
380,111,21150,1,0,0:0:0:0:
383,131,21221,1,0,0:0:0:0:
380,148,21293,1,0,0:0:0:0:
371,165,21364,2,0,L|207:157,1,156.750004783631
144,99,21650,2,0,P|110:177|77:189,1,104.500003189087
0,130,21936,2,0,P|34:52|67:40,1,104.500003189087
176,240,22221,6,0,B|189:261|185:282|185:282|145:335|60:297,1,156.750004783631
43,228,22507,1,0,0:0:0:0:
77,153,22650,1,0,0:0:0:0:
186,245,22793,2,0,P|294:260|387:236,1,156.750004783631
441,111,23079,2,0,P|381:102|332:179,1,156.750004783631
512,267,23364,6,0,P|476:201|402:204,1,156.750004783631
217,178,23650,2,0,L|222:51,1,104.500003189087
134,208,23936,1,0,0:0:0:0:
238,271,24079,1,0,0:0:0:0:
135,111,24221,1,0,0:0:0:0:
118,304,24364,1,0,0:0:0:0:
291,197,24507,6,0,L|413:209,1,104.500003189087
142,105,24793,2,0,L|298:90,1,156.750004783631
365,44,25079,6,0,P|397:86|455:90,1,106.875004076958
507,33,25364,1,0,0:0:0:0:
507,33,25507,1,0,0:0:0:0:
355,156,25650,6,0,P|320:232|424:339,1,246.999988693238
442,175,26079,1,0,0:0:0:0:
248,292,26221,2,0,L|1:275,1,246.999988693238
164,376,26650,1,0,0:0:0:0:
227,135,26793,6,0,B|274:91|274:91|247:300,1,246.999988693238
143,139,27221,1,0,0:0:0:0:
266,11,27364,2,0,L|512:27,1,246.999988693238
356,104,27793,1,0,0:0:0:0:
145,52,27936,6,0,P|69:96|72:185,1,185.249991519928
156,185,28221,1,0,0:0:0:0:
23,258,28364,1,0,0:0:0:0:
209,353,28507,2,0,P|220:263|173:186,1,185.249991519928
310,11,28793,2,0,P|321:101|274:178,1,185.249991519928
277,178,29079,6,0,B|372:171|348:244|447:234,1,185.249991519928
472,65,29364,2,0,B|437:25|437:25|427:156,1,185.249991519928
259,257,29650,2,0,P|209:222|200:163,1,123.499994346619
299,33,29936,1,0,0:0:0:0:
339,305,30079,1,0,0:0:0:0:
207,144,30221,6,0,L|459:165,1,246.999988693238
288,39,30650,1,0,0:0:0:0:
119,129,30793,2,0,P|87:207|206:296,1,246.999988693238
346,110,31221,1,0,0:0:0:0:
287,373,31364,6,0,L|266:126,1,246.999988693238
200,289,31793,1,0,0:0:0:0:
301,39,31936,2,0,B|155:14|225:123|72:90,1,246.999988693238
116,14,32364,1,0,0:0:0:0:
0,127,32507,6,0,B|-31:162|-31:162|21:229|93:179,1,185.249991519928
93,178,32793,2,0,L|101:326,1,123.499994346619
201,138,33079,2,0,L|190:344,1,185.249991519928
388,136,33364,2,0,B|430:104|430:104|263:81,1,185.249991519928
298,85,33650,6,0,L|305:232,1,123.499994346619
329,311,33936,2,0,P|280:289|228:295,1,106.875004076958
100,258,34293,1,0,0:0:0:0:
121,345,34436,2,0,P|173:350|221:328,1,106.875004076958
87,163,34793,6,0,B|121:120|121:120|106:293,1,185.249991519928
292,260,35079,2,0,P|300:143|199:84,1,246.999988693238
209,314,35507,1,0,0:0:0:0:
379,118,35650,2,0,B|427:114|455:149|455:149|472:216|427:255|379:274,1,246.999988693238
210,152,36079,5,0,0:0:0:0:
296,32,36221,2,0,L|290:191,1,123.499994346619
208,352,36507,2,0,L|201:166,1,185.249991519928
156,71,36793,2,0,B|113:55|113:55|130:130,1,123.499994346619
309,234,37079,5,0,0:0:0:0:
392,247,37221,1,0,0:0:0:0:
455,191,37364,1,0,0:0:0:0:
479,37,37507,5,0,0:0:0:0:
426,102,37649,1,0,0:0:0:0:
443,184,37792,1,0,0:0:0:0:
345,68,37936,1,0,0:0:0:0:
332,59,38079,6,0,B|289:34|289:34|322:209,1,213.750008153916
346,230,38793,5,0,0:0:0:0:
324,214,38864,1,0,0:0:0:0:
298,208,38935,1,0,0:0:0:0:
272,212,39007,1,0,0:0:0:0:
242,238,39079,5,0,0:0:0:0:
203,259,39151,1,0,0:0:0:0:
159,267,39223,1,0,0:0:0:0:
117,257,39294,1,0,0:0:0:0:
64,187,39364,6,0,B|102:156|102:156|81:350,1,213.750008153916
0,243,39650,1,0,0:0:0:0:
162,105,39793,2,0,L|304:120,1,142.500005435944
136,25,40079,1,0,0:0:0:0:
314,262,40221,2,0,P|344:191|311:104,1,142.500005435944
93,142,40507,5,0,0:0:0:0:
252,32,40650,1,0,0:0:0:0:
39,45,40793,1,0,0:0:0:0:
196,304,40936,2,0,B|203:217|203:217|181:180|181:180|189:97,1,213.750008153916
268,31,41221,1,0,0:0:0:0:
37,204,41364,2,0,B|-1:216|-29:189|-29:189|-11:109|69:129|89:151,1,213.750008153916
206,307,41650,6,0,B|311:268|310:362|411:321,1,213.750008153916
448,242,41936,1,0,0:0:0:0:
358,105,42079,2,0,L|369:272,1,142.500005435944
208,140,42364,1,0,0:0:0:0:
321,23,42507,2,0,B|410:-6|474:79|474:79|394:109,1,213.750008153916
235,52,42793,6,0,B|60:40,1,142.500005435944
35,277,43079,2,0,B|210:265,1,142.500005435944
431,239,43364,2,0,P|314:246|294:283,1,142.500005435944
424,360,43650,1,0,0:0:0:0:
494,176,43793,6,0,B|434:136|451:52|451:52|418:131|342:133,1,285.000010871888
178,47,44221,2,0,B|218:6|218:6|237:189,1,213.750008153916
50,242,44507,2,0,P|83:180|148:154,1,142.500005435944
270,297,44793,2,0,P|236:358|171:384,1,142.500005435944
40,231,45079,6,0,B|5:131|88:128|56:24,1,213.750008153916
152,141,45364,2,0,P|250:152|290:112,1,142.500005435944
460,74,45650,2,0,P|398:41|332:61,1,142.500005435944
341,283,45936,2,0,B|297:291|283:257|283:257|306:187|372:195|426:235,1,213.750008153916
461,354,46221,6,0,P|431:240|453:56,1,285.000010871888
511,247,46650,1,0,0:0:0:0:
353,124,46793,2,0,B|250:93|250:183|147:149,1,213.750008153916
62,43,47079,2,0,L|68:192,1,142.500005435944
347,219,47364,6,0,B|278:312|191:269|191:269|218:214,1,213.750008153916
265,173,47650,1,0,0:0:0:0:
439,231,47793,2,0,L|428:373,1,142.500005435944
120,233,48079,1,0,0:0:0:0:
403,144,48221,1,0,0:0:0:0:
354,313,48364,1,0,0:0:0:0:
220,69,48507,6,0,B|255:-11|374:-7|415:67|415:67|386:61|361:77,1,285.000010871888
127,38,48936,1,0,0:0:0:0:
294,138,49079,2,0,B|333:153|336:189|336:189|297:229|273:208,1,142.500005435944
80,111,49364,2,0,B|56:90|17:130|17:130|20:166|59:181,1,142.500005435944
207,317,49650,6,0,B|199:207|199:207|158:158|158:158|149:47,1,285.000010871888
108,244,50079,1,0,0:0:0:0:
301,271,50221,2,0,B|398:240|392:346|500:306,1,213.750008153916
459,229,50507,1,0,0:0:0:0:
330,360,50650,1,0,0:0:0:0:
345,138,50793,6,0,B|313:90|313:90|302:274,1,213.750008153916
149,78,51079,2,0,B|169:11|269:19|269:19|240:37|232:74,1,213.750008153916
441,73,51364,2,0,B|494:108|494:108|423:188|308:126,1,213.750008153916
119,183,51650,2,0,L|136:340,1,142.500005435944
0,120,51936,6,0,B|103:83|90:197|198:149,1,213.750008153916
243,83,52221,1,0,0:0:0:0:
34,201,52364,2,0,L|51:358,1,142.500005435944
198,150,52650,2,0,L|213:8,1,142.500005435944
3,101,52936,1,0,0:0:0:0:
114,242,53079,6,0,B|221:199|202:323|310:273,1,213.750008153916
404,128,53364,2,0,B|372:76|310:86|269:138|267:204,1,213.750008153916
381,367,53650,2,0,L|405:121,1,213.750008153916
176,66,53936,2,0,B|157:80|148:106|148:106|145:148|193:204|193:204|188:183|206:111,1,213.750008153916
287,28,54221,6,0,L|57:51,1,213.750008153916
5,16,54507,1,0,0:0:0:0:
91,265,54650,2,0,L|109:109,1,142.500005435944
6,322,54936,1,0,0:0:0:0:
179,261,55079,1,0,0:0:0:0:
0,145,55221,1,0,0:0:0:0:
134,358,55364,6,0,B|202:325|207:386|270:354,1,142.500005435944
343,188,55650,1,0,0:0:0:0:
265,211,55793,2,0,L|279:285,1,71.2500027179719
444,206,55936,6,0,B|474:190|475:154|475:154|451:92|363:67|313:108,1,256.499992172241
226,98,56221,6,0,B|199:81|167:98|167:98|125:150|144:227|195:254,1,242.250004620552
229,337,56507,6,0,B|227:366|258:385|258:385|324:395|378:348|380:292,1,228
104,308,56793,6,0,B|89:297|58:297|58:297|101:290|127:258|127:258|159:275|195:262,1,199.499993911743
36,170,57079,6,0,P|39:193|51:213,1,47.5
163,138,57221,2,0,P|169:160|167:184,1,47.5
2,102,57364,6,0,P|0:125|5:148,1,47.5
164,63,57506,2,0,P|176:83|180:106,1,47.5
74,41,57650,5,0,0:0:0:0:
