osu file format v14

[General]
AudioFilename: audio.mp3
AudioLeadIn: 0
PreviewTime: 107984
Countdown: 0
SampleSet: Soft
StackLeniency: 0.4
Mode: 0
LetterboxInBreaks: 0
WidescreenStoryboard: 1

[Editor]
Bookmarks: 4916,19461,34007,41280,59461,72189,83098,86734,101280,108552,121280,128552,134007,141280,148552,154007,164916,179461
DistanceSpacing: 0.78
BeatDivisor: 4
GridSize: 4
TimelineZoom: 1.2

[Metadata]
Title:Traicion
TitleUnicode:Traición
Artist:Miranda!
ArtistUnicode:Miranda!
Creator:Krisom
Version:Avanzado
Source:
Tags:Spanish Español Pop Electropop Sin Restricciones Argentine Argentina Traición
BeatmapID:2811131
BeatmapSetID:1358447

[Difficulty]
HPDrainRate:5
CircleSize:3.5
OverallDifficulty:5.5
ApproachRate:6.5
SliderMultiplier:2.1
SliderTickRate:1

[Events]
//Background and Video events
0,0,"Miranda!.jpg",0,0
//Break Periods
2,72189,82123
2,128552,133032
//Storyboard Layer 0 (Background)
//Storyboard Layer 1 (Fail)
//Storyboard Layer 2 (Pass)
//Storyboard Layer 3 (Foreground)
//Storyboard Layer 4 (Overlay)
//Storyboard Sound Samples

[TimingPoints]
1280,454.545454545455,4,2,1,80,1,0
59461,-100,4,2,1,80,0,1
72189,-100,4,2,1,80,0,0
86734,-111.111111111111,4,2,2,80,0,0
101052,-100,4,2,1,80,0,0
108552,-100,4,2,1,80,0,1
120370,-100,4,2,1,80,0,0
121280,-100,4,2,1,80,0,1
128552,-100,4,2,1,80,0,0
148552,-100,4,2,1,80,0,1
154007,-100,4,2,1,80,0,0

[Colours]
Combo1 : 162,6,255
Combo2 : 255,134,23
Combo3 : 17,106,255
Combo4 : 242,24,57
Combo5 : 47,255,208
Combo6 : 255,21,150
Combo7 : 91,0,244
Combo8 : 253,182,34

[HitObjects]
456,28,19461,5,4,0:3:0:0:
404,84,19689,1,2,0:0:0:0:
456,140,19916,1,8,0:0:0:0:
404,196,20143,1,2,0:0:0:0:
456,252,20370,1,4,0:3:0:0:
404,308,20598,1,2,0:0:0:0:
328,328,20825,2,0,B|296:312|296:312|216:344|216:344|184:328,2,157.5,8|2|2,0:0|0:1|0:0,0:0:0:0:
348,252,21734,2,0,P|256:208|164:252,1,210,8|2,0:0|0:1,0:0:0:0:
256,124,22643,1,8,0:0:0:0:
108,28,23098,5,4,0:3:0:0:
56,84,23326,1,2,0:0:0:0:
108,140,23553,1,8,0:0:0:0:
56,196,23780,1,2,0:0:0:0:
108,252,24007,1,4,0:3:0:0:
108,332,24235,1,2,0:0:0:0:
184,352,24461,2,0,B|208:324|256:340|256:364|304:380|328:352,2,157.5,8|2|2,0:0|0:1|0:0,0:0:0:0:
164,276,25371,2,0,B|256:224|256:224|348:276,1,210,8|4,0:0|0:3,0:0:0:0:
256,148,26280,1,8,0:0:0:0:
412,140,26734,6,0,B|400:247|400:247|328:324,1,210,4|8,0:3|0:0,0:0:0:0:
256,344,27416,1,2,0:0:0:0:
181,321,27643,2,0,B|112:247|112:247|100:140,1,210,4|8,0:3|0:0,0:0:0:0:
180,124,28325,2,0,B|224:116|256:136|256:136|288:116|332:124,2,157.5,2|2|8,0:0|0:1|0:0,0:0:0:0:
100,140,29234,1,0,3:0:0:0:
156,196,29461,2,2,P|256:224|356:196,1,210,2|8,0:1|0:0,0:1:0:0:
424,56,30370,5,4,0:3:0:0:
368,4,30598,1,2,0:0:0:0:
312,56,30825,1,8,0:0:0:0:
256,4,31052,1,2,0:0:0:0:
200,56,31279,1,4,0:3:0:0:
144,4,31507,1,2,0:0:0:0:
88,56,31734,1,8,0:0:0:0:
144,112,31961,2,0,B|132:156|132:156|156:220|156:220|144:264,2,157.5,2|2|8,0:0|0:1|0:0,0:0:0:0:
200,56,32870,1,0,3:0:0:0:
256,112,33098,2,2,B|240:156|240:156|272:268|272:268|256:312,1,210,4|8,0:3|0:0,0:0:0:0:
408,348,34007,5,4,0:3:0:0:
448,280,34234,1,2,0:0:0:0:
368,280,34461,1,8,0:0:0:0:
408,212,34689,1,2,0:0:0:0:
408,132,34916,2,0,B|408:76|408:76|448:40|448:40|500:40,2,157.5,4|8|8,0:3|0:0|0:0,0:0:0:0:
328,132,35825,6,0,L|296:232,1,105,4|2,0:3|0:0,0:0:0:0:
216,232,36280,2,0,L|184:132,1,105,8|4,0:0|0:3,0:0:0:0:
172,96,36620,1,8,0:0:0:0:
256,296,37189,1,8,0:0:0:0:
104,348,37643,5,4,0:3:0:0:
64,280,37870,1,2,0:0:0:0:
144,280,38097,1,8,0:0:0:0:
104,212,38325,1,2,0:0:0:0:
104,132,38552,2,0,B|104:76|104:76|64:40|64:40|12:40,2,157.5,4|8|8,0:3|0:0|0:0,0:0:0:0:
184,132,39461,6,0,L|216:232,1,105,4|2,0:3|0:0,0:0:0:0:
296,232,39916,2,0,L|328:132,1,105,8|4,0:0|0:3,0:0:0:0:
340,92,40257,2,0,P|256:8|172:92,1,262.5,8|8,0:0|0:0,0:0:0:0:
64,192,41280,5,4,0:3:0:0:
112,256,41507,1,2,0:0:0:0:
160,320,41734,1,8,0:0:0:0:
208,256,41961,1,2,0:0:0:0:
256,320,42188,1,4,0:3:0:0:
304,384,42415,1,2,0:0:0:0:
352,320,42643,2,0,B|352:256|352:256|332:236|332:236|332:168,2,157.5,8|2|2,0:0|0:1|0:0,0:0:0:0:
400,384,43552,1,8,0:0:0:0:
448,320,43779,1,0,3:0:0:0:
496,256,44007,2,2,P|448:156|368:176,1,210,2|8,0:1|0:0,0:1:0:0:
400,8,44916,5,4,0:3:0:0:
352,72,45143,1,2,0:0:0:0:
304,136,45370,1,8,0:0:0:0:
256,72,45597,1,2,0:0:0:0:
208,136,45824,1,4,0:3:0:0:
160,200,46051,1,2,0:0:0:0:
112,136,46280,2,0,B|112:200|112:200|92:220|92:220|92:288,2,157.5,8|2|2,0:0|0:1|0:0,0:0:0:0:
64,72,47189,1,8,0:0:0:0:
112,8,47416,1,0,3:0:0:0:
160,68,47643,2,2,P|256:104|352:68,1,210,4|8,0:3|0:0,0:0:0:0:
452,192,48552,5,4,0:3:0:0:
388,240,48780,1,2,0:0:0:0:
308,240,49007,1,8,0:0:0:0:
256,300,49234,1,2,0:0:0:0:
196,352,49461,2,0,B|96:352|96:352|40:372,1,157.5,4|0,0:3|3:0,0:0:0:0:
12,300,50030,1,2,0:1:0:0:
36,224,50257,2,0,B|90:204|90:204|190:204,1,157.5,2|2,0:1|0:0,0:0:0:0:
256,248,50825,1,8,0:0:0:0:
320,204,51052,1,0,3:0:0:0:
384,160,51280,1,2,0:1:0:0:
256,68,51734,1,8,0:0:0:0:
128,160,52189,5,4,0:3:0:0:
128,160,52416,1,2,0:0:0:0:
84,224,52643,1,8,0:0:0:0:
84,224,52870,1,2,0:0:0:0:
128,288,53098,1,4,0:3:0:0:
208,296,53325,1,2,0:0:0:0:
288,304,53552,2,0,P|336:264|320:172,2,157.5,8|2|2,0:0|0:1|0:0,0:0:0:0:
208,296,54461,1,8,0:0:0:0:
128,288,54688,1,0,3:0:0:0:
84,224,54916,2,2,P|52:176|148:80,1,210,4|8,0:3|0:0,0:0:0:0:
296,60,55825,6,0,B|296:148|296:148|352:192,1,157.5,4|2,0:3|0:0,0:0:0:0:
216,324,56734,2,0,B|216:236|216:236|160:192,1,157.5,4|2,0:3|0:0,0:0:0:0:
112,132,57302,1,0,0:0:0:0:
180,92,57530,2,0,P|256:72|332:92,1,157.5,0|4,0:0|1:3,0:0:0:0:
404,136,58098,1,4,1:3:0:0:
404,136,58325,1,4,1:3:0:0:
440,68,58552,1,6,1:3:0:0:
172,288,59461,6,0,P|244:316|316:288,1,157.5,4|2,0:1|0:3,0:0:0:0:
340,256,59916,1,8,0:0:0:0:
344,176,60143,1,2,0:0:0:0:
344,96,60370,2,2,P|272:68|200:96,1,157.5,2|2,0:1|0:3,0:1:0:0:
176,128,60825,1,8,0:0:0:0:
172,208,61052,1,2,0:0:0:0:
184,288,61280,5,4,0:3:0:0:
256,316,61507,2,0,L|256:372,4,52.5,2|2|8|2|2,0:0|0:3|0:0|0:3|0:0,0:0:0:0:
328,288,62189,2,0,B|424:288|424:288|460:232,1,157.5,4|2,0:3|0:3,0:0:0:0:
460,196,62643,1,8,0:0:0:0:
460,116,62870,1,2,0:0:0:0:
408,56,63098,6,0,B|360:56|360:56|332:40|332:40|304:56|304:56|256:56,1,157.5,4|2,0:3|0:3,0:0:0:0:
220,56,63552,1,8,0:0:0:0:
188,128,63780,1,2,0:0:0:0:
164,204,64007,2,0,B|209:204|209:204|237:220|237:220|265:204|265:204|313:204,1,157.5,4|2,0:3|0:3,0:0:0:0:
352,204,64461,1,8,0:0:0:0:
384,276,64689,1,2,0:0:0:0:
332,336,64916,5,4,0:3:0:0:
256,320,65143,2,0,L|256:380,2,52.5,2|2|8,0:0|0:3|0:0,0:0:0:0:
180,336,65598,1,2,0:0:0:0:
104,320,65825,2,0,B|104:264|104:264|80:244|80:244|80:168,1,157.5,4|2,0:3|0:3,0:0:0:0:
80,132,66280,1,8,0:0:0:0:
80,52,66507,1,0,0:0:0:0:
160,52,66734,6,2,B|192:24|232:36|232:68|272:80|304:52,1,157.5,4|2,0:3|0:3,0:1:0:0:
340,32,67189,1,8,0:0:0:0:
372,104,67416,1,0,0:0:0:0:
400,176,67643,2,2,B|368:204|328:192|328:160|288:148|256:176,1,157.5,4|2,0:3|0:3,0:0:0:0:
216,164,68098,1,8,0:0:0:0:
184,236,68325,1,0,0:0:0:0:
156,308,68552,6,0,P|208:352|284:320,1,157.5,4|2,0:3|0:3,0:0:0:0:
288,280,69007,2,0,L|404:260,1,105,8|2,0:0|0:0,0:1:0:0:
432,256,69348,1,2,0:3:0:0:
472,252,69461,1,2,0:1:0:0:
460,136,69802,1,2,0:3:0:0:
420,140,69916,2,0,P|368:144|336:100,1,105,8|2,0:0|0:0,0:0:0:0:
348,68,70257,1,2,0:3:0:0:
360,32,70370,6,0,B|288:44|240:8|272:8|224:44|152:32,1,210,4|8,0:3|0:0,0:1:0:0:
256,152,71280,1,4,0:3:0:0:
256,192,83098,12,8,86280,0:0:0:0:
12,356,86734,6,0,B|64:356|64:356|112:324,1,94.499997116089,2|0,0:3|0:0,0:0:0:0:
36,276,87189,2,0,L|120:224,1,94.499997116089,8|0,0:3|0:0,0:0:0:0:
192,184,87643,1,2,0:3:0:0:
192,100,87870,1,0,0:0:0:0:
272,68,88098,2,0,B|272:160|272:160|312:204,2,141.749995674133,8|2|0,0:3|0:0|0:0,0:0:0:0:
352,36,89007,1,8,0:3:0:0:
432,68,89234,1,0,0:0:0:0:
512,36,89461,2,0,B|512:172|512:172|488:224,1,188.999994232178,2|8,0:3|0:3,0:0:0:0:
368,340,90370,6,0,P|324:356|280:340,1,94.499997116089,2|0,0:3|0:0,0:0:0:0:
232,272,90825,2,0,P|276:256|320:272,1,94.499997116089,8|0,0:3|0:0,0:0:0:0:
372,204,91280,1,2,0:3:0:0:
292,180,91507,1,0,0:0:0:0:
208,188,91734,2,0,B|141:203|141:203|98:213|81:245,2,141.749995674133,8|2|0,0:3|0:0|0:0,0:0:0:0:
292,184,92643,1,8,0:3:0:0:
368,148,92870,1,0,0:0:0:0:
412,76,93098,2,0,P|448:128|392:228,1,188.999994232178,2|8,0:3|0:3,0:0:0:0:
296,368,94007,6,0,B|344:356|344:356|400:376|400:376|440:364,2,141.749995674133,2|0|0,0:3|0:0|0:0,0:0:0:0:
216,368,94916,2,0,B|180:348|148:360|148:376|116:388|80:368,1,141.749995674133,2|2,0:3|0:3,0:0:0:0:
52,288,95484,1,2,0:0:0:0:
68,204,95711,2,0,P|116:208|156:188,1,94.499997116089,2|2,0:0|0:0,0:0:0:0:
180,152,96052,1,0,0:0:0:0:
204,72,96280,1,8,0:3:0:0:
268,128,96507,1,0,0:0:0:0:
336,176,96734,2,0,B|392:224|392:224|424:220|424:220|488:272,1,188.999994232178,2|8,0:3|0:3,0:0:0:0:
488,104,97643,5,2,0:3:0:0:
488,104,97870,1,0,0:0:0:0:
424,48,98098,1,8,0:3:0:0:
424,48,98325,1,0,0:0:0:0:
340,48,98552,2,0,B|228:48|228:48|200:64,1,141.749995674133,2|2,0:3|0:0,0:0:0:0:
136,116,99120,1,2,0:0:0:0:
136,200,99348,2,0,P|180:216|224:200,1,94.499997116089,2|0,0:0|0:0,0:0:0:0:
256,176,99689,1,0,0:0:0:0:
340,176,99916,1,8,0:3:0:0:
304,252,100143,1,0,0:0:0:0:
256,324,100370,2,0,P|172:361|88:324,1,188.999994232178,2|0,0:3|0:0,0:0:0:0:
64,156,101280,6,0,B|96:140|96:140|176:172|176:172|208:156,1,157.5,4|2,0:3|0:0,0:0:0:0:
448,156,102189,2,0,B|416:140|416:140|336:172|336:172|304:156,1,157.5,4|2,0:3|0:0,0:0:0:0:
256,88,102757,1,2,0:1:0:0:
192,36,102984,2,0,P|256:-4|320:36,1,157.5,2|2,0:1|0:0,0:0:0:0:
352,108,103552,1,8,0:0:0:0:
372,188,103780,1,0,3:0:0:0:
352,268,104007,2,2,B|312:308|256:282|256:255|200:228|160:268,1,210,4|8,0:3|0:0,0:0:0:0:
80,116,104916,6,0,P|160:100|212:160,1,157.5,4|2,0:3|0:0,0:0:0:0:
432,116,105825,2,0,P|352:100|300:160,1,157.5,4|2,0:3|0:0,0:0:0:0:
256,216,106393,1,2,0:1:0:0:
200,276,106620,2,0,B|224:316|224:316|288:316|288:316|312:276,1,157.5,2|2,0:1|0:0,0:0:0:0:
300,196,107189,1,8,0:0:0:0:
276,116,107416,1,2,0:0:0:0:
256,36,107643,1,2,1:1:0:0:
340,96,108552,6,0,B|268:65|268:65|196:96,1,157.5,4|2,0:1|0:3,0:0:0:0:
172,128,109007,1,8,0:0:0:0:
168,208,109234,1,2,0:0:0:0:
168,288,109461,2,2,B|240:319|240:319|312:288,1,157.5,2|2,0:1|0:3,0:1:0:0:
336,256,109916,1,8,0:0:0:0:
340,176,110143,1,2,0:0:0:0:
328,96,110371,5,4,0:3:0:0:
256,68,110598,2,0,L|256:12,4,52.5,2|2|8|2|2,0:0|0:3|0:0|0:3|0:0,0:0:0:0:
184,96,111280,2,0,B|132:96|132:96|72:96|52:152,1,157.5,4|2,0:3|0:3,0:0:0:0:
52,188,111734,1,8,0:0:0:0:
52,268,111961,1,2,0:0:0:0:
104,328,112189,6,0,B|144:328|144:328|180:352|216:328|216:328|256:328,1,157.5,4|2,0:3|0:3,0:0:0:0:
292,328,112643,1,8,0:0:0:0:
324,256,112871,1,2,0:0:0:0:
348,180,113098,2,0,B|308:180|308:180|272:156|236:180|236:180|196:180,1,157.5,4|2,0:3|0:3,0:0:0:0:
160,180,113552,1,8,0:0:0:0:
128,108,113780,1,2,0:0:0:0:
180,48,114007,5,4,0:3:0:0:
256,64,114234,2,0,L|256:4,2,52.5,2|2|8,0:0|0:3|0:0,0:0:0:0:
332,48,114689,1,2,0:0:0:0:
408,64,114916,2,0,B|420:96|408:120|408:120|432:140|432:140|420:176|432:216,1,157.5,4|2,0:3|0:3,0:0:0:0:
432,252,115371,1,8,0:0:0:0:
432,332,115598,1,0,0:0:0:0:
352,332,115825,6,2,B|320:348|320:348|240:316|240:316|208:332,1,157.5,4|2,0:3|0:3,0:1:0:0:
172,352,116280,1,8,0:0:0:0:
140,280,116507,1,0,0:0:0:0:
112,208,116734,2,2,B|144:192|144:192|224:224|224:224|256:208,1,157.5,4|2,0:3|0:3,0:0:0:0:
296,220,117189,1,8,0:0:0:0:
328,148,117416,1,0,0:0:0:0:
356,72,117643,6,0,B|312:56|292:28|292:28|268:52|220:56,1,157.5,4|2,0:3|0:3,0:0:0:0:
180,64,118098,2,0,P|136:92|68:72,1,105,8|2,0:0|0:0,0:1:0:0:
52,60,118439,1,2,0:3:0:0:
20,32,118552,1,2,0:1:0:0:
20,156,118893,1,2,0:3:0:0:
28,196,119007,2,0,B|48:224|48:224|80:232|80:232|100:264,1,105,8|2,0:0|0:0,0:0:0:0:
128,296,119348,1,2,0:3:0:0:
156,324,119461,6,0,B|212:320|212:320|236:340|256:341|276:340|300:320|300:320|356:324,1,210,4|8,0:3|0:0,0:1:0:0:
256,196,120371,1,4,0:3:0:0:
256,196,121280,6,0,B|336:196|336:196|384:196|424:164|432:116,1,210,4|8,0:3|0:0,0:0:0:0:
444,40,121961,1,2,0:0:0:0:
360,40,122189,2,0,B|312:52|256:36|256:36|200:52|152:40,1,210,4|8,0:3|0:0,0:0:0:0:
68,40,122870,1,0,0:0:0:0:
81,122,123098,2,0,B|88:164|128:196|176:196|176:196|220:196,1,157.5,4|2,0:3|0:3,0:0:0:0:
204,156,123552,2,0,P|256:107|308:156,1,157.5,10|2,0:0|0:3,0:0:0:0:
310,196,124007,2,0,B|336:196|336:196|384:196|424:228|431:269,1,157.5,4|2,0:3|0:3,0:0:0:0:
440,308,124461,1,8,0:0:0:0:
372,356,124689,1,0,0:0:0:0:
296,380,124916,6,0,B|296:328|296:328|216:288|216:288|216:216,1,210,4|8,0:3|0:0,0:0:0:0:
256,148,125598,1,0,0:0:0:0:
296,219,125825,2,0,B|296:288|296:288|216:328|216:328|216:380,1,210,4|8,0:3|0:0,0:0:0:0:
140,356,126507,1,0,0:0:0:0:
64,320,126734,6,0,L|20:284,1,52.5,6|6,0:3|0:3,0:0:0:0:
80,224,127075,2,0,L|36:188,2,52.5,6|6|6,0:3|0:3|0:3,0:0:0:0:
96,128,127530,2,0,L|52:92,1,52.5,6|6,0:3|0:3,0:0:0:0:
196,132,134007,6,0,L|157:93,4,52.5,4|2|2|0|8,0:3|0:0|0:3|0:0|0:0,0:0:0:0:
256,192,134689,1,2,0:3:0:0:
316,136,134916,2,0,B|352:96|352:96|408:96|408:96|440:60,2,157.5,4|0|2,0:3|0:0|0:3,0:0:0:0:
256,192,135825,5,4,0:3:0:0:
256,200,135939,1,2,0:0:0:0:
256,208,136052,1,2,0:3:0:0:
308,272,136280,1,8,0:0:0:0:
256,336,136507,1,2,3:0:0:0:
204,272,136734,2,0,P|136:296|56:272,2,157.5,4|0|2,0:3|0:0|0:3,0:0:0:0:
172,196,137643,6,0,L|132:156,4,52.5,4|2|2|0|8,0:3|0:0|0:3|0:0|0:0,0:0:0:0:
256,200,138325,1,2,0:3:0:0:
340,196,138552,2,0,B|376:236|376:236|432:236|432:236|464:272,2,157.5,4|0|2,0:3|0:0|0:3,0:0:0:0:
380,124,139461,5,6,0:3:0:0:
296,124,139689,1,4,0:3:0:0:
216,124,139916,1,6,0:3:0:0:
136,124,140143,1,6,0:3:0:0:
76,68,140370,1,6,0:3:0:0:
76,68,141280,6,0,P|56:144|76:220,1,157.5,4|2,0:3|0:3,0:0:0:0:
96,252,141734,1,8,0:0:0:0:
176,252,141961,1,2,0:0:0:0:
184,172,142189,2,0,B|256:140|256:140|328:172,1,157.5,4|2,0:3|0:3,0:0:0:0:
364,192,142643,1,8,0:0:0:0:
436,232,142870,1,2,0:0:0:0:
364,268,143098,5,4,0:3:0:0:
284,292,143325,1,2,0:0:0:0:
272,296,143439,1,2,0:3:0:0:
260,300,143552,1,8,0:0:0:0:
248,304,143666,1,2,0:3:0:0:
236,308,143780,1,2,0:0:0:0:
156,324,144007,2,0,B|128:292|140:252|172:252|184:212|156:180,1,157.5,4|2,0:3|0:3,0:0:0:0:
120,156,144461,1,8,0:0:0:0:
120,72,144689,1,2,0:0:0:0:
180,16,144916,6,0,B|220:8|256:32|256:32|292:8|332:16,1,157.5,4|0,0:3|0:0,0:0:0:0:
364,36,145370,1,8,0:0:0:0:
364,120,145598,1,2,0:0:0:0:
332,196,145825,2,0,B|292:204|256:180|256:180|220:204|180:196,1,157.5,4|2,0:3|0:3,0:0:0:0:
148,220,146279,1,8,0:0:0:0:
148,304,146507,1,2,0:0:0:0:
208,360,146734,5,6,0:3:0:0:
256,248,147075,1,6,0:3:0:0:
256,248,147188,1,6,0:3:0:0:
296,176,147416,1,6,0:3:0:0:
216,176,147643,1,6,0:3:0:0:
184,356,148552,6,2,B|216:340|216:340|296:372|296:372|328:356,1,157.5,4|2,0:3|0:3,0:1:0:0:
368,344,149007,1,8,0:0:0:0:
368,264,149234,1,0,0:0:0:0:
328,192,149461,2,2,B|296:220|256:208|256:176|216:164|184:192,1,157.5,4|2,0:3|0:3,0:0:0:0:
144,176,149916,1,8,0:0:0:0:
144,96,150143,1,0,0:0:0:0:
180,24,150370,6,0,B|224:24|224:24|256:38|256:38|288:24|288:24|332:24,1,157.5,4|2,0:3|0:3,0:0:0:0:
341,64,150825,2,0,B|384:88|384:88|440:80,1,105,8|2,0:0|0:0,0:0:0:0:
472,56,151166,1,2,0:3:0:0:
504,28,151279,1,2,0:1:0:0:
492,152,151620,1,2,0:3:0:0:
476,188,151734,2,0,P|428:208|404:252,1,105,8|2,0:0|0:0,0:0:0:0:
380,288,152075,1,2,0:3:0:0:
356,320,152188,6,0,B|300:308|300:308|256:328|256:328|212:308|212:308|156:320,1,210,4|8,0:3|0:0,0:1:0:0:
256,188,153098,1,4,0:3:0:0:
328,88,153439,5,2,0:3:0:0:
312,88,153552,1,8,0:0:0:0:
296,88,153666,1,2,0:3:0:0:
216,88,153893,1,0,0:0:0:0:
200,88,154007,1,4,0:2:0:0:
