osu file format v14

[General]
AudioFilename: audio.mp3
AudioLeadIn: 0
PreviewTime: 15678
Countdown: 0
SampleSet: Soft
StackLeniency: 0.7
Mode: 0
LetterboxInBreaks: 0
WidescreenStoryboard: 1

[Editor]
DistanceSpacing: 1.1
BeatDivisor: 4
GridSize: 4
TimelineZoom: 2

[Metadata]
Title:Hola
TitleUnicode:Hola
Artist:Miranda!
ArtistUnicode:Miranda!
Creator:Krisom
Version:Facil
Source:
Tags:El Disco De Tu Corazón Corazon argentina español spanish pop synth
BeatmapID:3893514
BeatmapSetID:1890031

[Difficulty]
HPDrainRate:3
CircleSize:2.5
OverallDifficulty:3
ApproachRate:4
SliderMultiplier:1.2
SliderTickRate:1

[Events]
//Background and Video events
0,0,"Buenos dias buenas tardes.jpg",0,0
//Break Periods
2,57579,63697
2,124721,131135
2,148323,154937
//Storyboard Layer 0 (Background)
//Storyboard Layer 1 (Fail)
//Storyboard Layer 2 (Pass)
//Storyboard Layer 3 (Foreground)
//Storyboard Layer 4 (Overlay)
//Storyboard Sound Samples

[TimingPoints]
3530,495.867768595041,4,2,1,77,1,0
33282,-95.2380952380952,4,2,1,77,0,0
33777,-100,4,2,1,77,0,0
41711,-100,4,2,1,33,0,0
41959,-100,4,2,1,44,0,0
42207,-100,4,2,1,55,0,0
42455,-100,4,2,1,66,0,0
42703,-100,4,2,1,77,0,0
82868,-95.2380952380952,4,2,1,77,0,0
83364,-100,4,2,1,77,0,0
91298,-100,4,2,1,33,0,0
91546,-100,4,2,1,44,0,0
91794,-100,4,2,1,55,0,0
92042,-100,4,2,1,66,0,0
92290,-100,4,2,1,77,0,0
108653,-100,4,2,1,77,0,1
124521,-100,4,2,1,77,0,0
146587,-100,4,2,1,77,0,0
156257,-100,4,2,0,55,0,0
164191,-100,4,2,1,77,0,1
180058,-100,4,2,1,77,0,0
181546,-100,4,2,1,77,0,1
181670,-100,4,2,1,77,0,0
182042,-100,4,2,1,5,0,0

[Colours]
Combo1 : 240,186,0
Combo2 : 0,172,202
Combo3 : 191,57,242
Combo4 : 245,101,65

[HitObjects]
76,324,15430,5,4,0:0:0:0:
80,192,15926,2,0,B|188:152|256:188|256:196|324:232|432:192,1,360,8|4,0:0|1:3,0:0:0:0:
431,192,19397,5,4,1:3:0:0:
380,72,19893,1,8,0:0:0:0:
256,120,20389,1,4,0:3:0:0:
24,248,21381,6,0,P|64:296|128:292,1,120,4|8,1:3|0:0,0:0:0:0:
232,228,22372,2,0,P|292:224|348:276,1,120,4|8,0:3|0:0,0:0:0:0:
424,360,23364,5,4,1:3:0:0:
480,240,23860,2,0,L|512:116,2,120,8|4|8,0:0|0:3|0:0,0:0:0:0:
424,360,25348,5,4,1:3:0:0:
160,366,26339,2,0,P|115:325|92:271,1,120,2|2,0:0|0:0,0:0:0:0:
100,140,27331,5,4,1:3:0:0:
208,64,27827,1,8,0:0:0:0:
324,124,28323,1,4,0:3:0:0:
472,344,29315,6,0,L|348:304,1,120,4|8,1:3|0:0,0:0:0:0:
236,256,30306,2,0,L|96:296,1,120,4|8,0:3|0:0,0:0:0:0:
12,212,31298,5,4,1:3:0:0:
52,84,31794,2,0,P|100:68|184:72,2,120,8|4|8,0:0|0:3|0:0,0:0:0:0:
12,212,33282,6,0,B|84:196|136:280|136:280|280:176|368:228,1,377.999988464356,4|4,1:3|0:3,0:0:0:0:
444,304,35265,5,4,0:0:0:0:
476,44,36257,1,2,0:0:0:0:
344,64,36753,1,8,0:0:0:0:
212,80,37249,5,4,0:3:0:0:
84,60,37744,2,2,L|104:192,1,120,10|2,0:1|0:1,0:0:0:0:
128,308,38736,1,8,0:0:0:0:
256,340,39232,5,4,0:3:0:0:
476,196,40224,1,2,0:0:0:0:
420,76,40720,1,8,0:0:0:0:
316,156,41215,5,4,0:0:0:0:
220,248,41711,2,2,P|152:296|24:120,1,360,0|4,0:0|1:3,0:1:0:0:
128,44,43695,5,8,0:0:0:0:
256,72,44191,2,0,L|380:88,1,120,4|8,0:3|0:0,0:0:0:0:
452,196,45182,6,0,L|328:212,1,120,4|8,1:3|0:0,0:0:0:0:
256,320,46174,2,0,B|296:340|296:340|360:332,1,90,4|2,0:3|0:3,0:0:0:0:
504,296,47166,5,4,1:3:0:0:
476,168,47662,1,8,0:0:0:0:
440,40,48158,2,0,B|400:24|400:24|332:32,1,90,4|2,0:3|0:3,0:0:0:0:
196,84,49149,5,4,1:3:0:0:
164,212,49645,1,8,0:0:0:0:
144,344,50141,2,0,B|96:352|96:352|56:324,1,90,4|2,0:3|0:3,0:0:0:0:
20,168,51133,5,4,1:3:0:0:
72,44,51629,1,8,0:0:0:0:
204,52,52125,2,0,L|224:172,1,120,4|8,0:3|0:0,0:0:0:0:
332,244,53116,6,0,L|356:116,1,120,4|8,1:3|0:0,0:0:0:0:
436,24,54108,2,0,B|480:52|480:52|504:96,1,90,4|2,3:0|0:3,0:0:0:0:
504,252,55100,5,4,1:3:0:0:
404,340,55596,1,8,0:0:0:0:
272,324,56091,2,0,B|224:332|224:332|184:300,1,90,4|2,0:3|0:3,0:0:0:0:
108,164,57083,5,6,0:1:0:0:
436,324,65017,5,4,0:0:0:0:
432,192,65513,2,0,B|320:160|256:192|256:192|192:160|80:192,1,360,8|4,0:0|1:2,0:0:0:0:
81,192,68984,5,4,1:3:0:0:
136,312,69480,1,8,0:0:0:0:
268,292,69976,1,4,0:3:0:0:
496,160,70968,6,0,P|448:128|420:72,1,120,4|8,1:3|0:0,0:0:0:0:
300,16,71959,2,0,P|256:52|184:64,1,120,4|8,0:3|0:0,0:0:0:0:
64,92,72951,5,4,1:3:0:0:
40,220,73447,2,0,L|8:344,2,120,8|4|8,0:0|0:3|0:0,0:0:0:0:
64,92,74935,5,4,1:3:0:0:
160,336,75926,1,4,0:3:0:0:
260,248,76422,1,8,0:0:0:0:
388,276,76918,5,4,1:3:0:0:
440,156,77414,1,8,0:0:0:0:
348,60,77910,1,4,0:3:0:0:
212,288,78902,6,0,P|164:320|88:328,1,120,4|8,1:3|0:0,0:0:0:0:
56,204,79893,2,0,P|104:168|176:156,1,120,4|8,0:3|0:0,0:0:0:0:
256,248,80885,5,4,1:3:0:0:
350,155,81381,2,0,P|408:168|456:204,2,120,8|4|8,0:0|0:3|0:0,0:0:0:0:
348,296,82869,6,0,B|276:312|224:228|252:204|140:120|16:196,1,377.999988464356,4|4,1:2|0:3,0:0:0:0:
8,324,84852,5,4,0:0:0:0:
52,64,85844,1,2,0:0:0:0:
176,108,86340,1,8,0:0:0:0:
296,56,86836,5,4,0:3:0:0:
420,104,87331,2,2,B|412:152|412:152|400:168|400:168|388:232,1,120,10|2,0:1|0:1,0:0:0:0:
368,348,88323,1,8,0:0:0:0:
240,308,88819,5,4,0:3:0:0:
0,196,89811,1,2,0:0:0:0:
100,108,90307,1,8,0:0:0:0:
228,140,90802,5,4,0:0:0:0:
296,252,91298,2,2,P|364:300|492:124,1,360,0|4,0:0|1:3,0:1:0:0:
388,48,93282,5,8,0:0:0:0:
260,72,93778,2,0,P|200:92|136:80,1,120,4|8,0:3|0:0,0:0:0:0:
76,196,94769,6,0,P|144:208|192:248,1,120,4|8,1:3|0:0,0:0:0:0:
272,336,95761,2,0,B|312:356|312:356|376:348,1,90,4|2,0:3|0:3,0:0:0:0:
452,216,96753,5,4,1:3:0:0:
424,88,97249,1,8,0:0:0:0:
296,60,97745,2,0,B|249:54|249:54|209:70,1,90,4|2,0:3|0:3,0:0:0:0:
72,164,98736,5,4,1:3:0:0:
96,292,99232,1,8,0:0:0:0:
224,328,99728,2,0,B|272:336|272:336|312:308,1,90,4|2,0:3|0:3,0:0:0:0:
432,208,100720,5,4,1:3:0:0:
400,80,101216,1,8,0:0:0:0:
276,36,101712,2,0,L|256:156,1,120,4|8,0:3|0:0,0:0:0:0:
132,200,102703,6,0,L|108:328,1,120,4|8,1:3|0:0,0:0:0:0:
236,360,103695,2,0,B|276:340|276:340|336:344,1,90,4|2,3:0|0:3,0:0:0:0:
464,260,104687,5,4,1:3:0:0:
400,144,105183,1,8,0:0:0:0:
300,60,105678,2,0,B|267:34|267:34|219:42,1,90,4|2,0:3|0:3,0:0:0:0:
80,128,106670,5,4,1:3:0:0:
36,252,107166,1,8,0:0:0:0:
132,344,107662,2,0,B|176:312|176:312|236:312,1,90,12|12,0:3|0:3,0:0:0:0:
372,344,108653,5,4,3:2:0:0:
481,270,109149,1,8,0:1:0:0:
385,178,109645,1,4,0:3:0:0:
139,80,110637,6,0,P|179:40|267:40,2,120,4|8|4,1:3|0:0|0:3,0:0:0:0:
66,190,112125,1,8,0:0:0:0:
103,316,112620,5,2,0:1:0:0:
217,249,113116,1,10,1:0:0:0:
315,336,113612,1,2,0:1:0:0:
418,254,114108,1,10,1:1:0:0:
460,129,114604,6,0,L|332:93,1,120,2|10,3:1|1:1,0:0:0:0:
245,183,115596,2,0,L|117:147,1,120,2|10,0:1|1:1,0:0:0:0:
0,126,116587,5,4,3:2:0:0:
24,255,117083,1,8,0:1:0:0:
115,350,117579,1,4,0:3:0:0:
128,108,118571,6,0,P|184:72|248:84,2,120,4|8|4,1:3|0:0|0:3,0:0:0:0:
56,220,120058,1,8,0:0:0:0:
124,332,120554,5,2,0:1:0:0:
216,240,121050,1,10,1:0:0:0:
312,332,121546,1,2,0:1:0:0:
404,236,122042,1,10,1:1:0:0:
464,120,122538,6,0,L|336:84,1,120,2|10,3:1|1:1,0:0:0:0:
256,180,123530,2,0,L|128:144,1,120,2|10,0:1|1:1,0:0:0:0:
12,112,124521,5,4,0:0:0:0:
36,288,132455,6,0,P|76:328|156:312,1,120,4|10,0:0|0:0,0:0:0:0:
220,224,133447,1,2,0:3:0:0:
348,264,133943,1,8,0:0:0:0:
476,32,134934,6,0,L|340:16,1,120,8|2,0:0|0:3,0:0:0:0:
232,64,135926,1,8,0:0:0:0:
112,116,136422,6,0,P|88:152|108:232,1,120,4|8,1:3|0:0,0:0:0:0:
168,336,137414,2,0,B|208:308|208:308|248:312,1,90,4|2,0:3|0:3,0:0:0:0:
412,332,138406,6,0,P|448:276|420:216,1,120,4|8,1:3|0:0,0:0:0:0:
344,128,139397,2,0,B|320:104|320:104|248:88,1,90,4|2,0:3|0:3,0:0:0:0:
184,236,140389,6,0,P|144:276|64:260,1,120,4|10,0:0|0:0,0:0:0:0:
24,156,141381,1,2,0:3:0:0:
80,36,141877,1,8,0:0:0:0:
292,192,142868,6,0,P|352:216|428:208,1,120,8|2,0:0|0:3,0:0:0:0:
480,104,143860,1,8,0:0:0:0:
356,56,144356,6,0,L|232:48,1,120,4|8,1:3|0:0,0:0:0:0:
104,40,145348,2,0,B|64:36|64:36|24:64,1,90,4|2,0:3|0:3,0:0:0:0:
4,228,146339,5,6,0:1:0:0:
124,356,156257,5,0,0:0:0:0:
256,336,156753,1,8,0:1:0:0:
388,316,157249,2,0,B|400:272|400:272|388:228,1,90,0|2,0:0|0:0,0:0:0:0:
388,64,158240,5,0,0:0:0:0:
256,84,158736,1,8,0:1:0:0:
124,104,159232,2,0,B|112:148|112:148|124:192,1,90,0|2,0:0|0:0,0:0:0:0:
256,192,160224,12,0,163199,3:0:0:0:
220,232,164191,5,4,3:2:0:0:
148,344,164687,1,8,0:1:0:0:
24,296,165182,1,4,0:3:0:0:
224,120,166175,6,0,B|191:84|199:60|211:34|187:7,2,120,4|8|4,1:3|0:0|0:3,0:0:0:0:
356,100,167663,1,8,0:0:0:0:
400,224,168158,5,2,0:1:0:0:
308,316,168654,1,10,1:0:0:0:
212,224,169150,1,2,0:1:0:0:
120,320,169646,1,10,1:1:0:0:
60,204,170142,6,0,L|16:88,1,120,2|10,0:1|1:1,0:0:0:0:
124,16,171133,2,0,L|166:128,1,120,2|10,0:1|1:0,0:0:0:0:
220,248,172125,5,4,3:2:0:0:
331,318,172620,1,8,0:1:0:0:
462,304,173115,1,4,0:3:0:0:
352,60,174109,6,0,P|296:24|232:36,2,120,4|8|4,1:3|0:0|0:3,0:0:0:0:
476,112,175596,1,8,0:0:0:0:
400,224,176091,5,2,0:1:0:0:
308,316,176587,1,10,1:0:0:0:
212,224,177083,1,2,0:1:0:0:
120,320,177579,1,10,1:0:0:0:
40,212,178076,6,0,L|72:84,1,120,10|10,0:1|0:1,0:0:0:0:
176,16,179067,2,0,L|208:144,1,120,10|10,0:1|1:0,0:0:0:0:
256,256,180059,5,4,0:0:0:0:
256,256,181546,5,6,0:1:0:0:
