osu file format v14

[General]
AudioFilename: audio.mp3
AudioLeadIn: 0
PreviewTime: 134899
Countdown: 0
SampleSet: Soft
StackLeniency: 0.7
Mode: 0
LetterboxInBreaks: 0
WidescreenStoryboard: 1

[Editor]
Bookmarks: 232,64565,72566,103566,108066,181566
DistanceSpacing: 1.2
BeatDivisor: 6
GridSize: 4
TimelineZoom: 2

[Metadata]
Title:Don
TitleUnicode:Don
Artist:Miranda!
ArtistUnicode:Miranda!
Creator:Krisom
Version:Dificil de Gero
Source:
Tags:Sin Restricciones Pop Spanish Gero La Guitarra de Lolo Electropop Swing EspaƱol Argentine Argentina 1/3
BeatmapID:2548342
BeatmapSetID:1225299

[Difficulty]
HPDrainRate:5
CircleSize:4
OverallDifficulty:6.5
ApproachRate:8
SliderMultiplier:2.2
SliderTickRate:3

[Events]
//Background and Video events
0,0,"Chicle.jpg",0,0
//Break Periods
2,64766,71816
2,104232,107316
//Storyboard Layer 0 (Background)
//Storyboard Layer 1 (Fail)
//Storyboard Layer 2 (Pass)
//Storyboard Layer 3 (Foreground)
//Storyboard Layer 4 (Overlay)
//Storyboard Sound Samples

[TimingPoints]
566,500,4,2,3,80,1,0
6732,-100,4,2,1,85,0,0
40566,-100,4,2,1,60,0,1
40649,-100,4,2,1,80,0,1
44232,-100,4,2,1,80,0,1
48566,-100,4,2,1,60,0,1
48649,-100,4,2,1,80,0,1
52566,-100,4,2,1,80,0,1
56566,-100,4,2,1,100,0,1
60566,-100,4,2,0,100,0,1
60649,-100,4,2,1,100,0,1
61482,-100,4,2,0,100,0,1
61649,-100,4,2,1,100,0,1
62482,-100,4,2,0,100,0,1
62649,-100,4,2,1,100,0,1
63482,-100,4,2,0,100,0,1
63649,-100,4,2,1,100,0,1
64565,-100,4,2,1,85,0,0
87482,-100,4,2,1,85,0,0
88149,-100,4,2,1,85,0,0
108566,-100,4,2,1,60,0,1
108649,-100,4,2,1,80,0,1
112399,-100,4,2,1,80,0,1
116566,-100,4,2,1,60,0,1
116649,-100,4,2,1,80,0,1
120566,-100,4,2,1,80,0,1
124066,-100,4,2,1,85,0,1
125482,-100,4,2,1,85,0,1
126149,-100,4,2,1,85,0,1
127482,-100,4,2,1,100,0,1
128482,-100,4,2,0,100,0,1
128649,-100,4,2,1,100,0,1
129482,-100,4,2,0,100,0,1
129649,-100,4,2,1,100,0,1
130482,-100,4,2,0,100,0,1
130649,-100,4,2,1,100,0,1
131482,-100,4,2,0,100,0,1
131649,-100,4,2,1,100,0,1
132566,-100,4,2,1,80,0,0
136066,-100,4,2,1,80,0,0
151982,-100,4,2,1,80,0,0
152566,-100,4,2,1,60,0,1
152649,-100,4,2,1,85,0,1
153482,-100,4,2,1,85,0,1
154149,-100,4,2,1,85,0,1
155482,-100,4,2,1,85,0,1
156316,-100,4,2,1,100,0,1
156482,-100,4,1,0,100,0,1
156649,-100,4,2,1,100,0,1
157482,-100,4,1,0,100,0,1
157649,-100,4,2,1,100,0,1
158482,-100,4,1,0,100,0,1
158649,-100,4,2,1,100,0,1
159482,-100,4,1,0,100,0,1
159649,-100,4,2,1,100,0,1
160482,-100,4,1,0,100,0,1
160649,-100,4,2,1,100,0,1
161482,-100,4,1,0,100,0,1
161649,-100,4,2,1,100,0,1
162482,-100,4,1,0,100,0,1
162649,-100,4,2,1,100,0,1
163482,-100,4,1,0,100,0,1
163649,-100,4,2,1,100,0,1
164482,-100,4,1,0,100,0,1
164649,-100,4,2,1,100,0,1
165482,-100,4,1,0,100,0,1
165649,-100,4,2,1,100,0,1
166566,-100,4,2,1,85,0,0
181482,-100,4,2,1,30,0,0

[Colours]
Combo1 : 53,22,228
Combo2 : 0,202,0
Combo3 : 18,124,255
Combo4 : 242,24,57
Combo5 : 254,216,1
Combo6 : 255,117,15
Combo7 : 244,83,240
Combo8 : 162,9,227

[HitObjects]
256,324,232,5,0,0:0:0:0:
256,324,399,1,0,0:0:0:0:
192,264,566,6,0,P|256:234|320:264,1,146.666666666667,0|0,1:0|0:0,0:0:0:0:
384,324,1066,1,8,0:0:0:0:
448,264,1232,2,0,B|456:228|456:228|448:192,1,73.3333333333333
384,132,1566,6,0,B|396:120|404:84|376:52|344:52|344:52|306:52,1,146.666666666667,0|0,1:0|0:0,0:0:0:0:
256,124,2066,1,8,0:0:0:0:
205,52,2232,2,0,L|132:52,1,73.3333333333333
80,124,2566,6,0,P|56:192|80:260,1,146.666666666667,0|0,1:0|0:0,0:0:0:0:
132,332,3066,1,8,0:0:0:0:
182,260,3232,1,0,0:0:0:0:
132,332,3399,1,0,0:0:0:0:
182,260,3566,6,0,P|206:192|182:124,1,146.666666666667,0|0,1:0|0:0,0:0:0:0:
256,76,4066,1,8,0:0:0:0:
330,124,4232,2,0,B|367:124|367:124|392:149,1,73.3333333333333,0|0,0:0|0:0,0:0:0:0:
468,105,4566,6,0,B|492:149|468:193|468:193|495:240,1,146.666666666667,0|0,1:0|0:0,0:0:0:0:
433,302,5066,1,8,0:0:0:0:
371,241,5232,2,0,P|337:229|303:241,1,73.3333333333333,0|0,0:0|0:0,0:0:0:0:
241,302,5566,6,0,P|177:332|113:302,1,146.666666666667,0|0,1:0|0:0,0:0:0:0:
51,241,6066,1,8,0:0:0:0:
113,180,6232,2,0,L|113:106,1,73.3333333333333,0|0,0:0|0:0,0:0:0:0:
175,45,6566,5,0,1:0:0:0:
175,45,8066,5,8,0:0:0:0:
175,45,8566,6,0,P|163:79|175:113,1,73.3333333333333,0|0,1:0|0:0,0:0:0:0:
256,150,8899,1,0,0:0:0:0:
337,113,9066,2,0,P|349:79|337:45,1,73.3333333333333,8|0,0:0|0:0,0:0:0:0:
256,79,9399,1,0,0:0:0:0:
175,113,9566,6,0,B|135:113|108:152|108:180|108:180|108:222,2,146.666666666667,0|2|0,1:0|0:0|0:0,0:0:0:0:
256,150,10399,1,0,0:0:0:0:
337,113,10566,2,0,B|377:113|404:152|404:180|404:180|404:222,2,146.666666666667,0|2|0,1:0|0:0|0:0,0:0:0:0:
256,79,11399,1,0,0:0:0:0:
175,113,11566,6,0,L|203:256,1,146.666666666667,0|0,1:0|0:0,0:0:0:0:
140,319,12066,1,8,0:0:0:0:
76,256,12232,2,0,B|40:264|40:264|4:256,1,73.3333333333333,0|0,0:0|0:0,0:0:0:0:
40,176,12566,6,0,B|64:143|44:107|40:107|36:107|16:71|40:38,1,146.666666666667,0|0,1:0|0:0,0:0:0:0:
128,37,13066,2,0,L|201:37,1,73.3333333333333,8|0,0:0|0:0,0:0:0:0:
256,104,13399,1,0,0:0:0:0:
311,37,13566,6,0,B|340:57|348:98|348:98|356:57|384:37,2,146.666666666667,0|2|0,1:2|0:0|0:0,0:0:0:0:
256,104,14399,1,0,0:0:0:0:
201,37,14566,2,0,B|172:57|164:98|164:98|156:57|127:37,2,146.666666666667,0|2|0,1:2|0:0|0:0,0:0:0:0:
256,104,15399,1,0,0:0:0:0:
311,171,15566,6,0,P|256:212|201:171,1,146.666666666667,0|0,1:2|0:0,0:0:0:0:
146,238,16066,2,0,B|146:275|146:275|120:300,1,73.3333333333333,8|0,0:0|0:0,0:0:0:0:
188,356,16399,1,0,0:0:0:0:
256,302,16566,6,0,B|284:325|284:325|305:356,2,73.3333333333333,0|0|0,1:0|0:0|0:0,0:0:0:0:
324,248,17066,2,0,B|352:271|352:271|373:302,2,73.3333333333333,8|0|0,0:0|0:0|0:0,0:0:0:0:
391,192,17566,2,0,B|411:208|439:208|459:192|459:192|479:208|507:208|527:192,2,146.666666666667,0|2|0,1:0|0:0|0:0,0:0:0:0:
324,136,18399,1,0,0:0:0:0:
256,82,18566,6,0,B|227:58|227:58|207:28,2,73.3333333333333,0|0|0,1:0|0:0|0:0,0:0:0:0:
188,136,19066,2,0,B|159:112|159:112|139:82,2,73.3333333333333,8|0|0,0:0|0:0|0:0,0:0:0:0:
121,192,19566,2,0,B|101:176|73:176|53:192|53:192|33:176|5:176|-15:192,2,146.666666666667,0|2|0,1:0|0:0|0:0,0:0:0:0:
188,248,20399,1,0,0:0:0:0:
256,302,20566,6,0,B|188:330|188:330|120:302,2,146.666666666667,0|2|0,1:0|0:0|0:0,0:0:0:0:
324,248,21399,1,0,0:0:0:0:
256,194,21566,2,0,B|188:166|188:166|120:194,2,146.666666666667,0|2|0,1:0|0:0|0:0,0:0:0:0:
324,140,22399,1,0,0:0:0:0:
392,86,22566,6,0,L|486:198,1,146.666666666667,0|0,1:0|0:0,0:0:0:0:
424,265,23066,1,8,0:0:0:0:
424,265,23232,2,0,P|414:300|424:335,1,73.3333333333333,0|0,0:0|0:0,0:0:0:0:
337,339,23566,1,0,0:0:0:0:
337,339,24066,5,8,0:0:0:0:
337,339,24566,6,0,P|349:305|337:271,1,73.3333333333333,0|0,1:0|0:0,0:0:0:0:
256,234,24899,1,0,0:0:0:0:
175,271,25066,2,0,P|163:305|175:339,1,73.3333333333333,8|0,0:0|0:0,0:0:0:0:
256,305,25399,1,0,0:0:0:0:
337,271,25566,6,0,B|377:271|404:232|404:204|404:204|404:162,2,146.666666666667,0|2|0,1:0|0:0|0:0,0:0:0:0:
256,234,26399,1,0,0:0:0:0:
175,271,26566,2,0,B|135:271|108:232|108:204|108:204|108:162,2,146.666666666667,0|2|0,1:0|0:0|0:0,0:0:0:0:
256,305,27399,1,0,0:0:0:0:
337,271,27566,6,0,L|309:128,1,146.666666666667,0|0,1:0|0:0,0:0:0:0:
372,65,28066,1,8,0:0:0:0:
436,128,28232,2,0,B|472:120|472:120|508:128,1,73.3333333333333,0|0,0:0|0:0,0:0:0:0:
472,208,28566,6,0,B|448:241|468:277|472:277|476:277|496:313|472:346,1,146.666666666667,0|0,1:0|0:0,0:0:0:0:
384,347,29066,2,0,L|311:347,1,73.3333333333333,8|0,0:0|0:0,0:0:0:0:
256,280,29399,1,0,0:0:0:0:
201,347,29566,6,0,B|172:327|164:286|164:286|156:327|128:347,2,146.666666666667,0|2|0,1:0|0:0|0:0,0:0:0:0:
256,280,30399,1,0,0:0:0:0:
311,347,30566,2,0,B|340:327|348:286|348:286|356:327|385:347,2,146.666666666667,0|2|0,1:0|0:0|0:0,0:0:0:0:
256,280,31399,1,0,0:0:0:0:
201,213,31566,6,0,P|256:172|311:213,1,146.666666666667,0|0,1:0|0:0,0:0:0:0:
366,146,32066,2,0,B|366:109|366:109|392:84,1,73.3333333333333,8|0,0:0|0:0,0:0:0:0:
324,28,32399,1,0,0:0:0:0:
256,82,32566,6,0,B|228:59|228:59|207:28,2,73.3333333333333,0|0|0,1:0|0:0|0:0,0:0:0:0:
188,136,33066,2,0,B|160:113|160:113|139:82,2,73.3333333333333,8|0|0,0:0|0:0|0:0,0:0:0:0:
121,192,33566,2,0,B|101:176|73:176|53:192|53:192|33:176|5:176|-15:192,2,146.666666666667,0|2|0,1:0|0:0|0:0,0:0:0:0:
188,248,34399,1,0,0:0:0:0:
256,302,34566,6,0,B|285:326|285:326|305:356,2,73.3333333333333,0|0|0,1:0|0:0|0:0,0:0:0:0:
324,248,35066,2,0,B|353:272|353:272|373:302,2,73.3333333333333,8|0|0,0:0|0:0|0:0,0:0:0:0:
391,192,35566,2,0,B|411:208|439:208|459:192|459:192|479:208|507:208|527:192,2,146.666666666667,0|2|0,1:0|0:0|0:0,0:0:0:0:
324,136,36399,1,0,0:0:0:0:
256,82,36566,6,0,B|324:54|324:54|392:82,2,146.666666666667,0|2|2,1:0|0:0|0:3,0:0:0:0:
188,136,37399,1,0,0:0:0:0:
256,190,37566,2,0,B|324:218|324:218|392:190,2,146.666666666667,0|2|2,1:0|0:0|0:3,0:0:0:0:
188,244,38399,1,0,0:0:0:0:
120,298,38566,6,0,L|25:185,1,146.666666666667,0|2,1:0|0:0,0:0:0:0:
88,119,39066,1,8,0:0:0:0:
88,119,39232,2,0,P|98:84|88:49,1,73.3333333333333,0|0,0:0|0:0,0:0:0:0:
175,45,39566,6,0,L|217:104,2,73.3333333333333,0|0|0,3:0|3:0|3:0,0:0:0:0:
337,45,40066,2,0,L|294:104,2,73.3333333333333,2|2|2,3:0|3:0|3:0,0:0:0:0:
256,24,40566,6,0,L|256:170,1,146.666666666667,4|2,1:1|0:0,0:0:0:0:
300,248,41066,2,0,P|331:312|300:376,1,146.666666666667,8|0,0:0|0:0,0:0:0:0:
212,376,41566,2,0,P|181:312|212:248,1,146.666666666667,0|0,1:0|0:0,0:0:0:0:
256,171,42066,2,0,B|267:136|267:136|256:101,1,73.3333333333333,8|0,0:0|0:0,0:0:0:0:
300,24,42399,1,0,0:0:0:0:
344,101,42566,6,0,B|376:72|376:72|408:44|448:44|472:58,1,146.666666666667,2|0,1:2|0:0,0:0:0:0:
436,140,43066,2,0,B|400:152|389:192|389:192|400:232|436:244,1,146.666666666667,8|0,0:0|0:0,0:0:0:0:
472,325,43566,2,0,B|448:340|408:340|376:312|376:312|344:283,1,146.666666666667,0|0,1:0|0:0,0:0:0:0:
300,360,44066,2,0,B|275:335|275:335|237:335,1,73.3333333333333,8|0,0:0|0:0,0:0:0:0:
148,335,44399,1,2,0:0:0:0:
85,272,44566,6,0,P|51:284|17:272,2,73.3333333333333,2|0|0,1:0|0:0|0:0,0:0:0:0:
148,209,45066,2,0,B|105:166|105:166|97:163|97:163|102:158|102:158|94:155|94:155|51:112,1,146.666666666667,8|2,0:0|0:0,0:0:0:0:
50,23,45566,2,0,B|83:-1|119:19|119:23|119:27|155:47|188:23,1,146.666666666667,2|0,1:1|0:0,0:0:0:0:
227,105,46066,2,0,B|275:49,1,73.3333333333333,8|0,0:0|0:0,0:0:0:0:
364,49,46399,1,2,0:0:0:0:
427,112,46566,6,0,P|461:100|495:112,2,73.3333333333333,2|0|0,1:0|0:0|0:0,0:0:0:0:
364,175,47066,2,0,B|407:218|407:218|415:221|415:221|410:226|410:226|418:229|418:229|461:272,1,146.666666666667,8|2,0:0|0:0,0:0:0:0:
462,361,47566,2,0,B|429:385|393:365|393:361|393:357|357:337|324:361,1,146.666666666667,2|0,1:0|0:0,0:0:0:0:
284,278,48066,2,0,B|237:335,1,73.3333333333333,8|0,0:0|0:0,0:0:0:0:
148,335,48399,1,0,0:0:0:0:
85,272,48566,6,0,P|54:208|85:144,1,146.666666666667,4|2,1:0|0:0,0:0:0:0:
148,81,49066,2,0,B|212:81|212:81|192:41|212:1,1,146.666666666667,8|0,0:0|0:0,0:0:0:0:
300,1,49566,2,0,B|320:41|300:81|300:81|364:81,1,146.666666666667,0|2,1:0|0:0,0:0:0:0:
427,144,50066,2,0,P|461:132|495:144,1,73.3333333333333,8|0,0:0|0:0,0:0:0:0:
461,225,50399,1,0,0:0:0:0:
495,306,50566,6,0,P|461:358|427:306,1,146.666666666667,2|2,1:0|0:0,0:0:0:0:
338,306,51066,2,0,B|274:306|274:306|266:310|266:310|258:314|258:314|193:314,1,146.666666666667,8|0,0:0|0:0,0:0:0:0:
114,358,51566,2,0,B|90:314|114:270|114:270|114:215,1,146.666666666667,0|0,1:0|0:0,0:0:0:0:
114,127,52066,2,0,B|150:127|150:127|176:100,1,73.3333333333333,8|0,0:0|0:0,0:0:0:0:
256,136,52399,1,2,0:0:0:0:
335,100,52566,6,0,P|323:66|335:32,2,73.3333333333333,2|0|0,1:0|0:0|0:0,0:0:0:0:
414,136,53066,2,0,P|438:204|414:272,1,146.666666666667,8|2,0:0|0:0,0:0:0:0:
335,308,53566,2,0,B|355:288|364:256|351:224|335:208|335:208|335:171,1,146.666666666667,2|0,1:0|0:0,0:0:0:0:
256,204,54066,2,0,B|256:178|256:178|249:170|249:170|256:162|256:162|256:136,1,73.3333333333333,8|0,0:0|0:0,0:0:0:0:
177,100,54399,1,2,0:0:0:0:
177,100,54566,6,0,P|189:66|177:32,2,73.3333333333333,2|0|0,1:0|0:0|0:0,0:0:0:0:
98,136,55066,2,0,P|74:204|98:272,1,146.666666666667,8|2,0:0|0:0,0:0:0:0:
177,308,55566,2,0,B|157:288|148:256|161:224|177:208|177:208|177:171,1,146.666666666667,2|0,1:0|0:0,0:0:0:0:
256,204,56066,2,0,B|256:178|256:178|263:170|263:170|256:162|256:162|256:136,1,73.3333333333333,8|0,0:0|0:0,0:0:0:0:
335,100,56399,1,2,0:0:0:0:
335,100,56566,6,0,B|335:76|335:76|343:56|343:56|343:28,2,73.3333333333333,0|0|0,1:0|0:0|0:0,0:0:0:0:
414,136,57066,2,0,B|424:176|457:192|457:192|424:208|414:248,1,146.666666666667,8|0,0:0|0:0,0:0:0:0:
335,284,57566,2,0,B|335:308|335:308|343:328|343:328|343:355,2,73.3333333333333,2|0|0,1:2|0:0|0:0,0:0:0:0:
256,248,58066,1,8,0:0:0:0:
256,248,58232,1,0,0:0:0:0:
256,248,58399,1,2,0:0:0:0:
177,284,58566,6,0,B|177:308|177:308|169:328|169:328|169:355,2,73.3333333333333,0|0|0,1:0|0:0|0:0,0:0:0:0:
98,248,59066,2,0,B|88:208|55:192|55:192|88:176|98:136,1,146.666666666667,8|0,0:0|0:0,0:0:0:0:
177,100,59566,2,0,B|177:76|177:76|169:56|169:56|169:28,2,73.3333333333333,2|0|0,1:0|0:0|0:0,0:0:0:0:
256,136,60066,1,8,0:0:0:0:
256,136,60232,1,0,0:0:0:0:
256,136,60399,1,2,0:0:0:0:
335,100,60566,6,0,P|369:88|403:100,1,73.3333333333333,0|0,1:0|0:0,0:0:0:0:
460,168,60899,1,0,0:0:0:0:
403,237,61066,2,0,L|264:284,1,146.666666666667,8|2,0:0|0:0,0:0:0:0:
177,284,61566,6,0,P|143:296|109:284,1,73.3333333333333,0|0,1:0|0:0,0:0:0:0:
52,216,61899,1,0,0:0:0:0:
109,147,62066,2,0,L|248:100,1,146.666666666667,8|2,0:0|0:0,0:0:0:0:
335,100,62566,6,0,P|369:88|403:100,1,73.3333333333333,0|0,1:0|0:0,0:0:0:0:
460,168,62899,1,0,0:0:0:0:
403,237,63066,2,0,P|369:249|335:237,1,73.3333333333333,8|0,0:0|0:0,0:0:0:0:
264,284,63400,1,0,0:0:0:0:
177,284,63566,6,0,P|143:296|109:284,1,73.3333333333333,0|0,1:0|0:0,0:0:0:0:
52,216,63900,1,0,0:0:0:0:
109,147,64065,2,0,P|143:135|177:147,1,73.3333333333333,8|2,0:0|0:0,0:0:0:0:
248,100,64399,1,2,0:0:0:0:
335,100,64566,5,4,0:0:0:0:
335,100,72566,6,0,B|312:128|312:128|312:165,1,73.3333333333333,0|0,1:0|0:0,0:0:0:0:
256,232,72899,1,0,0:0:0:0:
200,165,73066,2,0,B|200:128|200:128|177:100,1,73.3333333333333,8|0,0:0|0:0,0:0:0:0:
256,64,73399,1,0,0:0:0:0:
335,100,73566,6,0,B|375:100|402:61|402:33|402:33|444:32,2,146.666666666667,0|2|0,1:0|0:0|0:0,0:0:0:0:
256,64,74399,1,0,0:0:0:0:
177,100,74566,2,0,B|137:100|110:61|110:33|110:33|67:32,2,146.666666666667,0|2|0,1:0|0:0|0:0,0:0:0:0:
256,136,75399,1,0,0:0:0:0:
335,100,75566,6,0,B|377:142|377:142|390:140|390:140|388:153|388:153|431:196,1,146.666666666667,0|0,1:0|0:0,0:0:0:0:
493,258,76066,1,8,0:0:0:0:
431,321,76232,2,0,B|395:333|359:321,1,73.3333333333333,0|0,0:0|0:0,0:0:0:0:
297,258,76566,6,0,B|224:280|186:348,1,146.666666666667,0|0,1:0|0:0,0:0:0:0:
98,348,77066,2,0,B|62:356|62:356|26:348,1,73.3333333333333,8|0,0:0|0:0,0:0:0:0:
62,268,77399,1,0,0:0:0:0:
98,188,77566,6,0,B|98:152|98:152|62:168|26:152|26:152|26:188,2,146.666666666667,0|2|0,1:0|0:0|0:0,0:0:0:0:
134,268,78399,1,0,0:0:0:0:
170,188,78566,2,0,L|170:41,2,146.666666666667,0|2|0,1:0|0:0|0:0,0:0:0:0:
206,268,79399,1,0,0:0:0:0:
242,188,79566,6,0,P|306:158|370:188,1,146.666666666667,0|0,1:0|0:0,0:0:0:0:
406,268,80066,2,0,B|418:281|418:281|418:319|418:319|406:332,1,73.3333333333333,8|0,0:0|0:0,0:0:0:0:
331,380,80399,1,0,0:0:0:0:
256,332,80566,6,0,B|239:348|239:348|230:351|230:351|236:357|236:357|227:360|227:360|210:377,2,73.3333333333333,0|0|0,1:0|0:0|0:0,0:0:0:0:
179,282,81066,2,0,B|162:298|162:298|153:301|153:301|159:307|159:307|150:310|150:310|133:327,2,73.3333333333333,8|0|0,0:0|0:0|0:0,0:0:0:0:
179,192,81566,2,0,B|146:168|110:188|110:192|110:196|74:216|41:192,2,146.666666666667,0|2|0,1:0|0:0|0:0,0:0:0:0:
179,102,82399,1,0,0:0:0:0:
256,52,82566,6,0,B|272:35|272:35|281:32|281:32|275:26|275:26|284:23|284:23|301:6,2,73.3333333333333,0|0|0,1:0|0:0|0:0,0:0:0:0:
333,102,83066,2,0,B|349:85|349:85|358:82|358:82|352:76|352:76|361:73|361:73|378:56,2,73.3333333333333,8|0|0,0:0|0:0|0:0,0:0:0:0:
333,192,83566,2,0,B|366:216|402:196|402:192|402:188|438:168|471:192,2,146.666666666667,0|2|0,1:0|0:0|0:0,0:0:0:0:
333,282,84399,1,0,0:0:0:0:
256,332,84566,6,0,B|184:307|112:332,2,146.666666666667,0|2|0,1:0|0:0|0:0,0:0:0:0:
333,282,85399,1,0,0:0:0:0:
256,232,85566,2,0,B|184:207|112:232,2,146.666666666667,0|2|0,1:0|0:0|0:0,0:0:0:0:
333,182,86399,1,0,0:0:0:0:
256,132,86566,6,0,B|184:107|112:132,1,146.666666666667,0|0,1:0|0:0,0:0:0:0:
35,182,87066,1,8,0:0:0:0:
35,182,87232,2,0,L|4:115,1,73.3333333333333,0|0,0:0|0:0,0:0:0:0:
112,232,87566,2,0,B|80:244|63:284|63:284|80:324|112:336,1,146.666666666667,0|0,1:0|0:0,0:0:0:0:
177,284,88066,5,8,0:0:0:0:
177,284,88566,6,0,B|200:256|200:256|200:219,1,73.3333333333333,4|0,1:3|0:0,0:0:0:0:
256,152,88899,1,0,0:0:0:0:
312,219,89066,2,0,B|312:256|312:256|335:284,1,73.3333333333333,8|0,0:0|0:0,0:0:0:0:
256,320,89399,1,0,0:0:0:0:
177,284,89566,6,0,B|137:284|110:323|110:351|110:351|68:352,2,146.666666666667,0|2|0,1:0|0:0|0:0,0:0:0:0:
256,320,90399,1,0,0:0:0:0:
335,284,90566,2,0,B|375:284|402:323|402:351|402:351|445:352,2,146.666666666667,0|2|0,1:0|0:0|0:0,0:0:0:0:
256,248,91399,1,0,0:0:0:0:
177,284,91566,6,0,B|135:242|135:242|122:244|122:244|124:231|124:231|81:188,1,146.666666666667,0|0,1:0|0:0,0:0:0:0:
19,126,92066,1,8,0:0:0:0:
81,63,92232,2,0,B|117:51|153:63,1,73.3333333333333,0|0,0:0|0:0,0:0:0:0:
215,126,92566,6,0,B|288:104|326:36,1,146.666666666667,4|0,1:3|0:0,0:0:0:0:
414,36,93066,2,0,B|450:28|450:28|486:36,1,73.3333333333333,8|0,0:0|0:0,0:0:0:0:
450,116,93399,1,0,0:0:0:0:
414,196,93566,6,0,B|414:232|414:232|450:216|486:232|486:232|486:196,2,146.666666666667,0|2|0,1:3|0:0|0:0,0:0:0:0:
378,116,94399,1,0,0:0:0:0:
342,196,94566,2,0,L|342:343,2,146.666666666667,0|2|0,1:3|0:0|0:0,0:0:0:0:
306,116,95399,1,0,0:0:0:0:
270,196,95566,6,0,P|206:226|142:196,1,146.666666666667,0|0,1:3|0:0,0:0:0:0:
106,116,96066,2,0,B|94:103|94:103|94:65|94:65|106:52,1,73.3333333333333,8|0,0:0|0:0,0:0:0:0:
181,4,96399,1,0,0:0:0:0:
256,52,96566,6,0,B|273:36|273:36|282:33|282:33|276:27|276:27|285:24|285:24|302:7,2,73.3333333333333,4|0|0,1:3|0:0|0:0,0:0:0:0:
333,102,97066,2,0,B|350:86|350:86|359:83|359:83|353:77|353:77|362:74|362:74|379:57,2,73.3333333333333,8|0|0,0:0|0:0|0:0,0:0:0:0:
333,192,97566,2,0,B|366:216|402:196|402:192|402:188|438:168|471:192,2,146.666666666667,0|2|0,1:0|0:0|0:0,0:0:0:0:
333,282,98399,1,0,0:0:0:0:
256,332,98566,6,0,B|240:349|240:349|231:352|231:352|237:358|237:358|228:361|228:361|211:378,2,73.3333333333333,0|0|0,1:0|0:0|0:0,0:0:0:0:
179,282,99066,2,0,B|163:299|163:299|154:302|154:302|160:308|160:308|151:311|151:311|134:328,2,73.3333333333333,8|0|0,0:0|0:0|0:0,0:0:0:0:
179,192,99566,2,0,B|146:168|110:188|110:192|110:196|74:216|41:192,2,146.666666666667,0|2|0,1:0|0:0|0:0,0:0:0:0:
179,102,100399,1,0,0:0:0:0:
256,52,100566,6,0,B|328:77|400:52,2,146.666666666667,0|2|2,1:0|0:0|0:3,0:0:0:0:
179,102,101399,1,0,0:0:0:0:
256,152,101566,2,0,B|328:177|400:152,2,146.666666666667,0|2|2,1:0|0:0|0:3,0:0:0:0:
179,202,102399,1,0,0:0:0:0:
256,252,102566,6,0,B|328:277|400:252,1,146.666666666667,0|2,1:0|0:0,0:0:0:0:
477,202,103066,1,8,0:0:0:0:
477,202,103232,2,0,L|507:268,1,73.3333333333333,0|4,0:0|0:3,0:0:0:0:
400,152,103566,5,4,0:3:0:0:
400,152,108066,5,8,0:0:0:0:
400,152,108566,6,0,B|380:188|380:188|316:188|316:188|296:152,1,146.666666666667,4|2,0:1|0:0,0:0:0:0:
328,68,109066,2,0,P|256:56|184:68,1,146.666666666667,8|0,0:0|0:0,0:0:0:0:
216,152,109566,2,0,B|196:188|196:188|132:188|132:188|112:152,1,146.666666666667,0|0,1:0|0:0,0:0:0:0:
48,212,110066,2,0,B|37:247|37:247|48:282,1,73.3333333333333,8|0,0:0|0:0,0:0:0:0:
112,342,110399,1,0,0:0:0:0:
176,281,110566,6,0,L|304:208,1,146.666666666667,0|0,1:0|0:0,0:0:0:0:
303,296,111066,2,0,L|381:171,1,146.666666666667,8|0,0:0|0:0,0:0:0:0:
420,249,111566,2,0,L|431:102,1,146.666666666667,0|0,1:0|0:0,0:0:0:0:
481,33,112066,2,0,B|443:32|443:32|413:12,1,73.3333333333333,8|0,0:0|0:0,0:0:0:0:
335,55,112399,1,2,0:0:0:0:
256,12,112566,6,0,P|222:0|188:12,2,73.3333333333333,2|0|0,1:0|0:0|0:0,0:0:0:0:
335,55,113066,2,0,B|335:115|335:115|338:123|338:123|331:123|331:123|335:131|335:131|335:192,1,146.666666666667,8|2,0:0|0:0,0:0:0:0:
256,156,113566,2,0,B|192:156|192:156|184:148|184:148|176:140|176:140|115:140,1,146.666666666667,2|0,1:0|0:0,0:0:0:0:
116,230,114066,2,0,B|116:268|116:268|98:298,1,73.3333333333333,8|0,0:0|0:0,0:0:0:0:
177,329,114399,1,2,0:0:0:0:
256,372,114566,6,0,P|290:384|324:372,2,73.3333333333333,2|0|0,1:0|0:0|0:0,0:0:0:0:
177,329,115066,2,0,B|177:268|177:268|173:260|173:260|180:260|180:260|177:252|177:252|177:191,1,146.666666666667,8|2,0:0|0:0,0:0:0:0:
256,228,115566,2,0,B|320:228|320:228|328:236|328:236|336:244|336:244|396:244,1,146.666666666667,2|0,1:0|0:0,0:0:0:0:
396,153,116066,2,0,B|396:116|396:116|414:85,1,73.3333333333333,8|0,0:0|0:0,0:0:0:0:
335,55,116399,1,0,0:0:0:0:
256,12,116566,6,0,B|220:12|220:12|188:32|188:32|156:12|156:12|120:12,1,146.666666666667,4|2,1:0|0:0,0:0:0:0:
41,55,117066,2,0,B|104:80|150:149,1,146.666666666667,8|0,0:0|0:0,0:0:0:0:
150,234,117566,2,0,B|104:304|41:329,1,146.666666666667,0|2,1:0|0:0,0:0:0:0:
120,372,118066,2,0,P|154:360|188:372,1,73.3333333333333,8|0,0:0|0:0,0:0:0:0:
256,316,118399,1,0,0:0:0:0:
325,261,118566,6,0,P|256:236|215:177,1,146.666666666667,2|2,1:0|0:0,0:0:0:0:
296,177,119066,2,0,P|255:236|186:261,1,146.666666666667,8|0,0:0|0:0,0:0:0:0:
98,261,119566,2,0,B|74:192|74:192|98:123,1,146.666666666667,0|0,1:0|0:0,0:0:0:0:
186,122,120066,2,0,B|186:86|186:86|168:53,1,73.3333333333333,8|0,0:0|0:0,0:0:0:0:
256,53,120399,1,2,0:0:0:0:
343,53,120566,6,0,B|364:49|372:33|372:33|380:49|401:53,2,73.3333333333333,2|0|0,1:0|0:0|0:0,0:0:0:0:
299,129,121066,2,0,L|445:129,1,146.666666666667,8|2,0:0|0:0,0:0:0:0:
503,195,121566,2,0,B|503:231|476:258|443:258|443:258|393:258,1,146.666666666667,2|0,1:0|0:0,0:0:0:0:
305,258,122066,2,0,B|305:331,1,73.3333333333333,8|0,0:0|0:0,0:0:0:0:
237,382,122399,1,2,0:0:0:0:
169,331,122566,6,0,B|148:335|140:351|140:351|132:335|111:331,2,73.3333333333333,2|0|0,1:0|0:0|0:0,0:0:0:0:
213,255,123066,2,0,L|66:255,1,146.666666666667,8|2,0:0|0:0,0:0:0:0:
9,189,123566,2,0,B|9:153|36:126|69:126|69:126|118:126,1,146.666666666667,2|0,1:0|0:0,0:0:0:0:
207,126,124066,2,0,B|207:52,1,73.3333333333333,8|0,0:0|0:0,0:0:0:0:
275,2,124399,1,2,0:0:0:0:
343,53,124566,6,0,B|363:53|375:37|375:37|387:53|407:53,2,73.3333333333333,0|0|0,1:0|0:0|0:0,0:0:0:0:
375,134,125066,2,0,B|338:134|312:172|316:212|316:212|323:248,1,146.666666666667,8|0,0:0|0:0,0:0:0:0:
343,331,125566,2,0,B|367:331|367:331|387:323|387:323|414:323,2,73.3333333333333,2|0|0,1:2|0:0|0:0,0:0:0:0:
256,331,126066,1,8,0:0:0:0:
256,331,126232,1,0,0:0:0:0:
256,331,126399,1,2,0:0:0:0:
169,331,126566,6,0,B|149:331|137:347|137:347|125:331|105:331,2,73.3333333333333,0|0|0,1:0|0:0|0:0,0:0:0:0:
137,250,127066,2,0,B|174:250|200:212|196:172|196:172|188:135,1,146.666666666667,8|0,0:0|0:0,0:0:0:0:
169,53,127566,2,0,B|145:53|145:53|125:61|125:61|98:61,2,73.3333333333333,2|0|0,1:1|0:0|0:0,0:0:0:0:
256,53,128066,1,8,0:0:0:0:
256,53,128232,1,0,0:0:0:0:
256,53,128399,1,2,0:0:0:0:
343,53,128566,6,0,P|355:87|343:121,1,73.3333333333333,0|0,1:0|0:0,0:0:0:0:
396,192,128899,1,0,0:0:0:0:
343,263,129065,2,0,L|246:373,1,146.666666666667,8|2,0:0|0:0,0:0:0:0:
169,331,129565,6,0,P|157:297|169:263,1,73.3333333333333,0|0,1:0|0:0,0:0:0:0:
116,192,129899,1,0,0:0:0:0:
169,121,130065,2,0,L|265:10,1,146.666666666667,8|2,0:0|0:0,0:0:0:0:
343,53,130565,6,0,P|355:87|343:121,1,73.3333333333333,0|0,1:0|0:0,0:0:0:0:
396,192,130899,1,0,0:0:0:0:
343,263,131066,2,0,P|355:297|343:331,1,73.3333333333333,8|0,0:0|0:0,0:0:0:0:
256,330,131399,1,0,0:0:0:0:
169,331,131566,6,0,P|157:297|169:263,1,73.3333333333333,0|0,1:0|0:0,0:0:0:0:
116,192,131899,1,0,0:0:0:0:
169,121,132066,2,0,P|157:87|169:53,1,73.3333333333333,8|2,0:0|0:0,0:0:0:0:
256,54,132399,1,2,0:0:0:0:
343,53,132566,6,0,B|379:101|347:157|343:157|339:157|307:213|343:261,1,220,4|0,0:0|0:0,0:0:0:0:
288,328,133232,2,0,P|256:343|224:328,1,73.3333333333333,2|0,0:0|0:0,0:0:0:0:
169,261,133566,2,0,B|205:213|173:157|169:157|165:157|133:101|169:53,1,220,2|2,0:0|0:0,0:0:0:0:
256,214,134399,1,4,3:0:0:0:
256,209,134566,1,6,0:0:0:0:
256,204,135066,6,0,L|256:130,2,73.3333333333333,2|0|0,0:0|0:0|0:0,0:0:0:0:
256,292,135566,2,0,L|256:372,2,73.3333333333333,2|0|0,0:0|0:0|0:0,0:0:0:0:
182,248,136066,2,0,L|328:248,1,146.666666666667,2|2,0:0|0:0,0:0:0:0:
396,192,136566,6,0,P|429:206|462:192,1,73.3333333333333,0|0,1:0|0:0,0:0:0:0:
429,110,136899,1,0,0:0:0:0:
462,28,137066,2,0,B|424:28|424:28|390:16,1,73.3333333333333,8|0,0:0|0:0,0:0:0:0:
302,16,137399,1,0,0:0:0:0:
210,16,137566,2,0,B|168:16|168:16|112:16|83:67,2,146.666666666667,2|2|0,1:2|0:0|1:0,0:0:0:0:
256,92,138399,1,0,0:0:0:0:
302,168,138566,6,0,B|344:168|344:168|400:168|429:117,2,146.666666666667,2|2|0,1:2|0:0|1:0,0:0:0:0:
256,244,139399,1,0,0:0:0:0:
210,320,139566,2,0,B|168:320|168:320|112:320|83:371,1,146.666666666667,2|0,1:2|0:0,0:0:0:0:
24,308,140066,1,8,0:0:0:0:
82,244,140232,1,0,1:0:0:0:
24,308,140399,1,0,0:0:0:0:
82,244,140566,6,0,B|90:208|90:208|82:172,2,73.3333333333333,0|2|0,1:0|0:0|0:0,0:0:0:0:
169,244,141066,2,0,B|177:208|177:208|169:172,2,73.3333333333333,8|0|0,0:0|0:0|0:0,0:0:0:0:
256,244,141566,2,0,P|324:268|392:244,2,146.666666666667,2|2|0,1:2|0:0|1:0,0:0:0:0:
324,192,142399,1,0,0:0:0:0:
256,140,142566,6,0,P|324:116|392:140,2,146.666666666667,2|2|0,1:2|0:0|1:0,0:0:0:0:
188,192,143399,1,0,0:0:0:0:
256,244,143566,2,0,L|359:347,1,146.666666666667,2|0,1:2|0:0,0:0:0:0:
418,285,144066,2,0,L|480:347,2,73.3333333333333,8|0|0,0:0|1:0|0:0,0:0:0:0:
477,226,144566,5,2,1:2:0:0:
477,226,144732,2,0,P|489:192|477:158,1,73.3333333333333,2|0,0:0|0:0,0:0:0:0:
396,192,145066,2,0,P|408:158|396:124,1,73.3333333333333,8|0,0:0|0:0,0:0:0:0:
326,72,145399,1,0,0:0:0:0:
256,124,145566,2,0,B|272:160|272:160|272:188|272:188|276:192|276:192|272:196|272:196|272:224|272:224|256:260,2,146.666666666667,2|2|0,1:2|1:0|0:0,0:0:0:0:
186,72,146399,1,0,0:0:0:0:
116,124,146566,5,2,1:2:0:0:
116,124,146732,2,0,P|104:158|116:192,1,73.3333333333333,0|0,0:0|0:0,0:0:0:0:
35,158,147066,2,0,P|23:192|35:226,1,73.3333333333333,8|0,0:0|0:0,0:0:0:0:
116,263,147399,1,0,0:0:0:0:
197,226,147566,2,0,P|256:263|315:226,2,146.666666666667,2|2|0,1:2|1:0|0:0,0:0:0:0:
256,160,148399,1,2,0:0:0:0:
315,226,148566,6,0,P|350:216|385:226,2,73.3333333333333,0|0|0,1:0|1:0|0:0,0:0:0:0:
256,160,149066,2,0,P|246:125|256:90,2,73.3333333333333,8|0|0,0:0|0:0|0:0,0:0:0:0:
197,226,149566,2,0,P|162:236|127:226,2,73.3333333333333,0|0|0,1:0|1:0|0:0,0:0:0:0:
256,292,150066,2,0,P|266:327|256:362,2,73.3333333333333,8|0|0,0:0|0:0|0:0,0:0:0:0:
315,226,150566,6,0,B|350:215|350:215|385:226,2,73.3333333333333,0|0|0,1:0|1:0|0:0,0:0:0:0:
256,160,151066,2,0,B|245:125|245:125|256:90,2,73.3333333333333,8|0|0,0:0|0:0|0:0,0:0:0:0:
197,226,151566,2,0,B|162:237|162:237|127:226,2,73.3333333333333,0|0|0,1:0|1:0|0:0,0:0:0:0:
256,292,152066,6,0,L|385:363,1,146.666666666667,4|2,0:3|0:0,0:0:0:0:
414,280,152566,6,0,B|432:279|444:295|444:295|456:279|476:279,2,73.3333333333333,4|0|0,1:0|0:0|0:0,0:0:0:0:
444,198,153066,2,0,B|436:120|477:58,1,146.666666666667,8|0,0:0|0:0,0:0:0:0:
388,60,153566,2,0,B|350:60|350:60|325:35,1,73.3333333333333,2|0,1:2|0:0,0:0:0:0:
256,88,153899,1,0,0:0:0:0:
256,88,154066,2,0,B|231:63|231:63|193:63,1,73.3333333333333,8|0,0:0|0:0,0:0:0:0:
117,16,154399,1,2,0:0:0:0:
98,104,154566,6,0,B|79:104|67:88|67:88|55:104|35:104,2,73.3333333333333,0|0|0,1:0|0:0|0:0,0:0:0:0:
68,186,155066,2,0,B|76:264|35:326,1,146.666666666667,8|0,0:0|0:0,0:0:0:0:
124,324,155566,2,0,B|162:324|162:324|186:348,1,73.3333333333333,2|0,1:1|0:0,0:0:0:0:
256,296,155899,1,0,0:0:0:0:
256,296,156066,2,0,B|280:320|280:320|318:320,1,73.3333333333333,8|0,0:0|0:0,0:0:0:0:
395,368,156399,1,2,0:0:0:0:
414,280,156566,6,0,P|402:246|414:212,1,73.3333333333333,0|0,0:0|0:0,0:0:0:0:
364,140,156899,1,0,0:0:0:0:
315,68,157066,2,0,B|248:68|248:68|240:60|240:60|171:60,1,146.666666666667,8|2,0:0|0:0,0:0:0:0:
98,104,157566,6,0,P|110:138|98:172,1,73.3333333333333,0|0,0:0|0:0,0:0:0:0:
148,244,157899,1,0,0:0:0:0:
197,316,158066,2,0,B|264:316|264:316|272:324|272:324|340:324,1,146.666666666667,8|2,0:0|0:0,0:0:0:0:
414,280,158566,6,0,P|449:270|484:280,2,73.3333333333333,0|0|0,0:0|0:0|0:0,0:0:0:0:
414,192,159066,2,0,L|332:192,2,73.3333333333333,8|0|0,0:0|0:0|0:0,0:0:0:0:
414,104,159566,2,0,P|449:114|484:104,2,73.3333333333333,0|0|0,0:0|0:0|0:0,0:0:0:0:
325,104,160066,2,0,B|256:80|256:80|187:104,1,146.666666666667,8|2,0:0|0:0,0:0:0:0:
98,104,160566,6,0,P|63:114|28:104,2,73.3333333333333,0|0|0,0:0|0:0|0:0,0:0:0:0:
98,192,161066,2,0,L|180:192,2,73.3333333333333,8|0|0,0:0|0:0|0:0,0:0:0:0:
98,280,161566,2,0,P|63:270|28:280,2,73.3333333333333,0|0|0,0:0|0:0|0:0,0:0:0:0:
187,280,162066,2,0,B|256:304|256:304|325:280,1,146.666666666667,8|2,0:0|0:0,0:0:0:0:
325,192,162566,6,0,L|358:126,2,73.3333333333333,0|0|0,0:0|0:0|0:0,0:0:0:0:
256,136,163066,2,0,L|256:62,2,73.3333333333333,8|0|0,0:0|0:0|0:0,0:0:0:0:
187,192,163566,2,0,L|153:126,2,73.3333333333333,0|0|0,0:0|0:0|0:0,0:0:0:0:
256,248,164066,2,0,B|256:299|256:299|252:307|252:307|260:307|260:307|252:315|252:315|260:315|260:315|256:323|256:323|256:374,1,146.666666666667,8|2,0:0|0:0,0:0:0:0:
176,336,164566,6,0,B|160:303|160:303|160:266,1,73.3333333333333,0|0,0:0|0:0,0:0:0:0:
112,192,164899,1,0,0:0:0:0:
160,117,165066,2,0,B|160:81|160:81|176:48,1,73.3333333333333,8|0,0:0|0:0,0:0:0:0:
256,12,165399,1,0,0:0:0:0:
336,48,165566,6,0,B|352:81|352:81|352:117,1,73.3333333333333,0|0,0:0|0:0,0:0:0:0:
400,192,165899,1,0,0:0:0:0:
352,266,166066,2,0,B|352:303|352:303|336:336,1,73.3333333333333,8|2,0:0|0:0,0:0:0:0:
256,372,166399,1,2,0:0:0:0:
176,338,166566,6,0,B|176:296|144:268|104:268|104:268|70:268,1,146.666666666667,4|0,0:0|0:0,0:0:0:0:
28,192,167066,1,8,0:0:0:0:
70,116,167232,2,0,B|108:116|108:116|136:144,1,73.3333333333333,0|0,1:0|0:0,0:0:0:0:
200,80,167566,6,0,B|216:112|256:124|256:124|296:112|312:80,1,146.666666666667,0|0,1:0|0:0,0:0:0:0:
380,140,168066,1,8,0:0:0:0:
312,201,168232,2,0,B|304:237|304:237|312:273,1,73.3333333333333,0|0,1:0|0:0,0:0:0:0:
380,333,168566,6,0,P|312:357|244:333,1,146.666666666667,2|0,0:0|1:0,0:0:0:0:
176,273,169066,1,8,0:0:0:0:
108,333,169232,2,0,L|67:273,1,73.3333333333333,0|2,1:0|0:0,0:0:0:0:
121,205,169566,6,0,L|39:83,1,146.666666666667,0|0,1:0|0:0,0:0:0:0:
101,21,170066,1,8,0:0:0:0:
165,82,170232,2,0,P|181:50|211:29,1,73.3333333333333,0|0,3:0|0:0,0:0:0:0:
302,29,170566,6,0,B|322:45|350:45|370:29|370:29|390:45|418:45|438:29,1,146.666666666667,0|0,3:0|0:0,0:0:0:0:
501,91,171066,1,8,0:0:0:0:
437,153,171232,2,0,B|400:153|400:153|375:178,1,73.3333333333333,0|0,1:0|0:0,0:0:0:0:
299,134,171566,6,0,B|275:178|299:222|299:222|272:269,1,146.666666666667,0|0,1:0|0:0,0:0:0:0:
210,331,172066,1,8,0:0:0:0:
148,269,172232,2,0,L|97:320,1,73.3333333333333,0|0,1:0|0:0,0:0:0:0:
44,252,172566,6,0,L|148:148,1,146.666666666667,2|0,0:0|1:0,0:0:0:0:
148,60,173066,2,0,B|188:60|188:60|212:36,1,73.3333333333333,8|0,0:0|1:0,0:0:0:0:
256,112,173399,1,2,0:0:0:0:
301,36,173566,1,4,1:3:0:0:
301,36,174232,6,0,B|324:60|324:60|364:60,1,73.3333333333333,0|0,3:0|0:0,0:0:0:0:
365,148,174566,6,0,B|401:140|401:140|437:148,2,73.3333333333333,0|0|2,1:0|0:0|0:1,0:0:0:0:
365,236,175066,2,0,B|401:244|401:244|437:236,2,73.3333333333333,8|2|0,0:0|0:0|0:0,0:0:0:0:
300,301,175566,2,0,B|308:337|308:337|300:373,2,73.3333333333333,0|0|2,1:0|0:0|0:1,0:0:0:0:
212,373,176066,2,0,B|204:337|204:337|212:301,1,73.3333333333333,8|0,0:0|0:0,0:0:0:0:
212,301,176399,1,0,0:0:0:0:
147,236,176566,6,0,B|111:244|111:244|75:236,2,73.3333333333333,2|0|2,1:2|0:0|0:1,0:0:0:0:
147,148,177066,2,0,B|111:140|111:140|75:148,2,73.3333333333333,8|0|2,0:0|0:0|0:0,0:0:0:0:
212,83,177566,2,0,B|204:47|204:47|212:11,2,73.3333333333333,0|0|2,1:0|0:0|0:1,0:0:0:0:
300,11,178066,2,0,B|308:47|308:47|300:83,1,73.3333333333333,8|0,0:0|0:0,0:0:0:0:
300,83,178399,1,0,3:0:0:0:
365,148,178566,6,0,B|401:140|401:140|437:148,2,73.3333333333333,0|0|2,1:0|0:0|0:1,0:0:0:0:
365,236,179066,2,0,B|401:244|401:244|437:236,2,73.3333333333333,8|0|0,0:0|0:0|0:0,0:0:0:0:
300,301,179566,2,0,B|308:337|308:337|300:373,2,73.3333333333333,0|0|2,1:0|0:0|0:1,0:0:0:0:
212,373,180066,2,0,B|204:337|204:337|212:301,1,73.3333333333333,8|0,0:0|0:0,0:0:0:0:
212,301,180399,1,0,0:0:0:0:
147,236,180566,6,0,B|111:244|111:244|75:236,2,73.3333333333333,2|0|2,1:2|0:0|0:1,0:0:0:0:
147,148,181066,2,0,B|111:140|111:140|75:148,2,73.3333333333333,8|0|2,0:0|1:0|0:0,0:0:0:0:
212,83,181566,5,0,3:0:0:0:
