osu file format v14

[General]
AudioFilename: audio.mp3
AudioLeadIn: 0
PreviewTime: 15560
Countdown: 0
SampleSet: Soft
StackLeniency: 0.5
Mode: 0
LetterboxInBreaks: 0
WidescreenStoryboard: 0

[Editor]
Bookmarks: 22483
DistanceSpacing: 1.8
BeatDivisor: 4
GridSize: 4
TimelineZoom: 1.4

[Metadata]
Title:Sexualna
TitleUnicode:Сексуальна
Artist:Mirami
ArtistUnicode:Mirami
Creator:Namki
Version:Beauty
Source:
Tags:miramimania ukrainian pop edm testo shmiklak marvollo wajinshu m_a_r_v_o_l_l_o
BeatmapID:1621035
BeatmapSetID:686669

[Difficulty]
HPDrainRate:7
CircleSize:4.5
OverallDifficulty:8
ApproachRate:9
SliderMultiplier:1.9
SliderTickRate:1

[Events]
//Background and Video events
0,0,"animepacani.jpg",0,0
//Break Periods
//Storyboard Layer 0 (Background)
//Storyboard Layer 1 (Fail)
//Storyboard Layer 2 (Pass)
//Storyboard Layer 3 (Foreground)
//Storyboard Sound Samples

[TimingPoints]
378,461.538461538462,4,2,1,45,1,0
378,-111.111111111111,4,2,1,45,0,0
14685,-400.111111111111,4,2,1,60,0,0
14801,-400.111111111111,4,2,1,5,0,0
15147,-76.9230769230769,4,2,1,60,0,1
29916,-111.111111111111,4,2,1,60,0,0
43993,-50,4,2,1,60,0,1
44108,-50,4,2,1,60,0,0
44224,-400.111111111111,4,2,1,60,0,1
44339,-400.111111111111,4,2,1,60,0,0
44685,-76.9230769230769,4,2,1,60,0,1
59454,-76.9230769230769,4,2,1,25,0,0
61301,-76.9230769230769,4,2,1,5,0,0

[Colours]
Combo1 : 150,175,243
Combo2 : 236,149,168
Combo3 : 128,196,102

[HitObjects]
151,189,378,6,0,L|267:185,1,85.4999973907472,4|0,0:0|0:0,0:0:0:0:
436,100,839,2,0,L|320:96,1,85.4999973907472,8|0,0:0|0:0,0:0:0:0:
276,74,1185,1,0,0:0:0:0:
240,144,1301,2,0,L|236:196,1,42.7499986953736,0|0,3:0|0:0,0:0:0:0:
124,260,1531,2,0,L|136:209,1,42.7499986953736,0|0,0:0|0:0,0:0:0:0:
281,288,1762,2,0,P|235:296|169:295,1,85.4999973907472,8|0,0:0|0:0,0:0:0:0:
351,237,2224,6,0,P|371:281|363:325,1,85.4999973907472,4|0,0:0|0:0,0:0:0:0:
464,216,2685,2,0,P|460:173|479:136,1,85.4999973907472,8|0,0:0|0:0,0:0:0:0:
506,64,3031,1,0,0:0:0:0:
428,64,3147,2,0,L|380:60,1,42.7499986953736,0|0,3:0|0:0,0:0:0:0:
280,72,3378,1,0,0:0:0:0:
292,100,3493,1,0,0:0:0:0:
304,128,3608,2,0,L|312:240,1,85.4999973907472,8|0,0:0|0:0,0:0:0:0:
128,96,4070,5,4,0:0:0:0:
272,32,4301,1,0,0:0:0:0:
180,236,4531,2,0,L|173:150,1,85.4999973907472,8|0,0:0|0:0,0:0:0:0:
128,96,4878,1,0,0:0:0:0:
52,168,4993,2,0,L|96:164,1,42.7499986953736,0|0,3:0|0:0,0:0:0:0:
180,236,5224,2,0,L|136:232,1,42.7499986953736,0|0,0:0|0:0,0:0:0:0:
192,320,5454,1,8,0:0:0:0:
264,224,5685,1,0,0:0:0:0:
136,380,5916,6,0,P|112:340|116:288,1,85.4999973907472,4|0,0:0|0:0,0:0:0:0:
212,168,6378,2,0,P|236:128|232:76,1,85.4999973907472,8|0,0:0|0:0,0:0:0:0:
161,110,6724,1,0,0:0:0:0:
136,184,6839,2,0,L|152:248,1,42.7499986953736,0|0,3:0|0:0,0:0:0:0:
274,265,7070,2,0,L|258:201,1,42.7499986953736,0|0,0:0|0:0,0:0:0:0:
100,152,7301,2,0,L|124:256,1,85.4999973907472,8|0,0:0|0:0,0:0:0:0:
232,356,7762,6,0,P|288:364|324:352,1,85.4999973907472,4|0,0:0|0:0,0:0:0:0:
432,188,8224,2,0,P|390:179|348:188,1,85.4999973907472,8|0,0:0|0:0,0:0:0:0:
283,229,8570,1,0,0:0:0:0:
232,172,8685,2,0,L|224:116,1,42.7499986953736,0|0,3:0|0:0,0:0:0:0:
148,216,8916,1,0,0:0:0:0:
140,248,9031,1,0,0:0:0:0:
128,280,9147,2,0,L|124:368,1,85.4999973907472,8|0,0:0|0:0,0:0:0:0:
73,189,9608,5,4,0:0:0:0:
169,24,9839,1,0,0:0:0:0:
256,208,10070,1,8,0:0:0:0:
71,103,10301,1,0,0:0:0:0:
59,70,10416,1,0,0:0:0:0:
51,36,10531,2,0,L|111:34,1,42.7499986953736,0|0,3:0|0:0,0:0:0:0:
243,60,10762,2,0,L|303:58,1,42.7499986953736,0|0,0:0|0:0,0:0:0:0:
175,104,10993,2,0,P|159:60|171:20,1,85.4999973907472,8|0,0:0|0:0,0:0:0:0:
276,208,11454,5,4,0:0:0:0:
243,60,11685,1,0,0:0:0:0:
204,216,11916,2,0,L|212:308,1,85.4999973907472,8|0,0:0|0:0,0:0:0:0:
267,355,12262,1,0,0:0:0:0:
332,312,12378,2,0,L|384:304,1,42.7499986953736,0|0,3:0|0:0,0:0:0:0:
246,222,12608,2,0,L|194:214,1,42.7499986953736,0|0,0:0|0:0,0:0:0:0:
328,120,12839,2,0,L|340:224,1,85.4999973907472,8|0,0:0|0:0,0:0:0:0:
224,80,13301,5,4,0:0:0:0:
360,4,13531,1,0,0:0:0:0:
420,152,13762,2,0,P|400:124|392:108,1,42.7499986953736,8|0,0:0|0:0,0:0:0:0:
504,184,13993,1,0,0:0:0:0:
485,212,14108,1,0,0:0:0:0:
461,237,14224,2,0,P|455:289|464:339,1,85.4999973907472,0|0,3:0|0:0,0:0:0:0:
288,360,14685,6,0,P|262:358|244:364,1,35.6151066129167,8|0,0:0|0:0,0:0:0:0:
184,364,15147,6,0,L|200:224,1,123.499994346619,4|0,0:1|0:0,0:0:0:0:
160,48,15608,6,0,P|184:75|200:120,1,61.7499971733095,8|0,0:0|0:0,0:0:0:0:
72,184,15839,2,0,P|108:176|160:184,1,61.7499971733095,2|0,0:0|0:0,0:0:0:0:
68,384,16070,2,0,P|40:340|140:264,1,185.249991519928,0|0,3:0|0:0,0:0:0:0:
175,333,16531,2,0,L|87:325,1,61.7499971733095,8|0,0:0|0:0,0:0:0:0:
301,225,16762,2,0,L|213:233,1,61.7499971733095,2|0,0:0|0:0,0:0:0:0:
378,298,16993,6,0,P|408:227|352:131,1,185.249991519928,4|0,0:0|0:0,0:0:0:0:
224,92,17454,2,0,L|211:23,1,61.7499971733095,8|0,0:0|0:0,0:0:0:0:
301,225,17685,2,0,L|289:285,1,61.7499971733095,0|0,0:0|0:0,0:0:0:0:
361,136,17916,2,0,L|486:133,1,123.499994346619,0|0,3:0|0:0,0:0:0:0:
217,100,18378,2,0,P|233:160|225:224,1,123.499994346619,8|0,0:0|0:0,0:0:0:0:
150,370,18839,6,0,P|134:278|107:190,1,185.249991519928,4|0,0:0|0:0,0:0:0:0:
212,88,19301,2,0,P|256:96|293:95,1,61.7499971733095,8|0,0:0|0:0,0:0:0:0:
379,218,19531,2,0,P|420:200|450:179,1,61.7499971733095,2|0,0:0|0:0,0:0:0:0:
282,171,19762,2,0,P|290:203|294:243,1,61.7499971733095,0|0,3:0|0:0,0:0:0:0:
419,87,19993,2,0,P|426:41|425:11,1,61.7499971733095,0|0,0:0|0:0,0:0:0:0:
504,200,20224,1,8,0:0:0:0:
283,171,20454,2,0,P|276:125|277:95,1,61.7499971733095,0|0,0:0|0:0,0:0:0:0:
200,312,20685,5,4,0:0:0:0:
114,130,20916,2,0,L|207:121,1,61.7499971733095,0|0,0:0|0:0,0:0:0:0:
33,246,21147,2,0,L|126:237,1,61.7499971733095,8|0,0:0|0:0,0:0:0:0:
236,130,21378,2,0,L|143:121,1,61.7499971733095,2|0,0:0|0:0,0:0:0:0:
319,245,21609,2,0,L|226:236,1,61.7499971733095,0|0,3:0|0:0,0:0:0:0:
396,166,21839,2,0,P|418:207|423:249,1,61.7499971733095,2|0,0:0|0:0,0:0:0:0:
365,363,22070,1,8,0:0:0:0:
512,192,22301,1,2,0:0:0:0:
378,58,22531,6,0,P|305:79|297:196,1,185.249991519928,4|0,0:0|0:0,0:0:0:0:
184,17,22993,2,0,P|196:53|201:91,1,61.7499971733095,8|0,0:0|0:0,0:0:0:0:
9,69,23224,2,0,P|14:43|38:9,1,61.7499971733095,2|0,0:0|0:0,0:0:0:0:
108,182,23454,2,0,B|168:170|168:170|216:191|216:191|310:173,1,185.249991519928,0|0,3:0|0:0,0:0:0:0:
9,69,23916,2,0,L|23:196,1,123.499994346619,8|2,0:0|0:0,0:0:0:0:
142,336,24378,6,0,B|201:266|201:266|159:150,1,185.249991519928,4|0,0:0|0:0,0:0:0:0:
255,338,24839,2,0,L|322:343,1,61.7499971733095,8|0,0:0|0:0,0:0:0:0:
107,253,25070,2,0,L|40:258,1,61.7499971733095,0|0,0:0|0:0,0:0:0:0:
287,179,25301,2,0,L|420:174,1,123.499994346619,0|0,3:0|0:0,0:0:0:0:
214,96,25762,2,0,P|174:149|181:207,1,123.499994346619,8|0,0:0|0:0,0:0:0:0:
424,297,26224,6,0,L|406:144,1,123.499994346619,4|0,0:0|0:0,0:0:0:0:
361,80,26570,1,0,0:0:0:0:
287,179,26685,2,0,L|295:253,1,61.7499971733095,8|0,0:0|0:0,0:0:0:0:
145,294,26916,2,0,L|137:368,1,61.7499971733095,0|0,0:0|0:0,0:0:0:0:
211,150,27147,2,0,L|220:235,1,61.7499971733095,0|0,3:0|0:0,0:0:0:0:
46,282,27378,2,0,L|36:367,1,61.7499971733095,2|0,0:0|0:0,0:0:0:0:
108,202,27608,1,8,0:0:0:0:
24,59,27839,2,0,L|19:-8,1,61.7499971733095,0|0,0:0|0:0,0:0:0:0:
1,170,28070,5,4,0:0:0:0:
168,64,28301,2,0,P|217:59|254:62,1,61.7499971733095,0|0,0:0|0:0,0:0:0:0:
373,169,28531,2,0,P|324:164|287:167,1,61.7499971733095,8|0,0:0|0:0,0:0:0:0:
188,280,28762,2,0,P|218:279|249:275,1,61.7499971733095,2|0,0:0|0:0,0:0:0:0:
225,120,28993,2,0,L|229:59,1,61.7499971733095,0|0,0:0|0:0,0:0:0:0:
72,159,29224,2,0,L|77:244,1,61.7499971733095,0|0,0:0|0:0,0:0:0:0:
152,64,29454,1,0,3:0:0:0:
92,329,29685,1,0,0:0:0:0:
92,329,29916,6,0,L|82:151,1,170.999994781494,4|8,0:1|0:0,0:0:0:0:
230,81,30608,1,0,0:0:0:0:
174,153,30839,2,0,P|142:113|189:2,1,170.999994781494,0|8,3:0|0:0,0:0:0:0:
281,172,31531,2,0,P|261:216|226:244,1,85.4999973907472,2|0,0:0|0:0,0:0:0:0:
344,88,31993,2,0,P|388:108|417:136,1,85.4999973907472,2|8,0:0|0:0,0:0:0:0:
236,64,32454,2,0,P|215:37|199:-13,1,85.4999973907472,2|0,0:0|3:0,0:0:0:0:
344,88,32916,1,2,0:0:0:0:
172,144,33147,1,8,0:0:0:0:
303,215,33378,1,2,0:0:0:0:
172,144,33608,6,0,L|-5:133,1,170.999994781494,4|8,0:0|0:0,0:0:0:0:
74,262,34301,1,0,0:0:0:0:
199,312,34531,2,0,L|170:133,1,170.999994781494,0|8,3:0|0:0,0:0:0:0:
281,117,35224,2,0,L|268:212,1,85.4999973907472,2|0,0:0|0:0,0:0:0:0:
364,29,35685,2,0,L|373:117,1,85.4999973907472,2|8,0:0|0:0,0:0:0:0:
162,57,36147,2,0,L|172:145,1,85.4999973907472,2|0,0:0|3:0,0:0:0:0:
107,267,36608,1,2,0:0:0:0:
312,328,36839,1,8,0:0:0:0:
257,178,37070,1,2,0:0:0:0:
312,328,37301,6,0,P|364:288|462:324,1,170.999994781494,4|8,0:0|0:0,0:0:0:0:
272,140,37993,1,0,0:0:0:0:
196,196,38224,2,0,P|248:236|356:205,1,170.999994781494,0|8,3:0|0:0,0:0:0:0:
164,108,38916,2,0,P|144:72|142:24,1,85.4999973907472,2|0,0:0|0:0,0:0:0:0:
383,142,39378,2,0,P|376:174|342:218,1,85.4999973907472,2|8,0:0|0:0,0:0:0:0:
179,290,39839,2,0,P|188:340|206:368,1,85.4999973907472,2|0,0:0|3:0,0:0:0:0:
348,344,40301,1,2,0:0:0:0:
219,215,40531,1,8,0:0:0:0:
215,369,40762,1,2,0:0:0:0:
256,192,40993,12,0,43762,3:0:0:0:
92,156,43993,6,0,P|128:132|192:136,1,95,8|0,0:0|0:0,0:0:0:0:
166,246,44224,6,0,L|156:212,1,35.6151066129167,8|0,0:0|0:0,0:0:0:0:
248,232,44685,6,0,P|240:276|220:368,1,123.499994346619,4|0,0:1|0:0,0:0:0:0:
336,288,45147,2,0,P|380:280|408:280,1,61.7499971733095,8|0,0:0|0:0,0:0:0:0:
308,124,45378,2,0,P|324:176|328:208,1,61.7499971733095,2|0,0:0|0:0,0:0:0:0:
460,24,45608,2,0,B|408:-4|408:-4|268:36,1,185.249991519928,0|0,3:0|0:0,0:0:0:0:
164,84,46070,2,0,P|176:128|176:160,1,61.7499971733095,8|0,0:0|0:0,0:0:0:0:
32,224,46301,2,0,P|35:193|44:164,1,61.7499971733095,0|0,0:0|0:0,0:0:0:0:
260,148,46531,6,0,P|212:220|124:208,1,185.249991519928,4|0,0:0|0:0,0:0:0:0:
256,64,46993,2,0,P|252:33|243:4,1,61.7499971733095,8|0,0:0|0:0,0:0:0:0:
352,160,47224,2,0,P|342:189|339:219,1,61.7499971733095,0|0,0:0|0:0,0:0:0:0:
360,356,47454,2,0,L|228:344,1,123.499994346619,0|0,3:0|0:0,0:0:0:0:
96,180,47916,2,0,L|228:168,1,123.499994346619,8|2,0:0|0:0,0:0:0:0:
44,244,48378,6,0,P|16:160|100:96,1,185.249991519928,4|0,0:0|0:0,0:0:0:0:
296,84,48839,2,0,P|312:128|316:164,1,61.7499971733095,8|0,0:0|0:0,0:0:0:0:
420,180,49070,2,0,P|400:222|378:251,1,61.7499971733095,2|0,0:0|0:0,0:0:0:0:
312,320,49301,2,0,P|269:300|241:277,1,61.7499971733095,0|0,3:0|0:0,0:0:0:0:
156,338,49532,2,0,P|139:294|134:258,1,61.7499971733095,0|0,0:0|0:0,0:0:0:0:
144,164,49763,1,8,0:0:0:0:
296,64,49993,2,0,L|304:148,1,61.7499971733095,0|0,0:0|0:0,0:0:0:0:
388,29,50224,5,4,0:0:0:0:
448,208,50454,2,0,P|432:180|408:152,1,61.7499971733095,0|0,0:0|0:0,0:0:0:0:
320,292,50685,2,0,P|336:264|360:236,1,61.7499971733095,8|0,0:0|0:0,0:0:0:0:
240,136,50916,2,0,P|256:180|260:208,1,61.7499971733095,0|0,0:0|0:0,0:0:0:0:
132,260,51147,2,0,P|148:232|172:204,1,61.7499971733095,0|0,3:0|0:0,0:0:0:0:
52,116,51378,2,0,P|68:160|72:188,1,61.7499971733095,2|0,0:0|0:0,0:0:0:0:
144,32,51609,1,8,0:0:0:0:
292,136,51840,1,2,0:0:0:0:
376,196,52070,6,0,P|396:132|328:40,1,185.249991519928,4|0,0:0|0:0,0:0:0:0:
280,272,52531,2,0,P|332:260|368:260,1,61.7499971733095,8|0,0:0|0:0,0:0:0:0:
292,136,52762,2,0,P|261:132|231:123,1,61.7499971733095,2|0,0:0|0:0,0:0:0:0:
112,96,52993,2,0,B|124:156|124:156|103:204|103:204|121:298,1,185.249991519928,0|0,3:0|0:0,0:0:0:0:
44,140,53454,2,0,P|36:64|68:28,1,123.499994346619,8|2,0:0|0:0,0:0:0:0:
297,103,53916,6,0,L|105:95,1,185.249991519928,4|0,0:0|0:0,0:0:0:0:
20,208,54378,2,0,P|32:248|40:284,1,61.7499971733095,8|0,0:0|0:0,0:0:0:0:
164,360,54608,2,0,P|171:330|180:300,1,61.7499971733095,0|0,0:0|0:0,0:0:0:0:
287,179,54840,2,0,L|420:174,1,123.499994346619,0|0,3:0|0:0,0:0:0:0:
214,96,55301,2,0,P|174:149|181:207,1,123.499994346619,8|0,0:0|0:0,0:0:0:0:
488,208,55762,6,0,P|491:147|453:100,1,123.499994346619,4|0,0:0|0:0,0:0:0:0:
410,174,56109,1,0,0:0:0:0:
328,264,56224,2,0,P|308:240|295:212,1,61.7499971733095,8|0,0:0|0:0,0:0:0:0:
288,80,56454,2,0,L|208:92,1,61.7499971733095,2|0,0:0|0:0,0:0:0:0:
112,184,56685,2,0,L|184:196,1,61.7499971733095,0|0,3:0|0:0,0:0:0:0:
16,72,56916,2,0,L|24:144,1,61.7499971733095,2|0,0:0|0:0,0:0:0:0:
12,252,57147,1,8,0:0:0:0:
144,288,57378,2,0,P|152:336|156:372,1,61.7499971733095,0|0,0:0|0:0,0:0:0:0:
172,194,57609,5,4,0:0:0:0:
328,264,57839,2,0,P|336:312|340:348,1,61.7499971733095,0|0,0:0|0:0,0:0:0:0:
436,200,58070,2,0,P|440:169|445:139,1,61.7499971733095,8|0,0:0|0:0,0:0:0:0:
288,160,58301,2,0,P|332:148|376:148,1,61.7499971733095,2|0,0:0|0:0,0:0:0:0:
188,64,58531,2,0,P|232:76|276:76,1,61.7499971733095
112,140,58762,2,0,L|120:232,1,61.7499971733095,0|0,0:0|0:0,0:0:0:0:
192,324,58993,5,8,0:0:0:0:
344,224,59224,1,0,0:0:0:0:
256,192,59454,12,0,61301,0:0:0:0:
