osu file format v14

[General]
AudioFilename: audio.mp3
AudioLeadIn: 0
PreviewTime: 15560
Countdown: 0
SampleSet: Soft
StackLeniency: 0.5
Mode: 0
LetterboxInBreaks: 0
WidescreenStoryboard: 0

[Editor]
Bookmarks: 9099,44637
DistanceSpacing: 1.2
BeatDivisor: 4
GridSize: 4
TimelineZoom: 1.6

[Metadata]
Title:Sexualna
TitleUnicode:Сексуальна
Artist:Mirami
ArtistUnicode:Mirami
Creator:Namki
Version:Advanced
Source:
Tags:miramimania ukrainian pop edm testo shmiklak marvollo wajinshu m_a_r_v_o_l_l_o
BeatmapID:1629196
BeatmapSetID:686669

[Difficulty]
HPDrainRate:7
CircleSize:4
OverallDifficulty:5.5
ApproachRate:7
SliderMultiplier:1.4
SliderTickRate:1

[Events]
//Background and Video events
0,0,"animepacani.jpg",0,0
//Break Periods
//Storyboard Layer 0 (Background)
//Storyboard Layer 1 (Fail)
//Storyboard Layer 2 (Pass)
//Storyboard Layer 3 (Foreground)
//Storyboard Sound Samples

[TimingPoints]
378,461.538461538462,4,2,1,45,1,0
378,-100,4,2,1,45,0,0
14916,-100,4,2,1,10,0,0
15147,-90.9090909090909,4,2,1,60,0,1
29916,-100,4,2,1,50,0,0
43993,-100,4,2,1,60,0,0
44224,-100,4,2,1,60,0,0
44685,-90.9090909090909,4,2,1,60,0,1
59454,-100,4,2,1,25,0,0
61301,-100,4,2,1,5,0,0

[Colours]
Combo1 : 150,175,243
Combo2 : 236,149,168
Combo3 : 128,196,102

[HitObjects]
164,168,378,5,4,0:0:0:0:
244,148,608,1,0,0:0:0:0:
323,175,839,2,0,L|316:258,1,70,8|0,0:0|0:0,0:0:0:0:
326,255,1185,1,0,0:0:0:0:
336,264,1301,2,0,L|416:258,2,70,0|0|8,3:0|0:0|0:0,0:0:0:0:
281,328,1993,1,0,0:0:0:0:
206,289,2224,6,0,L|215:192,1,70,4|0,0:0|0:0,0:0:0:0:
164,150,2685,2,0,L|260:133,1,70,8|0,0:0|0:0,0:0:0:0:
245,132,3031,1,0,0:0:0:0:
257,126,3147,2,0,P|272:75|278:50,1,70,0|0,3:0|0:0,0:0:0:0:
351,20,3608,1,8,0:0:0:0:
376,100,3839,1,0,0:0:0:0:
419,171,4070,6,0,L|406:272,1,70,4|0,0:0|0:0,0:0:0:0:
459,308,4531,1,8,0:0:0:0:
384,347,4762,1,0,0:0:0:0:
384,347,4878,1,0,0:0:0:0:
384,347,4993,2,0,L|305:338,1,70,0|0,3:0|0:0,0:0:0:0:
235,309,5454,2,0,L|165:316,1,70,8|0,0:0|0:0,0:0:0:0:
86,287,5916,5,4,0:0:0:0:
64,205,6147,1,0,0:0:0:0:
101,129,6378,2,0,P|160:125|191:137,1,70,8|0,0:0|0:0,0:0:0:0:
180,136,6724,1,0,0:0:0:0:
188,146,6839,2,0,L|186:234,2,70,0|0|8,3:0|0:0|0:0,0:0:0:0:
249,88,7531,1,0,0:0:0:0:
321,45,7762,6,0,L|403:52,1,70,4|0,0:0|0:0,0:0:0:0:
473,36,8224,1,8,0:0:0:0:
450,116,8454,1,0,0:0:0:0:
450,116,8570,1,0,0:0:0:0:
450,116,8685,1,0,3:0:0:0:
506,178,8916,1,0,0:0:0:0:
458,247,9147,2,0,L|374:239,1,70,8|0,0:0|0:0,0:0:0:0:
308,268,9608,6,0,P|298:308|297:351,1,70,4|0,0:0|0:0,0:0:0:0:
229,284,10070,2,0,P|226:249|217:215,1,70,8|0,0:0|0:0,0:0:0:0:
203,205,10416,1,0,0:0:0:0:
188,197,10531,2,0,L|110:191,1,70,0|0,3:0|0:0,0:0:0:0:
70,122,10993,1,8,0:0:0:0:
143,80,11224,1,0,0:0:0:0:
221,50,11454,6,0,P|256:51|319:68,1,70,4|0,0:0|0:0,0:0:0:0:
372,40,11916,1,8,0:0:0:0:
422,117,12147,1,0,0:0:0:0:
422,117,12262,1,0,0:0:0:0:
422,117,12378,2,0,L|418:200,1,70,0|0,3:0|0:0,0:0:0:0:
392,266,12839,2,0,L|471:291,1,70,8|0,0:0|0:0,0:0:0:0:
431,367,13301,6,0,L|364:345,1,70,4|0,0:0|0:0,0:0:0:0:
288,309,13762,2,0,P|274:274|276:231,1,70,8|0,0:0|0:0,0:0:0:0:
287,231,14108,1,0,0:0:0:0:
303,222,14224,2,0,L|205:217,1,70,0|0,3:0|0:0,0:0:0:0:
149,215,14685,5,8,0:0:0:0:
149,215,15147,6,0,P|142:175|156:128,1,77.0000023498536,4|0,0:1|0:0,0:0:0:0:
182,53,15608,1,8,0:0:0:0:
243,122,15839,1,2,0:0:0:0:
154,150,16070,2,0,L|66:143,1,77.0000023498536,0|0,3:0|0:0,0:0:0:0:
249,116,16531,2,0,L|325:122,1,77.0000023498536,8|2,0:0|0:0,0:0:0:0:
394,184,16993,2,0,P|421:144|422:107,1,77.0000023498536,4|0,0:0|0:0,0:0:0:0:
308,200,17454,6,0,P|314:237|337:267,1,77.0000023498536,8|0,0:0|0:0,0:0:0:0:
418,312,17916,1,0,3:0:0:0:
418,312,18378,1,8,0:0:0:0:
335,353,18608,1,0,0:0:0:0:
243,342,18839,2,0,L|160:331,1,77.0000023498536,4|0,0:0|0:0,0:0:0:0:
85,286,19301,5,8,0:0:0:0:
126,203,19531,1,2,0:0:0:0:
50,150,19762,1,0,3:0:0:0:
128,212,19993,2,0,L|211:201,1,77.0000023498536,0|8,0:0|0:0,0:0:0:0:
251,122,20454,1,0,0:0:0:0:
320,183,20685,6,0,P|328:233|315:267,1,77.0000023498536,4|0,0:0|0:0,0:0:0:0:
359,341,21147,1,8,0:0:0:0:
413,266,21378,1,2,0:0:0:0:
310,264,21608,2,0,L|220:265,1,77.0000023498536,0|2,3:0|0:0,0:0:0:0:
141,247,22070,2,0,P|120:204|119:159,1,77.0000023498536,8|2,0:0|0:0,0:0:0:0:
157,91,22531,1,4,0:0:0:0:
157,91,22993,5,8,0:0:0:0:
240,131,23224,1,2,0:0:0:0:
331,118,23454,2,0,L|341:29,1,77.0000023498536,0|0,3:0|0:0,0:0:0:0:
232,136,23916,2,0,L|223:212,1,77.0000023498536,8|2,0:0|0:0,0:0:0:0:
287,279,24378,2,0,L|378:273,1,77.0000023498536,4|0,0:0|0:0,0:0:0:0:
449,238,24839,5,8,0:0:0:0:
411,153,25070,1,0,0:0:0:0:
485,97,25301,2,0,L|498:15,1,77.0000023498536,0|0,3:0|0:0,0:0:0:0:
402,159,25762,2,0,L|320:146,1,77.0000023498536,8|0,0:0|0:0,0:0:0:0:
246,98,26224,1,4,0:0:0:0:
246,98,26685,5,8,0:0:0:0:
200,178,26916,1,0,0:0:0:0:
240,261,27147,2,0,P|281:268|321:256,1,77.0000023498536,0|2,3:0|0:0,0:0:0:0:
194,169,27608,2,0,P|156:160|119:167,1,77.0000023498536,8|0,0:0|0:0,0:0:0:0:
42,219,28070,2,0,L|54:313,1,77.0000023498536,4|0,0:0|0:0,0:0:0:0:
131,342,28531,5,8,0:0:0:0:
214,301,28762,1,2,0:0:0:0:
297,261,28993,2,0,L|391:272,1,77.0000023498536,0|0,0:0|0:0,0:0:0:0:
394,179,29454,2,0,L|317:170,1,77.0000023498536,0|0,3:0|0:0,0:0:0:0:
254,113,29916,6,0,P|212:87|115:100,2,140,4|8|0,0:1|0:0|3:0,0:0:0:0:
255,113,31301,1,8,0:0:0:0:
337,96,31531,1,2,0:0:0:0:
337,96,31993,6,0,L|408:107,1,70,2|8,0:0|0:0,0:0:0:0:
393,189,32454,2,0,L|323:178,1,70,2|0,0:0|3:0,0:0:0:0:
268,241,32916,1,2,0:0:0:0:
315,310,33147,2,0,P|353:295|383:264,1,70,8|2,0:0|0:0,0:0:0:0:
268,241,33608,6,0,L|117:255,2,140,4|8|0,0:0|0:0|3:0,0:0:0:0:
268,241,34993,1,8,0:0:0:0:
346,271,35224,1,2,0:0:0:0:
346,271,35685,6,0,L|349:351,1,70,2|8,0:0|0:0,0:0:0:0:
433,338,36147,2,0,L|435:268,1,70,2|0,0:0|3:0,0:0:0:0:
479,196,36608,1,2,0:0:0:0:
415,140,36839,2,0,P|370:134|325:145,1,70,8|2,0:0|0:0,0:0:0:0:
285,197,37301,6,0,L|297:39,2,140,4|8|0,0:0|0:0|3:0,0:0:0:0:
285,197,38685,1,8,0:0:0:0:
201,187,38916,1,2,0:0:0:0:
201,187,39378,6,0,P|172:216|155:267,1,70,2|8,0:0|0:0,0:0:0:0:
231,284,39839,2,0,P|241:323|277:363,1,70,2|0,0:0|3:0,0:0:0:0:
342,350,40301,1,2,0:0:0:0:
378,276,40531,2,0,L|305:272,1,70,8|2,0:0|0:0,0:0:0:0:
431,223,40993,6,0,L|422:362,2,140,4|8|0,0:0|0:0|3:0,0:0:0:0:
431,223,42378,1,8,0:0:0:0:
490,164,42608,1,2,0:0:0:0:
490,164,43070,6,0,P|456:145|411:140,1,70,2|8,0:0|0:0,0:0:0:0:
366,80,43531,2,0,P|332:99|305:136,1,70,2|0,0:0|3:0,0:0:0:0:
233,95,43993,1,8,0:0:0:0:
196,170,44224,1,8,0:0:0:0:
196,170,44685,6,0,L|110:161,1,77.0000023498536,4|0,0:1|0:0,0:0:0:0:
52,226,45147,1,8,0:0:0:0:
122,285,45378,1,2,0:0:0:0:
203,327,45608,2,0,P|248:308|281:306,1,77.0000023498536,0|2,3:0|0:0,0:0:0:0:
328,229,46070,2,0,P|366:258|385:286,1,77.0000023498536,8|0,0:0|0:0,0:0:0:0:
235,222,46531,2,0,L|245:137,1,77.0000023498536,4|0,0:0|0:0,0:0:0:0:
223,54,46993,5,8,0:0:0:0:
153,115,47224,1,0,0:0:0:0:
236,153,47454,2,0,L|320:153,1,77.0000023498536,0|0,3:0|0:0,0:0:0:0:
142,106,47916,2,0,L|58:106,1,77.0000023498536,8|2,0:0|0:0,0:0:0:0:
8,179,48378,1,4,0:0:0:0:
8,179,48839,5,8,0:0:0:0:
78,239,49070,1,2,0:0:0:0:
99,329,49301,1,0,3:0:0:0:
86,229,49531,2,0,L|169:230,1,77.0000023498536,0|8,0:0|0:0,0:0:0:0:
225,160,49993,1,0,0:0:0:0:
285,230,50224,6,0,P|298:266|300:320,1,77.0000023498536,4|0,0:0|0:0,0:0:0:0:
215,156,50685,2,0,P|218:117|231:81,1,77.0000023498536,8|0,0:0|0:0,0:0:0:0:
317,46,51147,1,0,3:0:0:0:
317,46,51608,1,8,0:0:0:0:
408,35,51839,1,2,0:0:0:0:
447,109,52070,2,0,L|539:104,1,77.0000023498536,4|0,0:0|0:0,0:0:0:0:
510,196,52531,5,8,0:0:0:0:
433,247,52762,1,2,0:0:0:0:
350,205,52993,2,0,P|303:190|264:195,1,77.0000023498536,0|0,3:0|0:0,0:0:0:0:
208,129,53454,2,0,P|171:162|156:198,1,77.0000023498536,8|2,0:0|0:0,0:0:0:0:
145,278,53916,1,4,0:0:0:0:
145,278,54378,5,8,0:0:0:0:
85,207,54608,1,0,0:0:0:0:
77,114,54839,2,0,L|-29:106,1,77.0000023498536,0|0,3:0|0:0,0:0:0:0:
165,68,55301,2,0,L|271:60,1,77.0000023498536,8|0,0:0|0:0,0:0:0:0:
325,22,55762,6,0,P|337:66|340:126,1,77.0000023498536,4|0,0:0|0:0,0:0:0:0:
336,202,56224,1,8,0:0:0:0:
258,157,56454,1,2,0:0:0:0:
337,108,56685,2,0,L|427:120,2,77.0000023498536,0|2|8,3:0|0:0|0:0,0:0:0:0:
258,157,57378,1,0,0:0:0:0:
196,225,57608,6,0,P|154:236|104:228,1,77.0000023498536,4|0,0:0|0:0,0:0:0:0:
271,277,58070,2,0,P|313:288|363:280,1,77.0000023498536,8|2,0:0|0:0,0:0:0:0:
428,244,58531,1,2,0:0:0:0:
376,166,58762,1,0,0:0:0:0:
442,247,58993,2,0,L|435:340,1,77.0000023498536,8|0,0:0|0:0,0:0:0:0:
362,365,59454,5,4,0:0:0:0:
256,192,59570,12,0,61301,0:0:0:0:
