osu file format v14

[General]
AudioFilename: audio.mp3
AudioLeadIn: 0
PreviewTime: 52231
Countdown: 0
SampleSet: Soft
StackLeniency: 0.3
Mode: 0
LetterboxInBreaks: 0
WidescreenStoryboard: 0

[Editor]
Bookmarks: 11014
DistanceSpacing: 1
BeatDivisor: 4
GridSize: 8
TimelineZoom: 2.599999

[Metadata]
Title:Gucci Gucci Literature Club's Not Hot (ft. Monika)
TitleUnicode:Gucci Gucci Literature Club's Not Hot (ft. Monika)
Artist:Miraie
ArtistUnicode:Miraie
Creator:stq
Version:Ultimate Cancer
Source:
Tags:Miraie, Gucci gang, just monika, ddlc, doki doki, mans not hot, big shaq, elcheer, Minil
BeatmapID:1527747
BeatmapSetID:723641

[Difficulty]
HPDrainRate:3
CircleSize:4
OverallDifficulty:9.3
ApproachRate:9.8
SliderMultiplier:2.1
SliderTickRate:1

[Events]
//Background and Video events
0,0,"maxresdefault.jpg",0,0
//Break Periods
2,52301,55926
2,85823,89318
//Storyboard Layer 0 (Background)
//Storyboard Layer 1 (Fail)
//Storyboard Layer 2 (Pass)
//Storyboard Layer 3 (Foreground)
//Storyboard Sound Samples

[TimingPoints]
58,260.869565217391,4,2,1,75,1,0
14666,-200,4,2,1,75,0,0
18840,-113.636363636364,4,2,1,75,0,0
27188,-102.040816326531,4,2,1,75,0,0
29014,-113.636363636364,4,2,1,75,0,0
29797,-102.040816326531,4,2,1,75,0,0
31101,-113.636363636364,4,2,1,75,0,0
35731,-113.636363636364,4,2,1,5,0,0
35797,-113.636363636364,4,2,1,75,0,0
35992,-113.636363636364,4,2,1,5,0,0
36057,-113.636363636364,4,2,1,75,0,0
41797,-200,4,2,1,75,0,0
43884,-102.040816326531,4,2,1,75,0,0
56405,-71.4285714285714,4,2,1,75,0,1
60579,-133.333333333333,4,2,1,75,0,1
68927,-86.9565217391304,4,2,1,75,0,1
83536,-200,4,2,1,75,0,1
85623,-200,4,2,1,75,0,0
89797,-80,4,2,1,75,0,0
104405,-200,4,2,1,75,0,0
106492,-86.9565217391304,4,2,1,75,0,0

[Colours]
Combo1 : 36,219,169
Combo2 : 0,0,64
Combo3 : 226,231,41
Combo4 : 255,11,17

[HitObjects]
138,99,11014,5,8,0:0:0:0:
252,262,11144,1,0,0:0:0:0:
63,196,11275,5,0,0:0:0:0:
272,204,11405,1,2,0:0:0:0:
95,319,11536,5,0,0:0:0:0:
205,129,11666,1,0,0:0:0:0:
269,341,11797,5,0,0:0:0:0:
132,156,11927,1,2,0:0:0:0:
346,245,12058,5,8,0:0:0:0:
106,260,12188,1,0,0:0:0:0:
323,133,12318,5,0,0:0:0:0:
158,325,12449,1,0,0:0:0:0:
235,64,12579,5,2,0:0:0:0:
316,326,12710,1,0,0:0:0:0:
135,109,12840,5,0,0:0:0:0:
380,255,12971,1,0,0:0:0:0:
132,213,13101,5,8,0:0:0:0:
367,123,13231,1,0,0:0:0:0:
227,282,13362,5,2,0:0:0:0:
267,66,13492,1,0,0:0:0:0:
343,274,13623,5,0,0:0:0:0:
180,111,13753,1,0,0:0:0:0:
411,186,13884,5,0,0:0:0:0:
172,223,14014,1,2,0:0:0:0:
384,88,14144,5,8,0:0:0:0:
257,307,14275,1,0,0:0:0:0:
253,45,14405,5,0,0:0:0:0:
371,281,14536,1,0,0:0:0:0:
180,111,14666,6,0,L|321:191,1,157.5,6|0,0:0|0:0,0:0:0:0:
399,40,15188,5,8,0:0:0:0:
233,64,15318,1,0,0:0:0:0:
377,153,15449,1,0,0:0:0:0:
277,19,15579,1,2,0:0:0:0:
432,109,15710,5,0,0:0:0:0:
255,133,15840,1,0,0:0:0:0:
399,25,15971,1,0,0:0:0:0:
224,60,16101,1,2,0:0:0:0:
362,188,16231,5,8,0:0:0:0:
277,19,16362,1,0,0:0:0:0:
422,141,16492,1,0,0:0:0:0:
234,113,16623,1,0,0:0:0:0:
274,211,16753,6,0,B|221:221|221:221|129:155,1,157.5,2|0,0:0|0:0,0:0:0:0:
142,47,17275,5,8,0:0:0:0:
286,169,17405,1,0,0:0:0:0:
274,32,17536,1,2,0:0:0:0:
137,162,17666,1,0,0:0:0:0:
172,18,17797,5,0,0:0:0:0:
294,176,17927,1,0,0:0:0:0:
304,28,18058,1,0,0:0:0:0:
150,155,18188,1,2,0:0:0:0:
201,6,18318,5,8,0:0:0:0:
314,185,18449,1,0,0:0:0:0:
340,30,18579,1,0,0:0:0:0:
176,147,18710,1,0,0:0:0:0:
198,293,18840,6,0,B|278:315|278:315|384:305|384:305,1,184.800005639649,6|6,0:0|0:0,0:0:0:0:
455,176,19362,2,0,P|408:209|344:234,1,92.4000028198243,8|0,0:0|0:0,0:0:0:0:
357,57,19623,2,0,P|363:114|353:182,1,92.4000028198243,0|2,0:0|0:0,0:0:0:0:
216,185,19884,2,0,P|213:231|220:276,1,92.4000028198243
253,106,20144,2,0,P|250:59|256:14,1,92.4000028198243,0|2,0:0|0:0,0:0:0:0:
238,180,20405,2,0,P|244:226|258:270,1,92.4000028198243,8|0,0:0|0:0,0:0:0:0:
276,104,20666,2,0,P|270:59|257:15,1,92.4000028198243
360,148,20927,6,0,B|400:190|400:190|442:209,1,92.4000028198243,2|0,0:0|0:0,0:0:0:0:
468,98,21188,2,0,B|428:56|428:56|397:42,1,92.4000028198243
364,219,21449,1,8,0:0:0:0:
388,55,21579,1,0,0:0:0:0:
276,104,21710,2,0,B|234:144|234:144|215:186,1,92.4000028198243,0|2,0:0|0:0,0:0:0:0:
113,304,21971,6,0,B|110:291|116:231|136:174,1,92.4000028198243,0|0,0:0|0:0,0:0:0:0:
233,337,22231,2,0,B|220:341|160:345|101:334,1,92.4000028198243,0|2,0:0|0:0,0:0:0:0:
219,175,22492,1,8,0:0:0:0:
113,304,22623,1,0,0:0:0:0:
260,228,22753,2,0,B|279:233|339:230|351:225,1,92.4000028198243,0|0,0:0|0:0,0:0:0:0:
300,66,23014,6,0,B|299:63|299:63|301:103|299:188,1,92.4000028198243,2|0,0:0|0:0,0:0:0:0:
436,247,23275,2,0,B|435:250|435:250|437:210|435:125,1,92.4000028198243,0|0,0:0|0:0,0:0:0:0:
300,66,23536,5,8,0:0:0:0:
212,228,23666,1,0,0:0:0:0:
143,56,23797,5,0,0:0:0:0:
293,161,23927,1,2,0:0:0:0:
113,201,24057,5,0,0:0:0:0:
244,69,24188,1,0,0:0:0:0:
348,221,24318,5,0,0:0:0:0:
186,129,24449,1,2,0:0:0:0:
362,75,24579,5,8,0:0:0:0:
194,261,24710,1,0,0:0:0:0:
236,44,24840,5,0,0:0:0:0:
280,305,24971,1,0,0:0:0:0:
290,97,25101,5,6,0:0:0:0:
392,316,25231,1,0,0:0:0:0:
457,45,25362,5,0,0:0:0:0:
282,281,25492,1,0,0:0:0:0:
62,27,25623,5,6,0:0:0:0:
156,292,25753,1,0,0:0:0:0:
210,19,25884,5,0,0:0:0:0:
42,316,26014,1,0,0:0:0:0:
236,96,26144,5,6,0:0:0:0:
333,358,26275,1,0,0:0:0:0:
168,101,26405,5,0,0:0:0:0:
97,370,26536,1,0,0:0:0:0:
237,54,26666,5,6,0:0:0:0:
358,384,26797,1,0,0:0:0:0:
173,55,26927,5,0,0:0:0:0:
42,384,27057,1,0,0:0:0:0:
258,159,27188,6,0,P|207:189|125:179,1,102.899999057922,4|0,0:0|0:0,0:0:0:0:
175,40,27449,1,0,0:0:0:0:
333,99,27579,1,0,0:0:0:0:
299,227,27710,2,0,P|263:265|214:292,1,102.899999057922,8|0,0:0|0:0,0:0:0:0:
203,134,27971,2,0,P|239:96|285:71,1,102.899999057922,0|2,0:0|0:0,0:0:0:0:
313,258,28231,2,0,P|277:295|229:324,1,102.899999057922,0|0,0:0|0:0,0:0:0:0:
130,97,28492,5,0,0:0:0:0:
392,263,28623,1,2,0:0:0:0:
384,85,28753,2,0,L|261:69,1,102.899999057922,8|0,0:0|0:0,0:0:0:0:
108,23,29014,5,0,0:0:0:0:
222,143,29144,1,0,0:0:0:0:
42,127,29275,2,0,L|157:87,1,92.4000028198243,2|0,0:0|0:0,0:0:0:0:
74,254,29536,1,0,0:0:0:0:
175,123,29666,1,0,0:0:0:0:
357,216,29797,6,0,P|353:260|269:308,1,102.899999057922,8|0,0:0|0:0,0:0:0:0:
175,123,30057,2,0,P|178:78|262:30,1,102.899999057922,0|2,0:0|0:0,0:0:0:0:
372,118,30318,2,0,P|393:120|482:115,1,102.899999057922,0|0,0:0|0:0,0:0:0:0:
233,207,30579,2,0,L|134:283,1,102.899999057922,0|2,0:0|0:0,0:0:0:0:
145,115,30840,2,0,L|46:191,1,102.899999057922,8|0,0:0|0:0,0:0:0:0:
279,122,31101,6,0,L|378:117,1,92.4000028198243
166,55,31362,2,0,L|50:32,1,92.4000028198243,2|0,0:0|0:0,0:0:0:0:
371,117,31623,2,0,L|466:182,1,92.4000028198243
138,140,31884,5,8,0:0:0:0:
276,262,32014,1,0,0:0:0:0:
219,87,32144,5,0,0:0:0:0:
135,252,32275,1,2,0:0:0:0:
295,161,32405,5,0,0:0:0:0:
140,59,32536,1,0,0:0:0:0:
209,230,32666,5,0,0:0:0:0:
323,84,32797,1,2,0:0:0:0:
150,146,32927,5,8,0:0:0:0:
308,240,33057,1,0,0:0:0:0:
216,79,33188,5,0,0:0:0:0:
90,213,33318,1,0,0:0:0:0:
289,332,33449,5,2,0:0:0:0:
212,115,33579,1,0,0:0:0:0:
74,301,33710,5,0,0:0:0:0:
280,198,33840,1,0,0:0:0:0:
102,49,33971,5,8,0:0:0:0:
185,264,34101,1,0,0:0:0:0:
368,125,34231,5,0,0:0:0:0:
139,87,34362,1,2,0:0:0:0:
286,264,34492,5,0,0:0:0:0:
248,35,34623,1,0,0:0:0:0:
99,211,34753,5,0,0:0:0:0:
330,187,34884,1,2,0:0:0:0:
112,112,35014,5,8,0:0:0:0:
182,331,35144,1,0,0:0:0:0:
281,71,35275,5,0,0:0:0:0:
414,313,35405,1,0,0:0:0:0:
230,171,35536,6,0,L|178:60,1,92.4000028198243,6|0,0:0|0:0,0:0:0:0:
345,151,35797,2,0,L|397:262,1,92.4000028198243,6|0,0:0|0:0,0:0:0:0:
316,348,36057,2,0,L|264:237,1,92.4000028198243,8|0,0:0|0:0,0:0:0:0:
108,203,36318,2,0,L|219:255,1,92.4000028198243,0|2,0:0|0:0,0:0:0:0:
202,100,36579,2,0,L|91:48,1,92.4000028198243,0|0,0:0|0:0,0:0:0:0:
284,79,36840,6,0,P|328:100|394:96,1,92.4000028198243,0|2,0:0|0:0,0:0:0:0:
401,266,37101,2,0,P|405:217|443:162,1,92.4000028198243,8|0,0:0|0:0,0:0:0:0:
277,207,37362,2,0,L|156:256,1,92.4000028198243
54,115,37623,2,0,L|175:164,1,92.4000028198243,2|0,0:0|0:0,0:0:0:0:
226,48,37884,1,0,0:0:0:0:
296,161,38014,1,0,0:0:0:0:
156,250,38144,6,0,L|38:194,1,92.4000028198243,8|0,0:0|0:0,0:0:0:0:
226,48,38405,2,0,L|344:104,1,92.4000028198243,0|0,0:0|0:0,0:0:0:0:
300,254,38666,2,0,L|182:198,1,92.4000028198243,0|0,0:0|0:0,0:0:0:0:
103,91,38927,5,0,0:0:0:0:
171,29,39057,1,2,0:0:0:0:
210,113,39188,1,8,0:0:0:0:
264,38,39318,1,0,0:0:0:0:
304,122,39449,1,0,0:0:0:0:
355,45,39579,1,0,0:0:0:0:
446,184,39710,6,0,B|448:184|448:184|351:276,1,92.4000028198243,2|0,0:0|0:0,0:0:0:0:
235,167,39971,1,0,0:0:0:0:
355,45,40101,1,0,0:0:0:0:
311,205,40231,2,0,P|228:281|211:282,1,92.4000028198243,8|0,0:0|0:0,0:0:0:0:
152,141,40492,1,0,0:0:0:0:
281,35,40623,2,0,L|304:139,1,92.4000028198243,2|0,0:0|0:0,0:0:0:0:
435,223,40884,2,0,L|373:136,1,92.4000028198243,0|0,0:0|0:0,0:0:0:0:
223,36,41144,1,2,0:0:0:0:
70,155,41275,6,0,B|89:198|89:198|143:251,1,92.4000028198243,8|0,0:0|0:0,0:0:0:0:
118,63,41536,1,0,0:0:0:0:
7,9,41666,1,0,0:0:0:0:
121,229,41797,6,0,P|149:272|189:306,1,105,6|0,0:0|0:0,0:0:0:0:
368,153,42318,2,0,P|339:109|300:76,1,105,6|0,0:0|0:0,0:0:0:0:
135,282,42840,2,0,P|164:326|204:360,1,105,6|0,0:0|0:0,0:0:0:0:
330,190,43362,2,0,P|301:146|262:113,1,105,6|0,0:0|0:0,0:0:0:0:
135,282,43884,6,0,L|43:359,1,102.899999057922,6|0,0:0|0:0,0:0:0:0:
378,94,44144,2,0,L|470:17,1,102.899999057922,0|0,0:0|0:0,0:0:0:0:
106,209,44405,2,0,L|-11:230,1,102.899999057922,8|0,0:0|0:0,0:0:0:0:
410,168,44666,1,0,0:0:0:0:
487,99,44797,1,2,0:0:0:0:
495,201,44927,2,0,L|369:261,1,102.899999057922,0|0,0:0|0:0,0:0:0:0:
237,121,45188,6,0,P|178:79|106:87,1,102.899999057922,0|2,0:0|0:0,0:0:0:0:
143,282,45449,2,0,P|202:324|274:316,1,102.899999057922,8|0,0:0|0:0,0:0:0:0:
402,245,45710,2,0,L|271:204,1,102.899999057922,0|0,0:0|0:0,0:0:0:0:
149,75,45971,2,0,L|280:116,1,102.899999057922,2|0,0:0|0:0,0:0:0:0:
432,16,46231,1,0,0:0:0:0:
329,286,46362,1,0,0:0:0:0:
139,208,46492,2,0,L|53:127,1,102.899999057922,8|0,0:0|0:0,0:0:0:0:
149,75,46753,2,0,L|258:53,1,102.899999057922,0|2,0:0|0:0,0:0:0:0:
419,174,47014,5,0,0:0:0:0:
250,307,47144,1,0,0:0:0:0:
320,102,47275,5,0,0:0:0:0:
389,306,47405,1,2,0:0:0:0:
256,135,47536,5,8,0:0:0:0:
437,251,47666,1,0,0:0:0:0:
221,235,47797,5,0,0:0:0:0:
419,174,47927,1,0,0:0:0:0:
256,135,48057,6,0,L|148:62,1,102.899999057922,2|0,0:0|0:0,0:0:0:0:
221,235,48318,2,0,L|329:308,1,102.899999057922,0|0,0:0|0:0,0:0:0:0:
391,98,48579,6,0,L|474:36,1,102.899999057922,8|0,0:0|0:0,0:0:0:0:
113,296,48840,6,0,L|30:358,1,102.899999057922,0|2,0:0|0:0,0:0:0:0:
113,88,49101,6,0,L|30:26,1,102.899999057922,0|0,0:0|0:0,0:0:0:0:
277,214,49623,6,0,L|379:179,1,102.899999057922,8|0,0:0|0:0,0:0:0:0:
158,62,50144,6,0,L|54:105,1,102.899999057922,2|0,0:0|0:0,0:0:0:0:
354,62,50405,2,0,L|458:105,1,102.899999057922,0|0,0:0|0:0,0:0:0:0:
208,36,50666,2,0,L|95:41,1,102.899999057922,8|0,0:0|0:0,0:0:0:0:
392,103,50927,2,0,L|475:179,1,102.899999057922,0|2,0:0|0:0,0:0:0:0:
213,136,51188,5,0,0:0:0:0:
286,339,51318,1,0,0:0:0:0:
122,197,51449,5,0,0:0:0:0:
324,272,51579,1,2,0:0:0:0:
115,331,51710,5,8,0:0:0:0:
277,189,51840,1,0,0:0:0:0:
200,381,51971,5,0,0:0:0:0:
194,166,52101,1,0,0:0:0:0:
345,60,56405,6,0,P|231:-29|297:151,1,440.999986541749,6|0,0:0|0:0,0:0:0:0:
448,108,56927,5,8,0:0:0:0:
300,307,57057,1,0,0:0:0:0:
345,60,57188,5,0,0:0:0:0:
438,305,57318,1,2,0:0:0:0:
240,131,57449,5,0,0:0:0:0:
495,233,57579,1,0,0:0:0:0:
219,243,57710,5,0,0:0:0:0:
467,97,57840,1,2,0:0:0:0:
304,337,57971,5,8,0:0:0:0:
364,42,58101,1,0,0:0:0:0:
448,331,58231,5,0,0:0:0:0:
242,91,58362,1,0,0:0:0:0:
484,270,58492,5,2,0:0:0:0:
133,156,58623,1,0,0:0:0:0:
486,163,58753,5,0,0:0:0:0:
101,298,58884,1,0,0:0:0:0:
400,134,59014,5,8,0:0:0:0:
189,367,59144,1,0,0:0:0:0:
278,50,59275,5,0,0:0:0:0:
393,356,59405,1,2,0:0:0:0:
156,108,59536,5,0,0:0:0:0:
458,264,59666,1,0,0:0:0:0:
102,279,59797,5,0,0:0:0:0:
419,123,59927,1,2,0:0:0:0:
141,362,60057,5,8,0:0:0:0:
325,42,60188,1,0,0:0:0:0:
469,365,60318,5,0,0:0:0:0:
181,75,60449,1,0,0:0:0:0:
323,232,60579,6,0,L|85:261,1,236.250009012223,2|0,0:0|0:0,0:0:0:0:
292,78,61101,5,8,0:0:0:0:
118,183,61231,1,0,0:0:0:0:
346,29,61361,5,0,0:0:0:0:
188,145,61492,1,2,0:0:0:0:
405,82,61622,5,0,0:0:0:0:
202,67,61753,1,0,0:0:0:0:
407,182,61883,5,0,0:0:0:0:
268,20,62014,1,2,0:0:0:0:
346,234,62144,5,8,0:0:0:0:
465,31,62274,1,0,0:0:0:0:
251,136,62405,5,0,0:0:0:0:
470,112,62535,1,0,0:0:0:0:
117,299,62666,6,0,L|75:48,1,236.250009012223,2|0,0:0|0:0,0:0:0:0:
353,40,63188,5,8,0:0:0:0:
268,258,63319,1,0,0:0:0:0:
326,42,63449,5,0,0:0:0:0:
385,296,63580,1,2,0:0:0:0:
376,29,63710,5,0,0:0:0:0:
166,221,63841,1,0,0:0:0:0:
315,18,63971,5,0,0:0:0:0:
463,261,64102,1,0,0:0:0:0:
411,30,64232,5,8,0:0:0:0:
233,276,64362,1,0,0:0:0:0:
258,23,64493,5,0,0:0:0:0:
420,331,64623,1,0,0:0:0:0:
346,166,64753,6,0,L|102:146,1,236.250009012223,6|0,0:0|0:0,0:0:0:0:
109,27,65275,5,8,0:0:0:0:
328,95,65406,1,0,0:0:0:0:
100,96,65536,1,0,0:0:0:0:
317,22,65667,1,2,0:0:0:0:
166,89,65797,1,0,0:0:0:0:
399,45,65928,1,0,0:0:0:0:
195,216,66058,1,0,0:0:0:0:
241,25,66188,5,2,0:0:0:0:
421,186,66319,1,8,0:0:0:0:
169,149,66449,1,0,0:0:0:0:
399,45,66580,1,0,0:0:0:0:
288,235,66710,1,0,0:0:0:0:
169,306,66840,6,0,L|172:62,1,236.250009012223,2|0,0:0|0:0,0:0:0:0:
432,113,67362,5,8,0:0:0:0:
288,235,67492,1,0,0:0:0:0:
300,98,67623,1,0,0:0:0:0:
437,228,67753,1,2,0:0:0:0:
402,84,67884,5,0,0:0:0:0:
280,242,68014,1,0,0:0:0:0:
270,94,68145,1,0,0:0:0:0:
424,221,68275,1,2,0:0:0:0:
373,72,68405,5,8,0:0:0:0:
260,251,68536,1,0,0:0:0:0:
234,96,68666,1,0,0:0:0:0:
398,213,68797,1,0,0:0:0:0:
139,277,68927,6,0,B|111:221|89:182|99:98|127:44,1,241.500004606247
234,96,69449,2,0,P|271:76|360:91,1,120.750002303124,8|0,0:0|0:0,0:0:0:0:
472,271,69710,2,0,P|438:283|351:271,1,120.750002303124,0|2,0:0|0:0,0:0:0:0:
249,124,69971,2,0,B|295:108|295:108|369:124,1,120.750002303124
337,340,70231,1,0,0:0:0:0:
415,204,70362,1,2,0:0:0:0:
180,325,70492,1,8,0:0:0:0:
117,181,70623,1,0,0:0:0:0:
259,47,70753,6,0,B|264:47|323:82|278:164,1,120.750002303124,0|0,0:0|0:0,0:0:0:0:
308,257,71014,2,0,B|303:257|244:222|289:140,1,120.750002303124,2|0,0:0|0:0,0:0:0:0:
365,94,71275,2,0,L|520:96,1,120.750002303124,8|0,0:0|0:0,0:0:0:0:
361,327,71536,2,0,L|516:325,1,120.750002303124
187,258,71797,2,0,L|342:256,1,120.750002303124,2|0,0:0|0:0,0:0:0:0:
206,129,72057,6,0,P|135:164|70:156,1,120.750002303124,0|0,0:0|0:0,0:0:0:0:
161,65,72318,2,0,P|232:30|297:38,1,120.750002303124,0|2,0:0|0:0,0:0:0:0:
414,207,72579,2,0,P|365:242|307:255,1,120.750002303124,8|0,0:0|0:0,0:0:0:0:
90,189,72840,2,0,P|138:153|196:140,1,120.750002303124
184,289,73101,2,0,L|78:347,1,120.750002303124,6|0,0:0|0:0,0:0:0:0:
307,255,73362,2,0,L|412:313,1,120.750002303124
167,191,73623,5,8,0:0:0:0:
348,227,73753,1,0,0:0:0:0:
211,104,73883,5,0,0:0:0:0:
221,289,74014,1,2,0:0:0:0:
314,130,74144,5,0,0:0:0:0:
128,119,74275,1,0,0:0:0:0:
274,233,74405,5,0,0:0:0:0:
299,50,74536,1,2,0:0:0:0:
181,190,74666,5,8,0:0:0:0:
364,192,74796,1,0,0:0:0:0:
204,99,74927,5,0,0:0:0:0:
162,278,75057,1,0,0:0:0:0:
394,281,75188,5,2,0:0:0:0:
219,132,75318,1,0,0:0:0:0:
192,362,75449,5,0,0:0:0:0:
319,170,75579,1,0,0:0:0:0:
91,130,75710,5,8,0:0:0:0:
270,274,75840,1,0,0:0:0:0:
359,63,75970,5,2,0:0:0:0:
142,144,76101,1,0,0:0:0:0:
357,224,76231,5,0,0:0:0:0:
210,45,76362,1,0,0:0:0:0:
169,272,76492,5,0,0:0:0:0:
357,135,76623,1,2,0:0:0:0:
131,179,76753,5,8,0:0:0:0:
301,334,76883,1,0,0:0:0:0:
257,59,77014,5,0,0:0:0:0:
493,202,77144,1,0,0:0:0:0:
273,211,77275,6,0,L|143:286,1,120.750002303124,6|0,0:0|0:0,0:0:0:0:
125,57,77536,1,6,0:0:0:0:
262,133,77666,1,0,0:0:0:0:
421,246,77797,2,0,P|462:306|464:361,1,120.750002303124,8|0,0:0|0:0,0:0:0:0:
317,317,78058,2,0,P|276:257|274:202,1,120.750002303124,0|2,0:0|0:0,0:0:0:0:
335,91,78319,2,0,L|454:72,1,120.750002303124
230,150,78579,6,0,L|348:84,1,120.750002303124,0|2,0:0|0:0,0:0:0:0:
282,234,78840,2,0,L|164:300,1,120.750002303124,8|0,0:0|0:0,0:0:0:0:
317,317,79101,2,0,L|423:260,1,120.750002303124
230,150,79362,6,0,L|196:34,1,120.750002303124,2|0,0:0|0:0,0:0:0:0:
109,331,79623,1,0,0:0:0:0:
282,234,79753,1,0,0:0:0:0:
82,141,79884,1,8,0:0:0:0:
317,317,80014,1,0,0:0:0:0:
230,150,80144,6,0,L|157:23,1,120.750002303124,0|2,0:0|0:0,0:0:0:0:
223,260,80405,2,0,L|296:387,1,120.750002303124,0|0,0:0|0:0,0:0:0:0:
386,269,80666,2,0,L|459:396,1,120.750002303124,0|2,0:0|0:0,0:0:0:0:
430,115,80927,6,0,P|369:82|299:115,1,120.750002303124,8|0,0:0|0:0,0:0:0:0:
119,176,81188,2,0,P|180:209|250:176,1,120.750002303124,0|0,0:0|0:0,0:0:0:0:
444,175,81449,2,0,P|475:113|441:44,1,120.750002303124,2|0,0:0|0:0,0:0:0:0:
246,88,81710,2,0,P|214:149|248:218,1,120.750002303124,0|0,0:0|0:0,0:0:0:0:
27,106,81971,2,0,P|56:56|44:-1,1,120.750002303124,8|0,0:0|0:0,0:0:0:0:
140,195,82231,5,0,0:0:0:0:
245,30,82362,1,2,0:0:0:0:
342,198,82492,1,0,0:0:0:0:
342,192,82753,5,0,0:0:0:0:
237,27,82884,1,2,0:0:0:0:
140,195,83014,1,8,0:0:0:0:
239,124,83275,5,0,0:0:0:0:
422,112,83536,6,0,P|415:180|381:227,1,105,6|0,0:0|0:0,0:0:0:0:
88,275,84057,6,0,P|95:207|129:160,1,105,6|0,0:0|0:0,0:0:0:0:
374,140,84579,6,0,P|367:208|333:255,1,105,6|0,0:0|0:0,0:0:0:0:
138,244,85101,6,0,P|145:176|179:129,1,105,6|0,0:0|0:0,0:0:0:0:
300,67,85623,5,0,0:0:0:0:
246,217,89797,6,0,L|328:91,1,131.25,6|0,0:0|0:0,0:0:0:0:
202,130,90057,2,0,L|120:256,1,131.25,0|0,0:0|0:0,0:0:0:0:
206,311,90318,5,8,0:0:0:0:
262,345,90384,1,0,0:0:0:0:
323,323,90449,1,0,0:0:0:0:
369,277,90514,1,0,0:0:0:0:
385,213,90579,5,0,0:0:0:0:
356,154,90644,1,0,0:0:0:0:
290,165,90710,1,2,0:0:0:0:
246,217,90775,1,0,0:0:0:0:
276,279,90840,2,0,P|317:329|372:365,1,131.25
385,213,91101,6,0,L|257:180,1,131.25,0|2,0:0|0:0,0:0:0:0:
158,161,91362,2,0,L|17:212,1,131.25,8|0,0:0|0:0,0:0:0:0:
152,323,91623,2,0,L|293:272,1,131.25
141,95,91884,6,0,L|32:20,1,131.25,2|0,0:0|0:0,0:0:0:0:
371,289,92144,2,0,L|479:363,1,131.25,0|0,0:0|0:0,0:0:0:0:
141,289,92405,2,0,L|32:363,1,131.25,8|0,0:0|0:0,0:0:0:0:
371,95,92666,2,0,L|479:20,1,131.25,0|2,0:0|0:0,0:0:0:0:
141,95,92927,2,0,L|32:20,1,131.25,0|0,0:0|0:0,0:0:0:0:
258,129,93188,5,0,0:0:0:0:
213,293,93318,1,2,0:0:0:0:
317,182,93449,1,8,0:0:0:0:
300,321,93579,1,0,0:0:0:0:
370,251,93710,1,0,0:0:0:0:
412,340,93840,1,0,0:0:0:0:
261,224,93971,6,0,L|136:99,1,131.25,2|0,0:0|0:0,0:0:0:0:
280,64,94231,1,0,0:0:0:0:
391,135,94362,1,0,0:0:0:0:
332,251,94492,1,8,0:0:0:0:
211,197,94623,1,0,0:0:0:0:
352,81,94753,6,0,L|487:21,1,131.25,0|2,0:0|0:0,0:0:0:0:
160,303,95014,6,0,L|25:363,1,131.25,0|0,0:0|0:0,0:0:0:0:
70,228,95275,5,0,0:0:0:0:
172,146,95405,1,2,0:0:0:0:
229,264,95536,1,8,0:0:0:0:
298,153,95666,1,0,0:0:0:0:
470,353,95797,5,0,0:0:0:0:
316,64,95927,1,0,0:0:0:0:
129,247,96057,6,0,L|22:351,1,131.25,2|0,0:0|0:0,0:0:0:0:
383,137,96318,6,0,L|490:33,1,131.25,0|0,0:0|0:0,0:0:0:0:
316,64,96579,1,8,0:0:0:0:
250,56,96644,1,0,0:0:0:0:
185,48,96709,1,0,0:0:0:0:
120,40,96774,1,0,0:0:0:0:
55,32,96839,1,0,0:0:0:0:
160,149,96971,5,2,0:0:0:0:
300,220,97101,6,0,L|119:272,1,131.25,0|0,0:0|0:0,0:0:0:0:
235,139,97362,5,0,0:0:0:0:
345,68,97492,1,2,0:0:0:0:
410,182,97623,1,8,0:0:0:0:
336,290,97753,1,0,0:0:0:0:
210,331,97884,1,0,0:0:0:0:
106,251,98014,1,0,0:0:0:0:
111,95,98144,6,0,L|273:152,1,131.25,6|0,0:0|0:0,0:0:0:0:
319,37,98405,2,0,L|275:160,1,131.25,6|0,0:0|0:0,0:0:0:0:
203,50,98666,1,8,0:0:0:0:
147,169,98797,1,0,0:0:0:0:
346,339,98927,6,0,P|359:257|310:182,1,131.25,0|0,0:0|0:0,0:0:0:0:
209,218,99188,1,0,0:0:0:0:
317,144,99318,1,0,0:0:0:0:
147,169,99449,1,0,0:0:0:0:
247,85,99579,1,2,0:0:0:0:
76,74,99710,1,8,0:0:0:0:
198,28,99840,1,0,0:0:0:0:
61,224,99971,6,0,P|74:306|25:381,1,131.25,0|0,0:0|0:0,0:0:0:0:
451,160,100231,2,0,P|438:78|487:3,1,131.25,2|0,0:0|0:0,0:0:0:0:
61,155,100492,2,0,P|45:236|-25:290,1,131.25,0|0,0:0|0:0,0:0:0:0:
450,228,100753,2,0,P|466:147|537:93,1,131.25,8|0,0:0|0:0,0:0:0:0:
86,91,101014,2,0,P|43:162|-42:188,1,131.25,0|2,0:0|0:0,0:0:0:0:
425,292,101274,2,0,P|468:221|554:195,1,131.25,0|0,0:0|0:0,0:0:0:0:
269,87,101536,5,0,0:0:0:0:
186,188,101666,1,2,0:0:0:0:
236,309,101797,1,8,0:0:0:0:
260,180,101927,1,0,0:0:0:0:
180,75,102057,1,0,0:0:0:0:
112,188,102188,1,0,0:0:0:0:
289,253,102318,6,0,P|368:273|443:246,1,131.25,2|0,0:0|0:0,0:0:0:0:
180,75,102579,6,0,P|101:55|26:82,1,131.25,0|0,0:0|0:0,0:0:0:0:
332,309,102840,2,0,P|411:329|486:302,1,131.25,8|0,0:0|0:0,0:0:0:0:
378,212,103101,5,0,0:0:0:0:
248,228,103231,1,2,0:0:0:0:
124,273,103362,1,0,0:0:0:0:
57,160,103492,1,0,0:0:0:0:
154,71,103623,1,0,0:0:0:0:
283,91,103753,1,2,0:0:0:0:
176,167,103884,6,0,P|100:112|52:39,1,131.25,8|0,0:0|0:0,0:0:0:0:
336,217,104144,2,0,P|412:272|460:345,1,131.25,0|0,0:0|0:0,0:0:0:0:
77,183,104405,6,0,P|84:251|117:296,1,105,6|0,0:0|0:0,0:0:0:0:
411,346,104927,6,0,P|404:278|370:231,1,105,6|0,0:0|0:0,0:0:0:0:
125,211,105449,6,0,P|132:279|166:326,1,105,6|0,0:0|0:0,0:0:0:0:
361,315,105970,6,0,P|354:247|320:200,1,105,6|0,0:0|0:0,0:0:0:0:
155,95,106492,6,0,L|321:76,1,120.750002303124,6|0,0:0|0:0,0:0:0:0:
455,230,106753,2,0,L|289:211,1,120.750002303124,6|0,0:0|0:0,0:0:0:0:
164,180,107014,1,8,0:0:0:0:
324,115,107144,1,0,0:0:0:0:
346,288,107275,1,0,0:0:0:0:
249,145,107405,1,0,0:0:0:0:
214,317,107536,6,0,P|140:315|83:275,1,120.750002303124,0|0,0:0|0:0,0:0:0:0:
164,180,107797,2,0,L|183:14,1,120.750002303124,0|2,0:0|0:0,0:0:0:0:
249,145,108057,2,0,L|262:264,1,120.750002303124,8|0,0:0|0:0,0:0:0:0:
367,325,108318,2,0,P|400:252|407:155,1,120.750002303124,0|0,0:0|0:0,0:0:0:0:
358,101,108579,6,0,P|298:65|219:63,1,120.750002303124,2|0,0:0|0:0,0:0:0:0:
141,163,108840,1,0,0:0:0:0:
243,320,108971,1,0,0:0:0:0:
349,170,109101,1,8,0:0:0:0:
248,58,109231,1,0,0:0:0:0:
233,232,109362,6,0,B|318:264|365:260|420:244|481:216,1,241.500004606247,0|0,0:0|0:0,0:0:0:0:
349,170,109753,1,0,0:0:0:0:
462,110,109884,6,0,B|377:78|330:82|275:98|214:126,1,241.500004606247,0|8,0:0|0:0,0:0:0:0:
152,362,110275,5,0,0:0:0:0:
349,170,110405,1,0,0:0:0:0:
95,57,110536,1,0,0:0:0:0:
277,147,110666,5,2,0:0:0:0:
426,39,110927,1,0,0:0:0:0:
274,222,111188,1,0,0:0:0:0:
359,57,111449,1,0,0:0:0:0:
358,283,111971,1,0,0:0:0:0:
303,10,112492,1,0,0:0:0:0:
243,120,114057,5,0,0:0:0:0:
148,195,114318,1,0,0:0:0:0:
290,82,114579,1,0,0:0:0:0:
97,229,114710,1,0,0:0:0:0:
