osu file format v14

[General]
AudioFilename: audio.mp3
AudioLeadIn: 0
PreviewTime: 52231
Countdown: 0
SampleSet: Soft
StackLeniency: 0.3
Mode: 0
LetterboxInBreaks: 0
WidescreenStoryboard: 1

[Editor]
Bookmarks: 11014,114840
DistanceSpacing: 1.4
BeatDivisor: 4
GridSize: 16
TimelineZoom: 2.599999

[Metadata]
Title:Gucci Gucci Literature Club's Not Hot (ft. Monika)
TitleUnicode:Gucci Gucci Literature Club's Not Hot (ft. Monika)
Artist:Miraie
ArtistUnicode:Miraie
Creator:stq
Version:Elcheer's Extreme Cancer
Source:
Tags:Miraie, Gucci gang, just monika, ddlc, doki doki, mans not hot, big shaq, elcheer, Minil
BeatmapID:1530057
BeatmapSetID:723641

[Difficulty]
HPDrainRate:4
CircleSize:4
OverallDifficulty:9
ApproachRate:9.4
SliderMultiplier:1.9
SliderTickRate:1

[Events]
//Background and Video events
0,0,"maxresdefault.jpg",0,0
//Break Periods
2,52431,55865
2,85822,89257
//Storyboard Layer 0 (Background)
//Storyboard Layer 1 (Fail)
//Storyboard Layer 2 (Pass)
//Storyboard Layer 3 (Foreground)
//Storyboard Sound Samples

[TimingPoints]
58,260.869565217391,4,2,1,75,1,0
14666,-100,4,2,1,75,0,0
18840,-100,4,2,1,75,0,0
27188,-100,4,2,1,75,0,0
35731,-100,4,2,1,5,0,0
35797,-100,4,2,1,75,0,0
35992,-100,4,2,1,5,0,0
36057,-100,4,2,1,75,0,0
43884,-100,4,2,1,75,0,0
56405,-90.9090909090909,4,2,1,75,0,1
60579,-90.9090909090909,4,2,1,75,0,1
68927,-90.9090909090909,4,2,1,75,0,1
83536,-133.333333333333,4,2,1,75,0,1
85623,-100,4,2,1,75,0,0
89797,-100,4,2,1,75,0,0
104405,-100,4,2,1,75,0,0
106492,-100,4,2,1,75,0,0

[Colours]
Combo1 : 36,219,169
Combo2 : 0,0,64
Combo3 : 226,231,41
Combo4 : 255,11,17

[HitObjects]
256,192,8405,12,0,9971,0:0:0:0:
266,215,10492,6,0,P|302:169|199:202,1,285,6|0,0:0|0:0,0:0:0:0:
226,293,11014,5,8,0:0:0:0:
103,210,11144,1,0,0:0:0:0:
242,160,11275,2,0,L|350:164,1,95,0|2,0:0|0:0,0:0:0:0:
226,293,11536,5,0,0:0:0:0:
165,117,11666,1,0,0:0:0:0:
336,163,11797,2,0,L|325:274,1,95,0|2,0:0|0:0,0:0:0:0:
258,115,12057,5,8,0:0:0:0:
412,219,12187,1,0,0:0:0:0:
226,293,12318,2,0,L|240:182,1,95
299,346,12579,5,2,0:0:0:0:
143,210,12710,1,0,0:0:0:0:
336,163,12840,2,0,L|325:274,1,95
258,115,13101,5,8,0:0:0:0:
412,314,13231,1,0,0:0:0:0:
226,293,13362,2,0,L|252:184,1,95,2|0,0:0|0:0,0:0:0:0:
299,346,13623,5,0,0:0:0:0:
143,210,13753,1,0,0:0:0:0:
107,384,13884,1,0,0:0:0:0:
226,293,14014,1,2,0:0:0:0:
75,165,14144,5,8,0:0:0:0:
55,313,14275,1,0,0:0:0:0:
191,174,14405,1,0,0:0:0:0:
228,325,14536,1,0,0:0:0:0:
23,231,14666,6,0,P|-1:152|79:186,1,190,6|0,0:0|0:0,0:0:0:0:
101,265,15057,1,0,0:0:0:0:
171,174,15188,6,0,P|159:114|167:60,1,95,8|0,0:0|0:0,0:0:0:0:
271,24,15449,2,0,P|268:71|280:117,1,95,0|2,0:0|0:0,0:0:0:0:
265,300,15710,2,0,P|267:252|255:206,1,95
192,343,15971,1,0,0:0:0:0:
156,149,16101,1,2,0:0:0:0:
327,193,16231,2,0,P|338:238|342:288,1,95,8|0,0:0|0:0,0:0:0:0:
140,242,16492,2,0,P|143:194|155:148,1,95
375,133,16753,6,0,P|406:227|407:323,1,190,2|0,0:0|0:0,0:0:0:0:
407,317,17275,6,0,P|355:283|314:276,1,95,8|0,0:0|0:0,0:0:0:0:
216,302,17536,2,0,P|170:289|132:261,1,95,2|0,0:0|0:0,0:0:0:0:
282,234,17797,5,0,0:0:0:0:
234,384,17927,1,0,0:0:0:0:
114,234,18057,1,0,0:0:0:0:
64,365,18188,1,2,0:0:0:0:
192,216,18318,6,0,P|151:164|101:155,1,95,8|0,0:0|0:0,0:0:0:0:
169,294,18579,2,0,P|234:284|267:245,1,95
333,162,18840,6,0,P|406:169|453:290,1,190,6|6,0:0|0:0,0:0:0:0:
333,162,19362,6,0,P|329:109|339:58,1,95,8|0,0:0|0:0,0:0:0:0:
492,24,19623,2,0,P|499:70|494:118,1,95,0|2,0:0|0:0,0:0:0:0:
338,39,19884,2,0,P|281:23|136:47,1,190
94,176,20275,1,2,0:0:0:0:
257,208,20405,2,0,L|251:98,1,95,8|0,0:0|0:0,0:0:0:0:
88,270,20666,2,0,L|94:176,1,95
230,284,20927,6,0,P|293:279|324:163,1,190,2|0,0:0|0:0,0:0:0:0:
170,230,21318,1,0,0:0:0:0:
323,344,21449,2,0,P|362:318|395:268,1,95,8|0,0:0|0:0,0:0:0:0:
415,172,21710,2,0,P|442:133|482:107,1,95,0|2,0:0|0:0,0:0:0:0:
457,247,21971,5,0,0:0:0:0:
370,71,22101,1,0,0:0:0:0:
343,248,22231,1,0,0:0:0:0:
459,118,22362,1,2,0:0:0:0:
272,189,22492,2,0,L|168:182,1,95,8|0,0:0|0:0,0:0:0:0:
94,110,22753,2,0,L|-10:117,1,95
190,281,23014,6,0,L|170:70,1,190,2|0,0:0|0:0,0:0:0:0:
40,25,23405,1,0,0:0:0:0:
48,195,23536,5,8,0:0:0:0:
172,91,23666,1,0,0:0:0:0:
135,276,23797,2,0,L|125:170,1,95,0|2,0:0|0:0,0:0:0:0:
225,299,24057,5,0,0:0:0:0:
51,318,24188,1,0,0:0:0:0:
201,173,24318,2,0,L|315:176,1,95,0|2,0:0|0:0,0:0:0:0:
384,242,24579,5,8,0:0:0:0:
289,89,24710,1,0,0:0:0:0:
191,207,24840,2,0,L|195:316,1,95
281,361,25101,5,6,0:0:0:0:
330,175,25231,1,0,0:0:0:0:
196,321,25362,1,0,0:0:0:0:
384,242,25492,1,0,0:0:0:0:
191,207,25623,5,6,0:0:0:0:
332,87,25753,1,0,0:0:0:0:
280,263,25884,1,0,0:0:0:0:
206,73,26014,1,0,0:0:0:0:
389,152,26144,5,6,0:0:0:0:
191,207,26275,1,0,0:0:0:0:
332,87,26405,1,0,0:0:0:0:
371,323,26536,1,0,0:0:0:0:
285,187,26666,5,6,0:0:0:0:
465,252,26797,1,0,0:0:0:0:
271,327,26927,1,0,0:0:0:0:
388,151,27057,1,0,0:0:0:0:
214,99,27188,6,0,L|18:108,1,190,4|0,0:0|0:0,0:0:0:0:
82,239,27579,1,0,0:0:0:0:
218,193,27710,2,0,L|211:55,1,95,8|0,0:0|0:0,0:0:0:0:
19,12,27971,2,0,L|26:150,1,95,0|2,0:0|0:0,0:0:0:0:
289,193,28231,2,0,L|282:55,1,95
145,242,28492,1,0,0:0:0:0:
115,68,28623,1,2,0:0:0:0:
289,193,28753,2,0,L|293:287,1,95,8|0,0:0|0:0,0:0:0:0:
149,336,29014,2,0,L|144:241,1,95
215,112,29275,6,0,B|259:94|259:94|406:107,1,190,2|0,0:0|0:0,0:0:0:0:
482,199,29666,1,0,0:0:0:0:
367,284,29797,2,0,L|251:283,1,95,8|0,0:0|0:0,0:0:0:0:
136,239,30057,2,0,L|20:240,1,95,0|2,0:0|0:0,0:0:0:0:
191,287,30318,2,0,P|190:188|106:172,1,190
180,367,30710,1,2,0:0:0:0:
278,221,30840,2,0,P|261:167|212:118,1,95,8|0,0:0|0:0,0:0:0:0:
274,310,31101,2,0,P|329:322|396:304,1,95
456,230,31362,6,0,P|493:185|399:150,1,190,2|0,0:0|0:0,0:0:0:0:
448,319,31753,1,0,0:0:0:0:
359,210,31884,5,8,0:0:0:0:
341,362,32014,1,0,0:0:0:0:
199,282,32144,2,0,L|301:274,1,95,0|2,0:0|0:0,0:0:0:0:
173,366,32405,5,0,0:0:0:0:
103,188,32536,1,0,0:0:0:0:
292,179,32666,2,0,L|294:294,1,95,0|2,0:0|0:0,0:0:0:0:
173,366,32927,5,8,0:0:0:0:
103,188,33057,1,0,0:0:0:0:
292,179,33188,2,0,L|405:183,1,95
268,272,33449,5,2,0:0:0:0:
228,78,33579,1,0,0:0:0:0:
412,181,33710,1,0,0:0:0:0:
196,224,33840,1,0,0:0:0:0:
324,105,33971,5,8,0:0:0:0:
256,326,34101,1,0,0:0:0:0:
178,146,34231,1,0,0:0:0:0:
308,225,34362,1,2,0:0:0:0:
400,57,34492,5,0,0:0:0:0:
297,250,34623,1,0,0:0:0:0:
266,47,34753,1,0,0:0:0:0:
434,229,34884,1,2,0:0:0:0:
324,105,35014,5,8,0:0:0:0:
279,289,35144,1,0,0:0:0:0:
403,151,35275,1,0,0:0:0:0:
198,193,35405,1,0,0:0:0:0:
364,368,35536,6,0,B|381:320|381:320|363:197,1,142.5,6|0,0:0|0:0,0:0:0:0:
340,199,35797,2,0,L|189:192,1,142.5,6|0,0:0|0:0,0:0:0:0:
160,190,36057,5,8,0:0:0:0:
279,289,36188,1,0,0:0:0:0:
209,94,36318,1,0,0:0:0:0:
67,167,36449,2,0,L|84:375,1,190,2|0,0:0|0:0,0:0:0:0:
160,190,36840,1,0,0:0:0:0:
0,299,36971,1,2,0:0:0:0:
177,371,37101,2,0,L|294:367,1,95,8|0,0:0|0:0,0:0:0:0:
353,287,37362,2,0,L|470:291,1,95
342,368,37623,5,2,0:0:0:0:
290,192,37753,1,0,0:0:0:0:
474,289,37884,1,0,0:0:0:0:
512,159,38014,2,0,P|451:156|409:163,1,95,0|8,0:0|0:0,0:0:0:0:
353,287,38275,1,0,0:0:0:0:
289,191,38405,2,0,B|269:139|269:139|310:-2,1,190
351,137,38797,1,0,0:0:0:0:
210,85,38927,2,0,L|239:-10,1,95,0|2,0:0|0:0,0:0:0:0:
351,137,39188,5,8,0:0:0:0:
177,188,39318,1,0,0:0:0:0:
380,128,39449,1,0,0:0:0:0:
150,194,39579,1,0,0:0:0:0:
363,264,39710,6,0,B|389:226|389:226|380:70,1,190,2|0,0:0|0:0,0:0:0:0:
308,203,40101,1,0,0:0:0:0:
459,183,40231,2,0,L|452:80,1,95,8|0,0:0|0:0,0:0:0:0:
354,27,40492,1,0,0:0:0:0:
249,123,40623,6,0,P|191:108|244:22,1,190,2|0,0:0|0:0,0:0:0:0:
324,143,41014,1,0,0:0:0:0:
191,231,41144,1,2,0:0:0:0:
110,93,41275,2,0,P|114:36|141:-9,1,95,8|0,0:0|0:0,0:0:0:0:
174,146,41536,2,0,P|122:171|70:170,1,95
199,66,41797,5,6,0:0:0:0:
278,243,41927,1,0,0:0:0:0:
174,146,42057,1,0,0:0:0:0:
150,313,42188,1,0,0:0:0:0:
260,157,42318,5,6,0:0:0:0:
70,242,42449,1,0,0:0:0:0:
278,243,42579,1,0,0:0:0:0:
163,128,42710,1,0,0:0:0:0:
228,340,42840,5,6,0:0:0:0:
260,157,42971,1,0,0:0:0:0:
331,358,43101,1,0,0:0:0:0:
176,229,43231,1,0,0:0:0:0:
361,152,43362,5,6,0:0:0:0:
228,340,43492,1,0,0:0:0:0:
173,141,43623,1,0,0:0:0:0:
359,291,43753,1,0,0:0:0:0:
466,183,43884,6,0,P|476:133|465:67,1,95,6|0,0:0|0:0,0:0:0:0:
260,157,44144,2,0,P|256:204|265:250,1,95
384,67,44405,2,0,P|334:57|268:68,1,95,8|0,0:0|0:0,0:0:0:0:
359,291,44666,1,0,0:0:0:0:
466,183,44797,1,2,0:0:0:0:
260,157,44927,6,0,P|256:204|265:250,1,95
354,144,45188,1,0,0:0:0:0:
166,213,45318,1,2,0:0:0:0:
359,291,45449,2,0,L|457:285,1,95,8|0,0:0|0:0,0:0:0:0:
448,138,45710,2,0,L|350:144,1,95
266,237,45971,6,0,P|200:253|190:153,1,190,2|0,0:0|0:0,0:0:0:0:
342,214,46362,1,0,0:0:0:0:
215,329,46492,2,0,P|157:314|115:273,1,95,8|0,0:0|0:0,0:0:0:0:
85,187,46753,2,0,P|46:160|0:150,1,95,0|2,0:0|0:0,0:0:0:0:
58,285,47014,5,0,0:0:0:0:
90,93,47144,1,0,0:0:0:0:
251,241,47275,2,0,L|142:220,1,95,0|2,0:0|0:0,0:0:0:0:
228,127,47536,5,8,0:0:0:0:
215,329,47666,1,0,0:0:0:0:
85,187,47797,2,0,L|90:76,1,95
194,15,48057,6,0,L|303:19,1,95,2|0,0:0|0:0,0:0:0:0:
378,89,48318,2,0,L|472:85,1,95
353,8,48579,5,8,0:0:0:0:
344,220,48710,1,0,0:0:0:0:
485,76,48840,1,0,0:0:0:0:
279,156,48971,1,2,0:0:0:0:
436,231,49101,5,0,0:0:0:0:
291,62,49231,1,0,0:0:0:0:
353,310,49362,1,0,0:0:0:0:
378,136,49492,1,2,0:0:0:0:
247,240,49623,6,0,L|256:361,1,95,8|0,0:0|0:0,0:0:0:0:
443,325,49884,2,0,L|434:204,1,95
378,136,50144,6,0,B|303:130|303:130|256:153|256:153|176:144,1,190,2|0,0:0|0:0,0:0:0:0:
96,52,50536,1,0,0:0:0:0:
31,168,50666,2,0,L|39:276,1,95,8|0,0:0|0:0,0:0:0:0:
231,335,50927,2,0,L|238:240,1,95,0|2,0:0|0:0,0:0:0:0:
140,354,51188,5,0,0:0:0:0:
332,253,51318,1,0,0:0:0:0:
169,178,51449,1,0,0:0:0:0:
308,356,51579,1,2,0:0:0:0:
368,131,51710,5,8,0:0:0:0:
238,240,51840,1,0,0:0:0:0:
169,40,51971,1,0,0:0:0:0:
265,139,52101,1,0,0:0:0:0:
78,196,52231,5,0,0:0:0:0:
269,182,56405,6,0,P|248:129|224:236,1,313.500009567261,6|0,0:0|0:0,0:0:0:0:
333,103,56927,5,8,0:0:0:0:
347,299,57057,1,0,0:0:0:0:
439,129,57188,1,0,0:0:0:0:
464,318,57318,1,2,0:0:0:0:
352,201,57449,5,0,0:0:0:0:
509,248,57579,1,0,0:0:0:0:
324,317,57710,1,0,0:0:0:0:
421,112,57840,1,2,0:0:0:0:
479,330,57971,5,8,0:0:0:0:
270,147,58101,1,0,0:0:0:0:
215,351,58231,1,0,0:0:0:0:
352,201,58362,1,0,0:0:0:0:
181,211,58492,5,2,0:0:0:0:
364,343,58623,1,0,0:0:0:0:
163,199,58753,1,0,0:0:0:0:
126,376,58884,1,0,0:0:0:0:
300,126,59014,5,8,0:0:0:0:
364,343,59144,1,0,0:0:0:0:
145,188,59275,1,0,0:0:0:0:
421,121,59405,1,2,0:0:0:0:
333,266,59536,5,0,0:0:0:0:
146,93,59666,1,0,0:0:0:0:
126,376,59797,1,0,0:0:0:0:
247,181,59927,1,2,0:0:0:0:
25,256,60057,5,8,0:0:0:0:
287,334,60188,1,0,0:0:0:0:
239,94,60318,1,0,0:0:0:0:
126,284,60449,1,0,0:0:0:0:
42,107,60579,6,0,P|97:68|96:173,1,209.000006378174,2|0,0:0|0:0,0:0:0:0:
33,190,60971,1,0,0:0:0:0:
141,58,61101,2,0,L|256:62,1,104.500003189087,8|0,0:0|0:0,0:0:0:0:
352,128,61362,2,0,L|467:124,1,104.500003189087,0|2,0:0|0:0,0:0:0:0:
331,46,61623,1,0,0:0:0:0:
327,233,61753,1,0,0:0:0:0:
480,121,61884,1,0,0:0:0:0:
248,159,62014,1,2,0:0:0:0:
408,263,62144,6,0,L|523:255,1,104.500003189087,8|0,0:0|0:0,0:0:0:0:
480,121,62405,2,0,L|365:129,1,104.500003189087
289,233,62666,6,0,P|179:209|170:121,1,209.000006378174,2|0,0:0|0:0,0:0:0:0:
167,127,63188,6,0,P|108:139|58:137,1,104.500003189087,8|0,0:0|0:0,0:0:0:0:
212,40,63449,2,0,P|251:85|275:129,1,104.500003189087,0|2,0:0|0:0,0:0:0:0:
227,241,63710,1,0,0:0:0:0:
166,127,63840,1,0,0:0:0:0:
334,237,63971,1,0,0:0:0:0:
130,274,64101,1,0,0:0:0:0:
272,123,64231,6,0,L|393:133,1,104.500003189087,8|0,0:0|0:0,0:0:0:0:
234,282,64492,2,0,L|113:272,1,104.500003189087
46,161,64753,6,0,P|-13:169|58:229,1,209.000006378174,6|6,0:0|0:0,0:0:0:0:
54,232,65275,6,0,P|60:296|81:339,1,104.500003189087,8|0,0:0|0:0,0:0:0:0:
235,200,65536,2,0,P|229:136|208:93,1,104.500003189087,0|2,0:0|0:0,0:0:0:0:
171,265,65797,1,0,0:0:0:0:
332,180,65927,1,0,0:0:0:0:
121,147,66057,1,0,0:0:0:0:
291,286,66188,1,2,0:0:0:0:
314,90,66318,2,0,P|260:85|213:99,1,104.500003189087,8|0,0:0|0:0,0:0:0:0:
291,286,66579,2,0,P|345:291|392:277,1,104.500003189087
201,222,66840,6,0,P|128:250|219:292,1,209.000006378174,2|0,0:0|0:0,0:0:0:0:
199,310,67362,6,0,P|256:304|317:315,1,104.500003189087,8|0,0:0|0:0,0:0:0:0:
402,200,67623,2,0,P|350:206|298:200,1,104.500003189087,0|2,0:0|0:0,0:0:0:0:
199,310,67884,6,0,P|254:323|307:354,1,104.500003189087
402,200,68145,2,0,P|351:188|304:165,1,104.500003189087,0|2,0:0|0:0,0:0:0:0:
199,310,68405,6,0,P|246:341|286:389,1,104.500003189087,8|0,0:0|0:0,0:0:0:0:
402,200,68666,2,0,P|358:171|322:133,1,104.500003189087
199,310,68927,6,0,P|142:339|166:247,1,209.000006378174
156,245,69449,6,0,P|96:255|45:243,1,104.500003189087,8|0,0:0|0:0,0:0:0:0:
133,128,69710,2,0,P|193:118|244:130,1,104.500003189087,0|2,0:0|0:0,0:0:0:0:
333,267,69971,2,0,P|281:294|282:192,1,209.000006378174
403,217,70362,1,2,0:0:0:0:
287,124,70492,2,0,P|230:136|190:176,1,104.500003189087,8|0,0:0|0:0,0:0:0:0:
367,135,70753,2,0,P|385:79|370:24,1,104.500003189087
250,0,71014,6,0,B|215:39|215:39|202:204,1,209.000006378174,2|0,0:0|0:0,0:0:0:0:
278,295,71405,1,0,0:0:0:0:
404,194,71536,2,0,L|296:205,1,104.500003189087,8|0,0:0|0:0,0:0:0:0:
193,271,71797,2,0,L|85:260,1,104.500003189087,2|0,0:0|0:0,0:0:0:0:
35,147,72057,5,0,0:0:0:0:
35,342,72188,1,0,0:0:0:0:
142,186,72318,1,0,0:0:0:0:
186,355,72449,1,2,0:0:0:0:
31,249,72579,2,0,P|25:178|40:135,1,104.500003189087,8|0,0:0|0:0,0:0:0:0:
251,105,72840,2,0,P|262:155|254:207,1,104.500003189087
189,50,73101,6,0,B|235:26|235:26|407:40,1,209.000006378174,6|0,0:0|0:0,0:0:0:0:
483,124,73492,1,0,0:0:0:0:
352,212,73623,5,8,0:0:0:0:
391,38,73753,1,0,0:0:0:0:
343,249,73884,1,0,0:0:0:0:
284,90,74014,1,2,0:0:0:0:
460,209,74144,5,0,0:0:0:0:
236,277,74275,1,0,0:0:0:0:
362,130,74405,1,0,0:0:0:0:
402,356,74536,1,2,0:0:0:0:
253,166,74666,5,8,0:0:0:0:
216,368,74797,1,0,0:0:0:0:
373,231,74927,1,0,0:0:0:0:
128,188,75057,1,0,0:0:0:0:
251,295,75188,5,2,0:0:0:0:
164,89,75318,1,0,0:0:0:0:
88,305,75449,1,0,0:0:0:0:
253,166,75579,1,0,0:0:0:0:
12,225,75710,5,8,0:0:0:0:
55,20,75840,1,0,0:0:0:0:
165,225,75971,1,2,0:0:0:0:
273,17,76101,1,0,0:0:0:0:
164,89,76231,5,0,0:0:0:0:
375,206,76362,1,0,0:0:0:0:
270,46,76492,1,0,0:0:0:0:
247,297,76623,1,2,0:0:0:0:
422,124,76753,5,8,0:0:0:0:
136,219,76884,1,0,0:0:0:0:
442,314,77014,1,0,0:0:0:0:
253,166,77144,1,0,0:0:0:0:
247,336,77275,6,0,P|318:339|372:317,1,104.500003189087,6|0,0:0|0:0,0:0:0:0:
355,159,77536,2,0,P|284:156|230:178,1,104.500003189087,6|0,0:0|0:0,0:0:0:0:
203,262,77797,5,8,0:0:0:0:
184,75,77927,1,0,0:0:0:0:
312,230,78058,1,0,0:0:0:0:
288,80,78188,1,2,0:0:0:0:
157,189,78318,2,0,L|34:183,1,104.500003189087
184,75,78579,2,0,L|307:81,1,104.500003189087,0|2,0:0|0:0,0:0:0:0:
157,189,78840,5,8,0:0:0:0:
115,26,78971,1,0,0:0:0:0:
257,174,79101,1,0,0:0:0:0:
61,145,79231,1,0,0:0:0:0:
184,75,79362,6,0,L|307:81,1,104.500003189087,2|0,0:0|0:0,0:0:0:0:
379,151,79623,2,0,L|502:145,1,104.500003189087
363,77,79884,1,8,0:0:0:0:
392,247,80014,1,0,0:0:0:0:
512,140,80144,1,0,0:0:0:0:
297,155,80275,1,2,0:0:0:0:
472,300,80405,6,0,L|462:188,1,104.500003189087
304,270,80666,2,0,L|314:382,1,104.500003189087,0|2,0:0|0:0,0:0:0:0:
392,247,80927,1,8,0:0:0:0:
216,342,81057,1,0,0:0:0:0:
417,348,81188,1,0,0:0:0:0:
210,228,81318,1,0,0:0:0:0:
313,374,81449,6,0,L|304:270,1,104.500003189087,2|0,0:0|0:0,0:0:0:0:
210,228,81710,2,0,L|219:123,1,104.500003189087
321,69,81971,1,8,0:0:0:0:
333,212,82101,1,0,0:0:0:0:
223,88,82231,5,0,0:0:0:0:
364,246,82362,1,2,0:0:0:0:
430,109,82492,1,0,0:0:0:0:
223,88,82753,5,0,0:0:0:0:
385,270,82884,1,2,0:0:0:0:
461,112,83014,1,8,0:0:0:0:
223,88,83275,5,0,0:0:0:0:
385,270,83536,6,0,P|395:222|331:151,1,142.500005435944,6|0,0:0|0:0,0:0:0:0:
193,209,84057,6,0,P|229:241|323:221,1,142.500005435944,6|0,0:0|0:0,0:0:0:0:
343,72,84579,6,0,P|296:87|266:178,1,142.500005435944,6|0,0:0|0:0,0:0:0:0:
385,270,85101,6,0,P|395:222|331:151,2,142.500005435944,6|0|0,0:0|0:0|0:0,0:0:0:0:
416,119,89797,6,0,L|287:127,1,95,6|0,0:0|0:0,0:0:0:0:
230,176,90057,2,0,L|101:168,1,95
27,169,90318,1,8,0:0:0:0:
15,214,90383,1,0,0:0:0:0:
36,255,90448,1,0,0:0:0:0:
80,272,90513,1,0,0:0:0:0:
123,255,90578,1,0,0:0:0:0:
145,214,90644,1,0,0:0:0:0:
134,169,90710,1,2,0:0:0:0:
131,122,90775,1,0,0:0:0:0:
154,81,90840,6,0,L|260:89,1,95
335,147,91101,2,0,L|429:140,1,95,0|2,0:0|0:0,0:0:0:0:
494,57,91362,1,8,0:0:0:0:
414,233,91492,1,0,0:0:0:0:
367,70,91623,1,0,0:0:0:0:
501,185,91753,1,0,0:0:0:0:
335,147,91884,5,2,0:0:0:0:
323,347,92014,1,0,0:0:0:0:
452,138,92145,5,0,0:0:0:0:
464,341,92275,1,0,0:0:0:0:
329,134,92405,5,8,0:0:0:0:
315,357,92535,1,0,0:0:0:0:
457,127,92666,5,0,0:0:0:0:
471,350,92796,1,2,0:0:0:0:
323,124,92927,5,0,0:0:0:0:
308,367,93057,1,0,0:0:0:0:
463,117,93188,5,0,0:0:0:0:
478,360,93318,1,2,0:0:0:0:
285,221,93449,2,0,L|411:228,1,95,8|0,0:0|0:0,0:0:0:0:
308,367,93710,2,0,L|213:372,1,95
69,256,93971,5,2,0:0:0:0:
112,384,94101,1,0,0:0:0:0:
203,283,94231,2,0,L|197:177,1,95
115,122,94492,2,0,L|121:16,1,95,8|0,0:0|0:0,0:0:0:0:
217,114,94753,1,0,0:0:0:0:
30,80,94884,1,2,0:0:0:0:
197,5,95014,6,0,L|297:11,1,95
353,95,95275,2,0,L|453:89,1,95,0|2,0:0|0:0,0:0:0:0:
368,13,95536,1,8,0:0:0:0:
360,191,95666,1,0,0:0:0:0:
468,80,95797,1,0,0:0:0:0:
263,144,95927,1,0,0:0:0:0:
463,271,96057,6,0,L|457:165,1,95,2|0,0:0|0:0,0:0:0:0:
261,235,96318,2,0,L|255:329,1,95
360,191,96579,1,8,0:0:0:0:
328,155,96644,1,0,0:0:0:0:
285,136,96709,1,0,0:0:0:0:
238,135,96774,1,0,0:0:0:0:
195,154,96840,2,0,P|136:167|88:162,1,95,0|2,0:0|0:0,0:0:0:0:
22,70,97101,6,0,L|17:275,1,190
93,332,97492,1,2,0:0:0:0:
200,237,97623,2,0,L|95:248,1,95,8|0,0:0|0:0,0:0:0:0:
215,340,97884,2,0,L|309:330,1,95
398,231,98144,6,0,P|356:167|287:237,1,190,6|6,0:0|0:0,0:0:0:0:
406,310,98536,1,0,0:0:0:0:
457,166,98666,2,0,P|415:118|381:102,1,95,8|0,0:0|0:0,0:0:0:0:
275,81,98927,2,0,B|231:71|231:71|168:99|168:99|88:80,1,190
4,10,99318,1,0,0:0:0:0:
70,149,99449,2,0,L|176:173,1,95,0|2,0:0|0:0,0:0:0:0:
272,200,99710,1,8,0:0:0:0:
136,285,99840,1,0,0:0:0:0:
262,122,99971,2,0,P|323:139|354:180,1,95
360,273,100231,5,2,0:0:0:0:
181,188,100362,1,0,0:0:0:0:
365,184,100492,1,0,0:0:0:0:
250,349,100623,1,0,0:0:0:0:
169,160,100753,5,8,0:0:0:0:
270,262,100884,1,0,0:0:0:0:
317,63,101014,1,0,0:0:0:0:
256,168,101144,1,2,0:0:0:0:
391,89,101275,6,0,P|388:27|351:-10,1,95
332,139,101536,2,0,P|387:167|437:153,1,95,0|2,0:0|0:0,0:0:0:0:
317,63,101797,1,8,0:0:0:0:
391,235,101927,1,0,0:0:0:0:
494,116,102057,1,0,0:0:0:0:
294,190,102188,1,0,0:0:0:0:
475,305,102318,6,0,L|484:193,1,95,2|0,0:0|0:0,0:0:0:0:
286,95,102579,2,0,L|293:189,1,95
499,311,102840,2,0,L|508:199,1,95,8|0,0:0|0:0,0:0:0:0:
310,279,103101,2,0,L|317:373,1,95,0|2,0:0|0:0,0:0:0:0:
396,223,103362,5,0,0:0:0:0:
222,342,103492,1,0,0:0:0:0:
408,349,103623,1,0,0:0:0:0:
236,194,103753,1,2,0:0:0:0:
319,360,103884,5,8,0:0:0:0:
419,182,104014,1,0,0:0:0:0:
197,186,104144,1,0,0:0:0:0:
402,315,104275,1,0,0:0:0:0:
193,333,104405,6,0,P|232:277|268:265,1,95,6|0,0:0|0:0,0:0:0:0:
402,315,104666,1,0,0:0:0:0:
419,182,104797,1,0,0:0:0:0:
244,66,104927,6,0,P|207:123|210:161,1,95,6|0,0:0|0:0,0:0:0:0:
309,265,105188,1,0,0:0:0:0:
193,333,105319,1,0,0:0:0:0:
284,134,105449,6,0,P|352:138|380:163,1,95,6|0,0:0|0:0,0:0:0:0:
402,315,105710,1,0,0:0:0:0:
512,234,105841,1,0,0:0:0:0:
312,217,105971,6,4,P|281:278|288:315,1,95,6|0,0:0|0:0,0:0:0:0:
407,202,106232,1,0,0:0:0:0:
469,368,106362,1,0,0:0:0:0:
284,302,106492,6,0,P|226:282|155:172,1,190,6|6,0:0|0:0,0:0:0:0:
191,69,106884,1,0,0:0:0:0:
321,149,107014,2,0,P|290:190|247:205,1,95,8|0,0:0|0:0,0:0:0:0:
288,71,107275,2,0,P|391:91|405:185,1,190
368,268,107666,1,0,0:0:0:0:
226,141,107797,2,0,L|333:150,1,95,0|2,0:0|0:0,0:0:0:0:
206,238,108057,5,8,0:0:0:0:
288,71,108188,1,0,0:0:0:0:
368,268,108318,1,0,0:0:0:0:
226,141,108449,1,0,0:0:0:0:
130,268,108579,6,0,P|174:315|289:260,1,190,2|0,0:0|0:0,0:0:0:0:
250,134,108971,1,0,0:0:0:0:
119,173,109101,2,0,L|131:286,1,95,8|0,0:0|0:0,0:0:0:0:
339,193,109362,2,0,L|327:80,1,95,0|2,0:0|0:0,0:0:0:0:
262,254,109623,5,0,0:0:0:0:
426,158,109753,1,0,0:0:0:0:
216,77,109884,1,0,0:0:0:0:
365,266,110014,1,2,0:0:0:0:
458,79,110144,2,0,L|464:31,4,47.5,8|0|0|0|0,0:0|0:0|0:0|0:0|0:0,0:0:0:0:
342,147,110536,1,0,0:0:0:0:
479,226,110666,5,2,0:0:0:0:
324,52,110927,1,0,0:0:0:0:
267,255,111188,1,0,0:0:0:0:
411,134,111449,1,0,0:0:0:0:
63,44,111971,5,0,0:0:0:0:
196,334,112492,1,0,0:0:0:0:
197,140,114057,5,0,0:0:0:0:
331,255,114318,2,0,L|132:239,1,190
31,151,114710,1,0,0:0:0:0:
