osu file format v14

[General]
AudioFilename: audio.mp3
AudioLeadIn: 0
PreviewTime: 43819
Countdown: 0
SampleSet: Soft
StackLeniency: 0.7
Mode: 3
LetterboxInBreaks: 0
SpecialStyle: 0
WidescreenStoryboard: 0

[Editor]
DistanceSpacing: 2
BeatDivisor: 4
GridSize: 8
TimelineZoom: 1.7

[Metadata]
Title:Everytime Sweet
TitleUnicode:Everytime Sweet
Artist:Miraie
ArtistUnicode:Miraie
Creator:TheNewBungping
Version:Sugary
Source:
Tags:Himouto Umaru Chan Remix Future Funk Kawaii Pop 海老名菜々Nana Ebina nicamoq
BeatmapID:1358047
BeatmapSetID:640325

[Difficulty]
HPDrainRate:8
CircleSize:4
OverallDifficulty:8
ApproachRate:5
SliderMultiplier:1.4
SliderTickRate:1

[Events]
//Background and Video events
0,0,"Everytime Sweet.jpg",0,0
//Break Periods
//Storyboard Layer 0 (Background)
//Storyboard Layer 1 (Fail)
//Storyboard Layer 2 (Pass)
//Storyboard Layer 3 (Foreground)
//Storyboard Sound Samples

[TimingPoints]
1820,444.444444444444,4,2,0,40,1,0
43597,-16.6666666666667,4,2,0,40,0,0
44042,-10000,4,2,0,40,0,0
44486,-100,4,2,0,40,0,1
72931,-100,4,2,0,40,0,0
115153,-33.3333333333333,4,2,0,40,0,0
115375,-10000,4,2,0,40,0,0
115597,-100,4,2,0,40,0,1
144042,-100,4,2,0,40,0,0
172042,-33.3333333333333,4,2,0,40,0,0
172264,-10000,4,2,0,40,0,0
172486,-100,4,2,0,40,0,1
200931,-100,4,2,0,40,0,0

[HitObjects]
64,192,1820,5,0,0:0:0:0:
448,192,1820,1,0,0:0:0:0:
448,192,2708,1,0,0:0:0:0:
320,192,2708,1,0,0:0:0:0:
64,192,3597,1,0,0:0:0:0:
192,192,3597,1,0,0:0:0:0:
448,192,4042,1,0,0:0:0:0:
192,192,4042,1,0,0:0:0:0:
448,192,4486,1,0,0:0:0:0:
64,192,4486,1,0,0:0:0:0:
448,192,4931,1,0,0:0:0:0:
64,192,4931,1,0,0:0:0:0:
192,192,4931,1,0,0:0:0:0:
320,192,5153,1,0,0:0:0:0:
192,192,5153,1,0,0:0:0:0:
64,192,5375,1,0,0:0:0:0:
448,192,5375,1,0,0:0:0:0:
192,192,5597,1,0,0:0:0:0:
320,192,5597,1,0,0:0:0:0:
64,192,5819,1,0,0:0:0:0:
448,192,5819,1,0,0:0:0:0:
320,192,5819,1,0,0:0:0:0:
192,192,6042,1,0,0:0:0:0:
448,192,6042,1,0,0:0:0:0:
64,192,6264,1,0,0:0:0:0:
320,192,6264,1,0,0:0:0:0:
320,192,6486,1,0,0:0:0:0:
448,192,6486,1,0,0:0:0:0:
192,192,6708,1,0,0:0:0:0:
64,192,6708,1,0,0:0:0:0:
448,192,6708,1,0,0:0:0:0:
320,192,6931,1,0,0:0:0:0:
192,192,6931,1,0,0:0:0:0:
64,192,7153,1,0,0:0:0:0:
448,192,7153,1,0,0:0:0:0:
192,192,7264,1,0,0:0:0:0:
320,192,7264,1,0,0:0:0:0:
64,192,7375,1,0,0:0:0:0:
448,192,7375,1,0,0:0:0:0:
192,192,7486,1,0,0:0:0:0:
320,192,7486,1,0,0:0:0:0:
64,192,7597,1,0,0:0:0:0:
448,192,7597,1,0,0:0:0:0:
192,192,7708,1,0,0:0:0:0:
320,192,7708,1,0,0:0:0:0:
64,192,7819,1,0,0:0:0:0:
448,192,7819,1,0,0:0:0:0:
192,192,7931,1,0,0:0:0:0:
320,192,7931,1,0,0:0:0:0:
64,192,8042,1,0,0:0:0:0:
448,192,8042,1,0,0:0:0:0:
192,192,8153,1,0,0:0:0:0:
320,192,8153,1,0,0:0:0:0:
64,192,8264,1,0,0:0:0:0:
448,192,8264,1,0,0:0:0:0:
320,192,8375,1,0,0:0:0:0:
192,192,8375,1,0,0:0:0:0:
448,192,8486,1,0,0:0:0:0:
64,192,8486,1,0,0:0:0:0:
320,192,8597,128,0,8708:0:0:0:0:
448,192,8708,128,0,8819:0:0:0:0:
192,192,8819,128,0,8931:0:0:0:0:
64,192,8931,1,0,0:0:0:0:
448,192,8931,1,0,0:0:0:0:
320,192,8931,1,0,0:0:0:0:
192,192,9153,1,0,0:0:0:0:
320,192,9375,1,0,0:0:0:0:
448,192,9375,1,0,0:0:0:0:
192,192,9597,1,0,0:0:0:0:
64,192,9819,1,0,0:0:0:0:
448,192,9819,1,0,0:0:0:0:
320,192,10042,1,0,0:0:0:0:
192,192,10264,1,0,0:0:0:0:
64,192,10264,1,0,0:0:0:0:
320,192,10486,1,0,0:0:0:0:
448,192,10708,1,0,0:0:0:0:
64,192,10708,1,0,0:0:0:0:
192,192,10931,1,0,0:0:0:0:
64,192,11153,1,0,0:0:0:0:
320,192,11153,1,0,0:0:0:0:
448,192,11375,1,0,0:0:0:0:
448,192,11597,1,0,0:0:0:0:
64,192,11597,1,0,0:0:0:0:
320,192,11819,1,0,0:0:0:0:
192,192,12042,1,0,0:0:0:0:
448,192,12042,1,0,0:0:0:0:
64,192,12264,1,0,0:0:0:0:
64,192,12486,1,0,0:0:0:0:
448,192,12486,1,0,0:0:0:0:
320,192,12486,1,0,0:0:0:0:
192,192,12708,1,0,0:0:0:0:
320,192,12708,1,0,0:0:0:0:
192,192,12931,1,0,0:0:0:0:
448,192,12931,1,0,0:0:0:0:
64,192,13153,1,0,0:0:0:0:
320,192,13153,1,0,0:0:0:0:
64,192,13375,1,0,0:0:0:0:
448,192,13375,1,0,0:0:0:0:
320,192,13597,1,0,0:0:0:0:
448,192,13597,1,0,0:0:0:0:
192,192,13819,1,0,0:0:0:0:
64,192,13819,1,0,0:0:0:0:
320,192,13931,1,0,0:0:0:0:
448,192,13931,1,0,0:0:0:0:
192,192,14042,1,0,0:0:0:0:
64,192,14042,1,0,0:0:0:0:
320,192,14153,1,0,0:0:0:0:
448,192,14153,1,0,0:0:0:0:
192,192,14264,1,0,0:0:0:0:
64,192,14264,128,0,14486:0:0:0:0:
320,192,14486,1,0,0:0:0:0:
448,192,14486,128,0,14708:0:0:0:0:
64,192,14708,1,0,0:0:0:0:
192,192,14708,128,0,14931:0:0:0:0:
448,192,14931,1,0,0:0:0:0:
320,192,14931,128,0,15153:0:0:0:0:
64,192,15153,1,0,0:0:0:0:
192,192,15264,1,0,0:0:0:0:
448,192,15375,1,0,0:0:0:0:
320,192,15486,1,0,0:0:0:0:
64,192,15597,1,0,0:0:0:0:
448,192,15597,1,0,0:0:0:0:
192,192,15708,1,0,0:0:0:0:
64,192,15819,1,0,0:0:0:0:
320,192,15931,1,0,0:0:0:0:
64,192,16042,1,0,0:0:0:0:
448,192,16042,1,0,0:0:0:0:
320,192,16264,1,0,0:0:0:0:
64,192,16486,1,0,0:0:0:0:
448,192,16486,1,0,0:0:0:0:
192,192,16708,1,0,0:0:0:0:
320,192,16931,1,0,0:0:0:0:
448,192,16931,1,0,0:0:0:0:
64,192,17153,1,0,0:0:0:0:
192,192,17375,1,0,0:0:0:0:
320,192,17375,1,0,0:0:0:0:
448,192,17597,1,0,0:0:0:0:
64,192,17819,1,0,0:0:0:0:
320,192,17819,1,0,0:0:0:0:
192,192,18042,1,0,0:0:0:0:
64,192,18264,1,0,0:0:0:0:
448,192,18264,1,0,0:0:0:0:
320,192,18486,1,0,0:0:0:0:
448,192,18486,1,0,0:0:0:0:
64,192,18708,1,0,0:0:0:0:
192,192,18708,1,0,0:0:0:0:
448,192,18931,1,0,0:0:0:0:
64,192,18931,1,0,0:0:0:0:
448,192,19153,1,0,0:0:0:0:
192,192,19153,1,0,0:0:0:0:
320,192,19375,1,0,0:0:0:0:
448,192,19597,1,0,0:0:0:0:
64,192,19597,1,0,0:0:0:0:
192,192,19819,1,0,0:0:0:0:
448,192,20042,1,0,0:0:0:0:
64,192,20042,1,0,0:0:0:0:
320,192,20264,1,0,0:0:0:0:
448,192,20486,1,0,0:0:0:0:
64,192,20486,1,0,0:0:0:0:
192,192,20597,1,0,0:0:0:0:
320,192,20708,1,0,0:0:0:0:
448,192,20819,1,0,0:0:0:0:
64,192,20931,1,0,0:0:0:0:
192,192,20931,1,0,0:0:0:0:
320,192,21042,1,0,0:0:0:0:
448,192,21153,1,0,0:0:0:0:
64,192,21264,1,0,0:0:0:0:
192,192,21375,1,0,0:0:0:0:
448,192,21375,1,0,0:0:0:0:
320,192,21486,1,0,0:0:0:0:
192,192,21597,1,0,0:0:0:0:
64,192,21708,1,0,0:0:0:0:
448,192,21819,1,0,0:0:0:0:
320,192,21819,1,0,0:0:0:0:
192,192,21931,1,0,0:0:0:0:
64,192,22042,1,0,0:0:0:0:
448,192,22153,1,0,0:0:0:0:
320,192,22264,1,0,0:0:0:0:
64,192,22264,1,0,0:0:0:0:
448,192,22486,1,0,0:0:0:0:
320,192,22486,128,0,22708:0:0:0:0:
64,192,22708,1,0,0:0:0:0:
192,192,22708,1,0,0:0:0:0:
320,192,22819,1,0,0:0:0:0:
448,192,22931,1,0,0:0:0:0:
192,192,22931,128,0,23153:0:0:0:0:
64,192,23153,1,0,0:0:0:0:
448,192,23153,1,0,0:0:0:0:
320,192,23153,1,0,0:0:0:0:
192,192,23264,1,0,0:0:0:0:
320,192,23375,1,0,0:0:0:0:
64,192,23597,1,0,0:0:0:0:
192,192,23597,1,0,0:0:0:0:
448,192,23819,1,0,0:0:0:0:
192,192,23986,1,0,0:0:0:0:
320,192,24042,1,0,0:0:0:0:
448,192,24042,1,0,0:0:0:0:
64,192,24208,1,0,0:0:0:0:
192,192,24264,1,0,0:0:0:0:
448,192,24486,1,0,0:0:0:0:
64,192,24486,1,0,0:0:0:0:
320,192,24708,1,0,0:0:0:0:
448,192,24875,1,0,0:0:0:0:
64,192,24931,1,0,0:0:0:0:
320,192,24931,1,0,0:0:0:0:
192,192,25097,1,0,0:0:0:0:
64,192,25153,1,0,0:0:0:0:
320,192,25375,1,0,0:0:0:0:
448,192,25375,1,0,0:0:0:0:
192,192,25597,1,0,0:0:0:0:
64,192,25764,1,0,0:0:0:0:
448,192,25819,1,0,0:0:0:0:
192,192,25819,1,0,0:0:0:0:
320,192,25986,1,0,0:0:0:0:
192,192,26042,1,0,0:0:0:0:
64,192,26264,1,0,0:0:0:0:
448,192,26264,128,0,26486:0:0:0:0:
192,192,26486,1,0,0:0:0:0:
320,192,26653,1,0,0:0:0:0:
64,192,26708,1,0,0:0:0:0:
448,192,26708,1,0,0:0:0:0:
192,192,26875,1,0,0:0:0:0:
320,192,26931,1,0,0:0:0:0:
64,192,27153,1,0,0:0:0:0:
192,192,27153,1,0,0:0:0:0:
320,192,27375,1,0,0:0:0:0:
64,192,27542,1,0,0:0:0:0:
192,192,27597,1,0,0:0:0:0:
448,192,27597,1,0,0:0:0:0:
320,192,27764,1,0,0:0:0:0:
448,192,27819,1,0,0:0:0:0:
192,192,28042,1,0,0:0:0:0:
320,192,28042,1,0,0:0:0:0:
64,192,28264,1,0,0:0:0:0:
192,192,28431,1,0,0:0:0:0:
64,192,28486,1,0,0:0:0:0:
448,192,28486,1,0,0:0:0:0:
320,192,28653,1,0,0:0:0:0:
192,192,28708,128,0,28931:0:0:0:0:
448,192,28931,1,0,0:0:0:0:
64,192,28931,1,0,0:0:0:0:
320,192,29097,1,0,0:0:0:0:
448,192,29153,1,0,0:0:0:0:
192,192,29319,1,0,0:0:0:0:
64,192,29375,1,0,0:0:0:0:
448,192,29375,128,0,29597:0:0:0:0:
320,192,29542,1,0,0:0:0:0:
192,192,29597,1,0,0:0:0:0:
64,192,29819,1,0,0:0:0:0:
320,192,29819,128,0,30264:0:0:0:0:
448,192,30042,1,0,0:0:0:0:
192,192,30208,1,0,0:0:0:0:
64,192,30264,1,0,0:0:0:0:
448,192,30264,1,0,0:0:0:0:
320,192,31708,128,0,32042:0:0:0:0:
64,192,32042,1,0,0:0:0:0:
448,192,32042,1,0,0:0:0:0:
448,192,33486,128,0,33819:0:0:0:0:
64,192,33819,1,0,0:0:0:0:
192,192,33819,1,0,0:0:0:0:
320,192,33931,1,0,0:0:0:0:
448,192,34042,1,0,0:0:0:0:
64,192,34153,1,0,0:0:0:0:
192,192,34264,1,0,0:0:0:0:
448,192,34264,1,0,0:0:0:0:
320,192,34375,1,0,0:0:0:0:
192,192,34486,1,0,0:0:0:0:
64,192,34597,1,0,0:0:0:0:
320,192,34708,1,0,0:0:0:0:
448,192,34708,1,0,0:0:0:0:
192,192,34819,1,0,0:0:0:0:
64,192,34931,1,0,0:0:0:0:
448,192,35042,1,0,0:0:0:0:
320,192,35153,1,0,0:0:0:0:
64,192,35153,1,0,0:0:0:0:
192,192,35208,1,0,0:0:0:0:
320,192,35264,1,0,0:0:0:0:
448,192,35319,1,0,0:0:0:0:
64,192,35375,1,0,0:0:0:0:
192,192,35431,1,0,0:0:0:0:
448,192,35486,1,0,0:0:0:0:
320,192,35542,1,0,0:0:0:0:
192,192,35597,1,0,0:0:0:0:
64,192,35597,1,0,0:0:0:0:
448,192,35653,1,0,0:0:0:0:
320,192,35708,1,0,0:0:0:0:
192,192,35764,1,0,0:0:0:0:
64,192,35819,1,0,0:0:0:0:
320,192,35931,1,0,0:0:0:0:
64,192,36042,1,0,0:0:0:0:
448,192,36042,1,0,0:0:0:0:
192,192,36153,1,0,0:0:0:0:
448,192,36264,1,0,0:0:0:0:
320,192,36375,1,0,0:0:0:0:
192,192,36486,1,0,0:0:0:0:
64,192,36486,1,0,0:0:0:0:
448,192,36708,1,0,0:0:0:0:
320,192,36708,1,0,0:0:0:0:
192,192,36819,1,0,0:0:0:0:
64,192,36931,1,0,0:0:0:0:
448,192,36931,1,0,0:0:0:0:
192,192,36986,1,0,0:0:0:0:
320,192,37042,1,0,0:0:0:0:
448,192,37153,1,0,0:0:0:0:
320,192,37208,1,0,0:0:0:0:
192,192,37264,1,0,0:0:0:0:
64,192,37375,1,0,0:0:0:0:
320,192,37375,1,0,0:0:0:0:
192,192,38819,128,0,39153:0:0:0:0:
64,192,39153,1,0,0:0:0:0:
448,192,39153,1,0,0:0:0:0:
320,192,40597,128,0,40931:0:0:0:0:
64,192,40931,1,0,0:0:0:0:
448,192,40931,128,0,42708:0:0:0:0:
192,192,41375,1,0,0:0:0:0:
320,192,41375,1,0,0:0:0:0:
64,192,41819,1,0,0:0:0:0:
320,192,41819,1,0,0:0:0:0:
64,192,42264,1,0,0:0:0:0:
192,192,42264,1,0,0:0:0:0:
64,192,42708,1,0,0:0:0:0:
320,192,42708,1,0,0:0:0:0:
192,192,42931,1,0,0:0:0:0:
320,192,42931,1,0,0:0:0:0:
192,192,43153,1,0,0:0:0:0:
448,192,43153,1,0,0:0:0:0:
320,192,43375,1,0,0:0:0:0:
448,192,43375,1,0,0:0:0:0:
64,192,43597,1,0,0:0:0:0:
448,192,43597,1,0,0:0:0:0:
64,192,44486,1,0,0:0:0:0:
192,192,44486,1,0,0:0:0:0:
448,192,44486,1,0,0:0:0:0:
320,192,44708,1,0,0:0:0:0:
64,192,44931,1,0,0:0:0:0:
192,192,44931,1,0,0:0:0:0:
448,192,45153,1,0,0:0:0:0:
64,192,45375,1,0,0:0:0:0:
320,192,45375,1,0,0:0:0:0:
192,192,45597,1,0,0:0:0:0:
320,192,45819,1,0,0:0:0:0:
448,192,45819,1,0,0:0:0:0:
64,192,46042,1,0,0:0:0:0:
192,192,46264,1,0,0:0:0:0:
448,192,46264,1,0,0:0:0:0:
320,192,46486,1,0,0:0:0:0:
64,192,46708,1,0,0:0:0:0:
448,192,46708,1,0,0:0:0:0:
192,192,46931,1,0,0:0:0:0:
64,192,47153,1,0,0:0:0:0:
448,192,47153,1,0,0:0:0:0:
320,192,47375,1,0,0:0:0:0:
192,192,47375,1,0,0:0:0:0:
64,192,47597,1,0,0:0:0:0:
448,192,47597,1,0,0:0:0:0:
320,192,47819,1,0,0:0:0:0:
64,192,48042,1,0,0:0:0:0:
192,192,48042,1,0,0:0:0:0:
448,192,48264,1,0,0:0:0:0:
320,192,48486,1,0,0:0:0:0:
64,192,48486,1,0,0:0:0:0:
192,192,48708,1,0,0:0:0:0:
320,192,48931,1,0,0:0:0:0:
448,192,48931,1,0,0:0:0:0:
64,192,49153,1,0,0:0:0:0:
192,192,49375,1,0,0:0:0:0:
448,192,49375,1,0,0:0:0:0:
320,192,49597,1,0,0:0:0:0:
64,192,49819,1,0,0:0:0:0:
192,192,49819,1,0,0:0:0:0:
320,192,50042,1,0,0:0:0:0:
64,192,50264,1,0,0:0:0:0:
448,192,50264,1,0,0:0:0:0:
192,192,50486,1,0,0:0:0:0:
320,192,50708,1,0,0:0:0:0:
448,192,50708,1,0,0:0:0:0:
192,192,50931,1,0,0:0:0:0:
64,192,51153,1,0,0:0:0:0:
448,192,51153,1,0,0:0:0:0:
320,192,51375,1,0,0:0:0:0:
64,192,51597,1,0,0:0:0:0:
192,192,51597,1,0,0:0:0:0:
448,192,51764,1,0,0:0:0:0:
320,192,51819,1,0,0:0:0:0:
64,192,51986,1,0,0:0:0:0:
192,192,52042,1,0,0:0:0:0:
448,192,52042,1,0,0:0:0:0:
320,192,52264,1,0,0:0:0:0:
448,192,52431,1,0,0:0:0:0:
320,192,52486,1,0,0:0:0:0:
64,192,52486,1,0,0:0:0:0:
192,192,52653,1,0,0:0:0:0:
64,192,52708,1,0,0:0:0:0:
320,192,52931,1,0,0:0:0:0:
448,192,52931,1,0,0:0:0:0:
192,192,53153,1,0,0:0:0:0:
320,192,53319,1,0,0:0:0:0:
448,192,53375,1,0,0:0:0:0:
64,192,53375,1,0,0:0:0:0:
192,192,53597,1,0,0:0:0:0:
320,192,53653,1,0,0:0:0:0:
64,192,53819,1,0,0:0:0:0:
192,192,53819,1,0,0:0:0:0:
320,192,53986,1,0,0:0:0:0:
192,192,54208,1,0,0:0:0:0:
64,192,54264,1,0,0:0:0:0:
448,192,54264,1,0,0:0:0:0:
320,192,54431,1,0,0:0:0:0:
448,192,54486,1,0,0:0:0:0:
64,192,54708,1,0,0:0:0:0:
320,192,54708,1,0,0:0:0:0:
192,192,54931,1,0,0:0:0:0:
320,192,55097,1,0,0:0:0:0:
448,192,55153,1,0,0:0:0:0:
64,192,55153,1,0,0:0:0:0:
192,192,55319,1,0,0:0:0:0:
64,192,55375,1,0,0:0:0:0:
448,192,55597,1,0,0:0:0:0:
320,192,55597,1,0,0:0:0:0:
192,192,55819,1,0,0:0:0:0:
64,192,55986,1,0,0:0:0:0:
192,192,56042,1,0,0:0:0:0:
448,192,56042,1,0,0:0:0:0:
320,192,56208,1,0,0:0:0:0:
448,192,56264,1,0,0:0:0:0:
192,192,56486,1,0,0:0:0:0:
64,192,56486,1,0,0:0:0:0:
320,192,56708,1,0,0:0:0:0:
192,192,56875,1,0,0:0:0:0:
448,192,56931,1,0,0:0:0:0:
64,192,56931,1,0,0:0:0:0:
320,192,57097,1,0,0:0:0:0:
448,192,57153,1,0,0:0:0:0:
64,192,57375,1,0,0:0:0:0:
192,192,57375,1,0,0:0:0:0:
320,192,57597,1,0,0:0:0:0:
192,192,57764,1,0,0:0:0:0:
64,192,57819,1,0,0:0:0:0:
448,192,57819,1,0,0:0:0:0:
320,192,57986,1,0,0:0:0:0:
448,192,58042,1,0,0:0:0:0:
64,192,58264,1,0,0:0:0:0:
192,192,58264,1,0,0:0:0:0:
320,192,58486,1,0,0:0:0:0:
192,192,58653,1,0,0:0:0:0:
64,192,58708,1,0,0:0:0:0:
448,192,58708,1,0,0:0:0:0:
320,192,58931,1,0,0:0:0:0:
64,192,59153,1,0,0:0:0:0:
192,192,59153,1,0,0:0:0:0:
448,192,59153,1,0,0:0:0:0:
320,192,59375,1,0,0:0:0:0:
64,192,59597,1,0,0:0:0:0:
448,192,59597,1,0,0:0:0:0:
192,192,59819,1,0,0:0:0:0:
320,192,60042,1,0,0:0:0:0:
448,192,60042,1,0,0:0:0:0:
64,192,60042,1,0,0:0:0:0:
192,192,60264,1,0,0:0:0:0:
448,192,60486,1,0,0:0:0:0:
320,192,60486,1,0,0:0:0:0:
64,192,60708,1,0,0:0:0:0:
320,192,60931,1,0,0:0:0:0:
64,192,60931,1,0,0:0:0:0:
192,192,60931,1,0,0:0:0:0:
448,192,61153,1,0,0:0:0:0:
192,192,61375,1,0,0:0:0:0:
64,192,61375,1,0,0:0:0:0:
448,192,61597,1,0,0:0:0:0:
192,192,61819,1,0,0:0:0:0:
320,192,61819,1,0,0:0:0:0:
448,192,61819,1,0,0:0:0:0:
64,192,62042,1,0,0:0:0:0:
64,192,62264,1,0,0:0:0:0:
448,192,62264,1,0,0:0:0:0:
192,192,62264,1,0,0:0:0:0:
320,192,62375,1,0,0:0:0:0:
192,192,62486,1,0,0:0:0:0:
64,192,62597,1,0,0:0:0:0:
320,192,62708,1,0,0:0:0:0:
448,192,62708,1,0,0:0:0:0:
192,192,62819,1,0,0:0:0:0:
64,192,62931,1,0,0:0:0:0:
448,192,63042,1,0,0:0:0:0:
320,192,63153,1,0,0:0:0:0:
64,192,63153,1,0,0:0:0:0:
192,192,63264,1,0,0:0:0:0:
320,192,63375,1,0,0:0:0:0:
448,192,63486,1,0,0:0:0:0:
64,192,63597,1,0,0:0:0:0:
192,192,63597,1,0,0:0:0:0:
320,192,63653,1,0,0:0:0:0:
448,192,63708,1,0,0:0:0:0:
64,192,63764,1,0,0:0:0:0:
192,192,63819,1,0,0:0:0:0:
320,192,63875,1,0,0:0:0:0:
448,192,63931,1,0,0:0:0:0:
64,192,63986,1,0,0:0:0:0:
448,192,64042,1,0,0:0:0:0:
192,192,64042,1,0,0:0:0:0:
320,192,64153,1,0,0:0:0:0:
64,192,64264,1,0,0:0:0:0:
192,192,64375,1,0,0:0:0:0:
64,192,64486,1,0,0:0:0:0:
320,192,64486,1,0,0:0:0:0:
448,192,64597,1,0,0:0:0:0:
192,192,64708,1,0,0:0:0:0:
64,192,64819,1,0,0:0:0:0:
448,192,64931,1,0,0:0:0:0:
192,192,64931,1,0,0:0:0:0:
320,192,65042,1,0,0:0:0:0:
64,192,65153,1,0,0:0:0:0:
192,192,65264,1,0,0:0:0:0:
320,192,65375,1,0,0:0:0:0:
64,192,65375,1,0,0:0:0:0:
448,192,65486,1,0,0:0:0:0:
192,192,65597,1,0,0:0:0:0:
320,192,65708,1,0,0:0:0:0:
448,192,65819,1,0,0:0:0:0:
64,192,65819,1,0,0:0:0:0:
192,192,66042,1,0,0:0:0:0:
64,192,66264,1,0,0:0:0:0:
448,192,66264,1,0,0:0:0:0:
320,192,66264,1,0,0:0:0:0:
192,192,66486,1,0,0:0:0:0:
64,192,66708,1,0,0:0:0:0:
448,192,66708,1,0,0:0:0:0:
320,192,66931,1,0,0:0:0:0:
64,192,67153,1,0,0:0:0:0:
448,192,67153,1,0,0:0:0:0:
192,192,67153,1,0,0:0:0:0:
320,192,67375,1,0,0:0:0:0:
64,192,67597,1,0,0:0:0:0:
192,192,67597,1,0,0:0:0:0:
448,192,67819,1,0,0:0:0:0:
448,192,68042,1,0,0:0:0:0:
320,192,68042,1,0,0:0:0:0:
192,192,68042,1,0,0:0:0:0:
64,192,68264,1,0,0:0:0:0:
320,192,68486,1,0,0:0:0:0:
448,192,68486,1,0,0:0:0:0:
64,192,68708,1,0,0:0:0:0:
64,192,68931,1,0,0:0:0:0:
192,192,68931,1,0,0:0:0:0:
320,192,68931,1,0,0:0:0:0:
448,192,69153,1,0,0:0:0:0:
448,192,69375,1,0,0:0:0:0:
320,192,69375,1,0,0:0:0:0:
64,192,69375,1,0,0:0:0:0:
64,192,69819,1,0,0:0:0:0:
192,192,69819,1,0,0:0:0:0:
448,192,70264,1,0,0:0:0:0:
192,192,70264,1,0,0:0:0:0:
320,192,70708,1,0,0:0:0:0:
448,192,70708,1,0,0:0:0:0:
64,192,71153,1,0,0:0:0:0:
320,192,71153,1,0,0:0:0:0:
192,192,71375,1,0,0:0:0:0:
320,192,71375,1,0,0:0:0:0:
64,192,71597,1,0,0:0:0:0:
448,192,71597,128,0,72042:0:0:0:0:
192,192,72042,128,0,72264:0:0:0:0:
64,192,72042,1,0,0:0:0:0:
320,192,72264,128,0,72486:0:0:0:0:
64,192,72486,128,0,72708:0:0:0:0:
448,192,72486,128,0,72931:0:0:0:0:
192,192,72708,128,0,72931:0:0:0:0:
320,192,72931,1,0,0:0:0:0:
64,192,72931,1,0,0:0:0:0:
192,192,73153,1,0,0:0:0:0:
320,192,73375,1,0,0:0:0:0:
448,192,73375,1,0,0:0:0:0:
64,192,73597,1,0,0:0:0:0:
192,192,73819,1,0,0:0:0:0:
448,192,73819,1,0,0:0:0:0:
320,192,74042,1,0,0:0:0:0:
192,192,74264,1,0,0:0:0:0:
64,192,74264,1,0,0:0:0:0:
448,192,74486,1,0,0:0:0:0:
448,192,74708,1,0,0:0:0:0:
64,192,74708,1,0,0:0:0:0:
192,192,74931,1,0,0:0:0:0:
448,192,75153,1,0,0:0:0:0:
320,192,75153,1,0,0:0:0:0:
192,192,75375,1,0,0:0:0:0:
64,192,75597,1,0,0:0:0:0:
448,192,75597,1,0,0:0:0:0:
320,192,75819,1,0,0:0:0:0:
192,192,76042,1,0,0:0:0:0:
64,192,76042,1,0,0:0:0:0:
320,192,76264,1,0,0:0:0:0:
448,192,76486,1,0,0:0:0:0:
64,192,76486,1,0,0:0:0:0:
192,192,76708,1,0,0:0:0:0:
64,192,76931,1,0,0:0:0:0:
320,192,76931,1,0,0:0:0:0:
192,192,77153,1,0,0:0:0:0:
448,192,77375,1,0,0:0:0:0:
64,192,77375,1,0,0:0:0:0:
320,192,77597,1,0,0:0:0:0:
192,192,77819,1,0,0:0:0:0:
448,192,77819,1,0,0:0:0:0:
320,192,78042,1,0,0:0:0:0:
448,192,78264,1,0,0:0:0:0:
64,192,78264,1,0,0:0:0:0:
192,192,78486,1,0,0:0:0:0:
64,192,78708,1,0,0:0:0:0:
448,192,78708,1,0,0:0:0:0:
320,192,78931,1,0,0:0:0:0:
448,192,79153,1,0,0:0:0:0:
64,192,79153,1,0,0:0:0:0:
192,192,79375,1,0,0:0:0:0:
64,192,79597,1,0,0:0:0:0:
448,192,79597,1,0,0:0:0:0:
320,192,79819,1,0,0:0:0:0:
64,192,80042,1,0,0:0:0:0:
448,192,80042,1,0,0:0:0:0:
192,192,80208,1,0,0:0:0:0:
320,192,80264,1,0,0:0:0:0:
64,192,80486,1,0,0:0:0:0:
192,192,80486,1,0,0:0:0:0:
448,192,80486,1,0,0:0:0:0:
320,192,80708,1,0,0:0:0:0:
64,192,80875,1,0,0:0:0:0:
448,192,80931,1,0,0:0:0:0:
192,192,80931,1,0,0:0:0:0:
320,192,81097,1,0,0:0:0:0:
192,192,81153,1,0,0:0:0:0:
64,192,81375,1,0,0:0:0:0:
320,192,81375,1,0,0:0:0:0:
448,192,81375,1,0,0:0:0:0:
192,192,81597,1,0,0:0:0:0:
320,192,81764,1,0,0:0:0:0:
448,192,81819,1,0,0:0:0:0:
64,192,81819,1,0,0:0:0:0:
320,192,81986,1,0,0:0:0:0:
192,192,82042,1,0,0:0:0:0:
64,192,82264,1,0,0:0:0:0:
448,192,82264,1,0,0:0:0:0:
320,192,82264,1,0,0:0:0:0:
192,192,82486,1,0,0:0:0:0:
448,192,82653,1,0,0:0:0:0:
320,192,82708,1,0,0:0:0:0:
64,192,82708,1,0,0:0:0:0:
192,192,82875,1,0,0:0:0:0:
320,192,82931,1,0,0:0:0:0:
64,192,83153,1,0,0:0:0:0:
448,192,83153,1,0,0:0:0:0:
192,192,83153,1,0,0:0:0:0:
320,192,83375,1,0,0:0:0:0:
64,192,83542,1,0,0:0:0:0:
448,192,83597,1,0,0:0:0:0:
192,192,83597,128,0,84042:0:0:0:0:
320,192,83764,1,0,0:0:0:0:
448,192,83819,1,0,0:0:0:0:
320,192,84042,128,0,84486:0:0:0:0:
64,192,84042,1,0,0:0:0:0:
448,192,84264,1,0,0:0:0:0:
192,192,84431,1,0,0:0:0:0:
64,192,84486,1,0,0:0:0:0:
448,192,84486,1,0,0:0:0:0:
320,192,84653,1,0,0:0:0:0:
448,192,84708,1,0,0:0:0:0:
64,192,84931,1,0,0:0:0:0:
192,192,84931,1,0,0:0:0:0:
320,192,85042,1,0,0:0:0:0:
448,192,85153,1,0,0:0:0:0:
64,192,85319,1,0,0:0:0:0:
192,192,85375,1,0,0:0:0:0:
448,192,85375,128,0,87153:0:0:0:0:
320,192,85542,1,0,0:0:0:0:
192,192,85597,1,0,0:0:0:0:
64,192,85819,1,0,0:0:0:0:
320,192,85819,1,0,0:0:0:0:
192,192,86042,1,0,0:0:0:0:
320,192,86208,1,0,0:0:0:0:
192,192,86264,1,0,0:0:0:0:
64,192,86264,1,0,0:0:0:0:
64,192,86431,1,0,0:0:0:0:
192,192,86486,1,0,0:0:0:0:
64,192,86708,1,0,0:0:0:0:
320,192,86708,1,0,0:0:0:0:
192,192,86875,1,0,0:0:0:0:
320,192,86931,1,0,0:0:0:0:
64,192,87097,1,0,0:0:0:0:
192,192,87153,1,0,0:0:0:0:
320,192,87153,1,0,0:0:0:0:
192,192,88431,1,0,0:0:0:0:
64,192,88486,1,0,0:0:0:0:
320,192,88486,128,0,88931:0:0:0:0:
448,192,88486,1,0,0:0:0:0:
64,192,88931,1,0,0:0:0:0:
192,192,88931,1,0,0:0:0:0:
320,192,89153,1,0,0:0:0:0:
64,192,89375,1,0,0:0:0:0:
448,192,89375,1,0,0:0:0:0:
192,192,89597,1,0,0:0:0:0:
320,192,89597,1,0,0:0:0:0:
320,192,89819,1,0,0:0:0:0:
64,192,89819,1,0,0:0:0:0:
448,192,90042,1,0,0:0:0:0:
192,192,90042,1,0,0:0:0:0:
448,192,90264,1,0,0:0:0:0:
64,192,90264,1,0,0:0:0:0:
320,192,90486,1,0,0:0:0:0:
64,192,90708,1,0,0:0:0:0:
448,192,90708,1,0,0:0:0:0:
192,192,90931,1,0,0:0:0:0:
448,192,91153,1,0,0:0:0:0:
320,192,91153,1,0,0:0:0:0:
192,192,91375,1,0,0:0:0:0:
64,192,91597,1,0,0:0:0:0:
448,192,91597,1,0,0:0:0:0:
320,192,91819,1,0,0:0:0:0:
64,192,92042,1,0,0:0:0:0:
192,192,92042,1,0,0:0:0:0:
320,192,92264,1,0,0:0:0:0:
448,192,92486,1,0,0:0:0:0:
64,192,92486,1,0,0:0:0:0:
192,192,92708,1,0,0:0:0:0:
448,192,92931,1,0,0:0:0:0:
64,192,92931,1,0,0:0:0:0:
320,192,93153,1,0,0:0:0:0:
64,192,93375,1,0,0:0:0:0:
448,192,93375,1,0,0:0:0:0:
192,192,93486,1,0,0:0:0:0:
64,192,93597,1,0,0:0:0:0:
448,192,93597,1,0,0:0:0:0:
320,192,93708,1,0,0:0:0:0:
448,192,93819,1,0,0:0:0:0:
64,192,93819,1,0,0:0:0:0:
192,192,93931,1,0,0:0:0:0:
64,192,94042,1,0,0:0:0:0:
448,192,94042,1,0,0:0:0:0:
192,192,94264,1,0,0:0:0:0:
320,192,94264,1,0,0:0:0:0:
320,192,94431,1,0,0:0:0:0:
192,192,94486,1,0,0:0:0:0:
448,192,94708,1,0,0:0:0:0:
64,192,94708,1,0,0:0:0:0:
320,192,94931,1,0,0:0:0:0:
64,192,95097,1,0,0:0:0:0:
192,192,95153,1,0,0:0:0:0:
448,192,95153,1,0,0:0:0:0:
320,192,95319,1,0,0:0:0:0:
192,192,95375,1,0,0:0:0:0:
64,192,95597,1,0,0:0:0:0:
320,192,95597,1,0,0:0:0:0:
448,192,95819,1,0,0:0:0:0:
192,192,95986,1,0,0:0:0:0:
64,192,96042,1,0,0:0:0:0:
448,192,96042,1,0,0:0:0:0:
320,192,96208,1,0,0:0:0:0:
192,192,96264,1,0,0:0:0:0:
320,192,96486,1,0,0:0:0:0:
448,192,96486,1,0,0:0:0:0:
64,192,96708,1,0,0:0:0:0:
320,192,96875,1,0,0:0:0:0:
64,192,96931,1,0,0:0:0:0:
192,192,96931,1,0,0:0:0:0:
448,192,97097,1,0,0:0:0:0:
320,192,97153,1,0,0:0:0:0:
64,192,97375,1,0,0:0:0:0:
448,192,97375,128,0,97819:0:0:0:0:
320,192,97597,1,0,0:0:0:0:
64,192,97764,1,0,0:0:0:0:
320,192,97819,1,0,0:0:0:0:
192,192,97819,1,0,0:0:0:0:
192,192,97986,1,0,0:0:0:0:
320,192,98042,1,0,0:0:0:0:
64,192,98264,1,0,0:0:0:0:
448,192,98264,1,0,0:0:0:0:
192,192,98486,1,0,0:0:0:0:
448,192,98653,1,0,0:0:0:0:
320,192,98708,1,0,0:0:0:0:
64,192,98708,1,0,0:0:0:0:
192,192,98875,1,0,0:0:0:0:
320,192,98931,1,0,0:0:0:0:
192,192,99153,1,0,0:0:0:0:
448,192,99153,1,0,0:0:0:0:
64,192,99375,1,0,0:0:0:0:
320,192,99542,1,0,0:0:0:0:
64,192,99597,1,0,0:0:0:0:
448,192,99597,1,0,0:0:0:0:
192,192,99764,1,0,0:0:0:0:
320,192,99819,1,0,0:0:0:0:
64,192,100042,1,0,0:0:0:0:
192,192,100042,1,0,0:0:0:0:
448,192,100264,1,0,0:0:0:0:
192,192,100431,1,0,0:0:0:0:
320,192,100486,1,0,0:0:0:0:
448,192,100486,1,0,0:0:0:0:
64,192,100653,1,0,0:0:0:0:
192,192,100708,1,0,0:0:0:0:
448,192,100931,1,0,0:0:0:0:
64,192,100931,128,0,101375:0:0:0:0:
192,192,101153,1,0,0:0:0:0:
448,192,101319,1,0,0:0:0:0:
320,192,101375,1,0,0:0:0:0:
192,192,101375,1,0,0:0:0:0:
192,192,102819,128,0,103153:0:0:0:0:
64,192,103153,1,0,0:0:0:0:
448,192,103153,1,0,0:0:0:0:
320,192,104597,128,0,104931:0:0:0:0:
64,192,104931,1,0,0:0:0:0:
448,192,104931,1,0,0:0:0:0:
192,192,105042,1,0,0:0:0:0:
320,192,105153,1,0,0:0:0:0:
448,192,105264,1,0,0:0:0:0:
64,192,105375,1,0,0:0:0:0:
192,192,105375,1,0,0:0:0:0:
320,192,105486,1,0,0:0:0:0:
448,192,105597,1,0,0:0:0:0:
64,192,105708,1,0,0:0:0:0:
192,192,105819,1,0,0:0:0:0:
448,192,105819,1,0,0:0:0:0:
320,192,105931,1,0,0:0:0:0:
192,192,106042,1,0,0:0:0:0:
64,192,106153,1,0,0:0:0:0:
448,192,106264,1,0,0:0:0:0:
320,192,106264,1,0,0:0:0:0:
192,192,106319,1,0,0:0:0:0:
64,192,106375,1,0,0:0:0:0:
448,192,106431,1,0,0:0:0:0:
320,192,106486,1,0,0:0:0:0:
192,192,106542,1,0,0:0:0:0:
64,192,106597,1,0,0:0:0:0:
448,192,106653,1,0,0:0:0:0:
320,192,106708,1,0,0:0:0:0:
192,192,106708,1,0,0:0:0:0:
64,192,106764,1,0,0:0:0:0:
192,192,106819,1,0,0:0:0:0:
320,192,106875,1,0,0:0:0:0:
448,192,106931,1,0,0:0:0:0:
192,192,107042,1,0,0:0:0:0:
64,192,107153,1,0,0:0:0:0:
448,192,107153,1,0,0:0:0:0:
320,192,107264,1,0,0:0:0:0:
192,192,107375,1,0,0:0:0:0:
64,192,107486,1,0,0:0:0:0:
448,192,107597,1,0,0:0:0:0:
320,192,107597,1,0,0:0:0:0:
192,192,107708,1,0,0:0:0:0:
64,192,107819,1,0,0:0:0:0:
448,192,107819,1,0,0:0:0:0:
320,192,107931,1,0,0:0:0:0:
64,192,108042,1,0,0:0:0:0:
448,192,108042,1,0,0:0:0:0:
192,192,108097,1,0,0:0:0:0:
320,192,108153,1,0,0:0:0:0:
448,192,108264,1,0,0:0:0:0:
320,192,108319,1,0,0:0:0:0:
192,192,108375,1,0,0:0:0:0:
64,192,108486,1,0,0:0:0:0:
448,192,108486,1,0,0:0:0:0:
192,192,109931,128,0,110264:0:0:0:0:
64,192,110264,1,0,0:0:0:0:
448,192,110264,1,0,0:0:0:0:
320,192,111708,128,0,112042:0:0:0:0:
64,192,112042,1,0,0:0:0:0:
448,192,112042,128,0,113819:0:0:0:0:
192,192,112486,1,0,0:0:0:0:
320,192,112486,1,0,0:0:0:0:
64,192,112931,1,0,0:0:0:0:
320,192,112931,1,0,0:0:0:0:
64,192,113375,1,0,0:0:0:0:
192,192,113375,1,0,0:0:0:0:
320,192,113819,1,0,0:0:0:0:
192,192,113819,1,0,0:0:0:0:
64,192,114042,1,0,0:0:0:0:
192,192,114042,1,0,0:0:0:0:
448,192,114264,1,0,0:0:0:0:
320,192,114264,1,0,0:0:0:0:
64,192,114486,1,0,0:0:0:0:
448,192,114486,1,0,0:0:0:0:
192,192,114708,1,0,0:0:0:0:
64,192,114708,1,0,0:0:0:0:
448,192,115153,1,0,0:0:0:0:
64,192,115597,1,0,0:0:0:0:
320,192,115597,1,0,0:0:0:0:
448,192,115597,1,0,0:0:0:0:
192,192,115819,1,0,0:0:0:0:
320,192,116042,1,0,0:0:0:0:
448,192,116042,1,0,0:0:0:0:
192,192,116264,1,0,0:0:0:0:
64,192,116486,1,0,0:0:0:0:
448,192,116486,1,0,0:0:0:0:
320,192,116708,1,0,0:0:0:0:
192,192,116931,1,0,0:0:0:0:
64,192,116931,1,0,0:0:0:0:
320,192,117153,1,0,0:0:0:0:
448,192,117375,1,0,0:0:0:0:
64,192,117375,1,0,0:0:0:0:
192,192,117597,1,0,0:0:0:0:
64,192,117819,1,0,0:0:0:0:
448,192,117819,1,0,0:0:0:0:
320,192,118042,1,0,0:0:0:0:
448,192,118264,1,0,0:0:0:0:
64,192,118264,1,0,0:0:0:0:
192,192,118486,1,0,0:0:0:0:
320,192,118486,1,0,0:0:0:0:
64,192,118708,1,0,0:0:0:0:
448,192,118708,1,0,0:0:0:0:
192,192,118931,1,0,0:0:0:0:
320,192,119153,1,0,0:0:0:0:
448,192,119153,1,0,0:0:0:0:
64,192,119375,1,0,0:0:0:0:
448,192,119597,1,0,0:0:0:0:
64,192,119597,1,0,0:0:0:0:
320,192,119819,1,0,0:0:0:0:
64,192,120042,1,0,0:0:0:0:
192,192,120042,1,0,0:0:0:0:
448,192,120264,1,0,0:0:0:0:
64,192,120486,1,0,0:0:0:0:
448,192,120486,1,0,0:0:0:0:
192,192,120708,1,0,0:0:0:0:
320,192,120931,1,0,0:0:0:0:
448,192,120931,1,0,0:0:0:0:
64,192,121153,1,0,0:0:0:0:
192,192,121375,1,0,0:0:0:0:
320,192,121375,1,0,0:0:0:0:
448,192,121597,1,0,0:0:0:0:
192,192,121819,1,0,0:0:0:0:
64,192,121819,1,0,0:0:0:0:
448,192,122042,1,0,0:0:0:0:
64,192,122042,1,0,0:0:0:0:
320,192,122264,1,0,0:0:0:0:
192,192,122264,1,0,0:0:0:0:
64,192,122486,1,0,0:0:0:0:
320,192,122708,1,0,0:0:0:0:
448,192,122708,1,0,0:0:0:0:
64,192,122875,1,0,0:0:0:0:
192,192,122931,1,0,0:0:0:0:
320,192,123097,1,0,0:0:0:0:
448,192,123153,1,0,0:0:0:0:
64,192,123153,1,0,0:0:0:0:
192,192,123375,1,0,0:0:0:0:
448,192,123542,1,0,0:0:0:0:
320,192,123597,1,0,0:0:0:0:
64,192,123597,1,0,0:0:0:0:
192,192,123764,1,0,0:0:0:0:
320,192,123819,1,0,0:0:0:0:
64,192,124042,1,0,0:0:0:0:
192,192,124042,1,0,0:0:0:0:
448,192,124264,1,0,0:0:0:0:
192,192,124431,1,0,0:0:0:0:
448,192,124486,1,0,0:0:0:0:
64,192,124486,1,0,0:0:0:0:
320,192,124653,1,0,0:0:0:0:
192,192,124708,1,0,0:0:0:0:
64,192,124931,1,0,0:0:0:0:
320,192,124931,1,0,0:0:0:0:
192,192,125153,1,0,0:0:0:0:
320,192,125319,1,0,0:0:0:0:
448,192,125375,1,0,0:0:0:0:
64,192,125375,1,0,0:0:0:0:
192,192,125542,1,0,0:0:0:0:
320,192,125597,1,0,0:0:0:0:
192,192,125819,1,0,0:0:0:0:
448,192,125819,1,0,0:0:0:0:
320,192,126042,1,0,0:0:0:0:
192,192,126208,1,0,0:0:0:0:
64,192,126264,1,0,0:0:0:0:
448,192,126264,1,0,0:0:0:0:
320,192,126431,1,0,0:0:0:0:
448,192,126486,1,0,0:0:0:0:
64,192,126708,1,0,0:0:0:0:
320,192,126708,1,0,0:0:0:0:
192,192,126931,1,0,0:0:0:0:
320,192,127097,1,0,0:0:0:0:
448,192,127153,1,0,0:0:0:0:
64,192,127153,1,0,0:0:0:0:
192,192,127319,1,0,0:0:0:0:
64,192,127375,1,0,0:0:0:0:
448,192,127597,1,0,0:0:0:0:
192,192,127597,1,0,0:0:0:0:
320,192,127819,1,0,0:0:0:0:
192,192,127986,1,0,0:0:0:0:
448,192,128042,1,0,0:0:0:0:
320,192,128042,1,0,0:0:0:0:
64,192,128208,1,0,0:0:0:0:
192,192,128264,1,0,0:0:0:0:
64,192,128486,1,0,0:0:0:0:
320,192,128486,1,0,0:0:0:0:
448,192,128708,1,0,0:0:0:0:
320,192,128875,1,0,0:0:0:0:
192,192,128931,1,0,0:0:0:0:
64,192,128931,1,0,0:0:0:0:
448,192,129097,1,0,0:0:0:0:
320,192,129153,1,0,0:0:0:0:
448,192,129375,1,0,0:0:0:0:
192,192,129375,1,0,0:0:0:0:
64,192,129597,1,0,0:0:0:0:
320,192,129764,1,0,0:0:0:0:
64,192,129819,1,0,0:0:0:0:
448,192,129819,1,0,0:0:0:0:
192,192,130042,1,0,0:0:0:0:
64,192,130264,1,0,0:0:0:0:
320,192,130264,1,0,0:0:0:0:
448,192,130264,1,0,0:0:0:0:
192,192,130486,1,0,0:0:0:0:
64,192,130708,1,0,0:0:0:0:
448,192,130708,1,0,0:0:0:0:
320,192,130931,1,0,0:0:0:0:
192,192,131153,1,0,0:0:0:0:
64,192,131153,1,0,0:0:0:0:
448,192,131153,1,0,0:0:0:0:
320,192,131375,1,0,0:0:0:0:
192,192,131597,1,0,0:0:0:0:
64,192,131597,1,0,0:0:0:0:
448,192,131819,1,0,0:0:0:0:
192,192,132042,1,0,0:0:0:0:
320,192,132042,1,0,0:0:0:0:
448,192,132042,1,0,0:0:0:0:
64,192,132264,1,0,0:0:0:0:
320,192,132486,1,0,0:0:0:0:
448,192,132486,1,0,0:0:0:0:
64,192,132708,1,0,0:0:0:0:
64,192,132931,1,0,0:0:0:0:
192,192,132931,1,0,0:0:0:0:
320,192,132931,1,0,0:0:0:0:
448,192,133153,1,0,0:0:0:0:
64,192,133375,1,0,0:0:0:0:
448,192,133375,1,0,0:0:0:0:
320,192,133375,1,0,0:0:0:0:
192,192,133486,1,0,0:0:0:0:
320,192,133597,1,0,0:0:0:0:
448,192,133708,1,0,0:0:0:0:
64,192,133819,1,0,0:0:0:0:
192,192,133819,1,0,0:0:0:0:
320,192,133931,1,0,0:0:0:0:
448,192,134042,1,0,0:0:0:0:
64,192,134153,1,0,0:0:0:0:
192,192,134264,1,0,0:0:0:0:
448,192,134264,1,0,0:0:0:0:
320,192,134375,1,0,0:0:0:0:
192,192,134486,1,0,0:0:0:0:
64,192,134597,1,0,0:0:0:0:
448,192,134708,1,0,0:0:0:0:
320,192,134708,1,0,0:0:0:0:
192,192,134764,1,0,0:0:0:0:
64,192,134819,1,0,0:0:0:0:
448,192,134875,1,0,0:0:0:0:
320,192,134931,1,0,0:0:0:0:
192,192,134986,1,0,0:0:0:0:
64,192,135042,1,0,0:0:0:0:
448,192,135097,1,0,0:0:0:0:
64,192,135153,1,0,0:0:0:0:
320,192,135153,1,0,0:0:0:0:
192,192,135264,1,0,0:0:0:0:
448,192,135375,1,0,0:0:0:0:
320,192,135486,1,0,0:0:0:0:
448,192,135597,1,0,0:0:0:0:
192,192,135597,1,0,0:0:0:0:
64,192,135708,1,0,0:0:0:0:
320,192,135819,1,0,0:0:0:0:
448,192,135931,1,0,0:0:0:0:
64,192,136042,1,0,0:0:0:0:
320,192,136042,1,0,0:0:0:0:
192,192,136153,1,0,0:0:0:0:
448,192,136264,1,0,0:0:0:0:
320,192,136375,1,0,0:0:0:0:
192,192,136486,1,0,0:0:0:0:
448,192,136486,1,0,0:0:0:0:
64,192,136597,1,0,0:0:0:0:
320,192,136708,1,0,0:0:0:0:
192,192,136819,1,0,0:0:0:0:
64,192,136931,1,0,0:0:0:0:
448,192,136931,1,0,0:0:0:0:
320,192,137153,1,0,0:0:0:0:
64,192,137375,1,0,0:0:0:0:
448,192,137375,1,0,0:0:0:0:
192,192,137375,1,0,0:0:0:0:
320,192,137597,1,0,0:0:0:0:
64,192,137819,1,0,0:0:0:0:
448,192,137819,1,0,0:0:0:0:
192,192,138042,1,0,0:0:0:0:
448,192,138264,1,0,0:0:0:0:
64,192,138264,1,0,0:0:0:0:
320,192,138264,1,0,0:0:0:0:
192,192,138486,1,0,0:0:0:0:
320,192,138708,1,0,0:0:0:0:
448,192,138708,1,0,0:0:0:0:
64,192,138931,1,0,0:0:0:0:
64,192,139153,1,0,0:0:0:0:
192,192,139153,1,0,0:0:0:0:
320,192,139153,1,0,0:0:0:0:
448,192,139375,1,0,0:0:0:0:
64,192,139597,1,0,0:0:0:0:
192,192,139597,1,0,0:0:0:0:
448,192,139819,1,0,0:0:0:0:
448,192,140042,1,0,0:0:0:0:
320,192,140042,1,0,0:0:0:0:
192,192,140042,1,0,0:0:0:0:
64,192,140264,1,0,0:0:0:0:
64,192,140486,1,0,0:0:0:0:
192,192,140486,1,0,0:0:0:0:
448,192,140486,1,0,0:0:0:0:
448,192,140931,1,0,0:0:0:0:
320,192,140931,1,0,0:0:0:0:
64,192,141375,1,0,0:0:0:0:
320,192,141375,1,0,0:0:0:0:
192,192,141819,1,0,0:0:0:0:
64,192,141819,1,0,0:0:0:0:
448,192,142264,1,0,0:0:0:0:
192,192,142264,1,0,0:0:0:0:
320,192,142486,1,0,0:0:0:0:
192,192,142486,1,0,0:0:0:0:
448,192,142708,1,0,0:0:0:0:
64,192,142708,128,0,143153:0:0:0:0:
320,192,143153,128,0,143375:0:0:0:0:
448,192,143153,1,0,0:0:0:0:
192,192,143375,128,0,143597:0:0:0:0:
448,192,143597,128,0,143819:0:0:0:0:
64,192,143597,128,0,144042:0:0:0:0:
320,192,143819,128,0,144042:0:0:0:0:
192,192,144042,1,0,0:0:0:0:
448,192,144042,128,0,144264:0:0:0:0:
64,192,144264,1,0,0:0:0:0:
448,192,144486,128,0,144708:0:0:0:0:
320,192,144708,1,0,0:0:0:0:
448,192,144931,128,0,145153:0:0:0:0:
192,192,144931,1,0,0:0:0:0:
64,192,145153,1,0,0:0:0:0:
448,192,145375,128,0,145597:0:0:0:0:
192,192,145597,1,0,0:0:0:0:
64,192,145819,128,0,146042:0:0:0:0:
320,192,145819,1,0,0:0:0:0:
448,192,146042,1,0,0:0:0:0:
64,192,146264,128,0,146486:0:0:0:0:
192,192,146264,1,0,0:0:0:0:
320,192,146486,1,0,0:0:0:0:
64,192,146708,128,0,146931:0:0:0:0:
448,192,146708,1,0,0:0:0:0:
192,192,146931,1,0,0:0:0:0:
64,192,147153,128,0,147375:0:0:0:0:
448,192,147153,1,0,0:0:0:0:
320,192,147375,1,0,0:0:0:0:
192,192,147597,1,0,0:0:0:0:
448,192,147597,128,0,147819:0:0:0:0:
64,192,147819,1,0,0:0:0:0:
448,192,148042,128,0,148264:0:0:0:0:
320,192,148042,1,0,0:0:0:0:
64,192,148264,1,0,0:0:0:0:
448,192,148486,128,0,148708:0:0:0:0:
192,192,148486,1,0,0:0:0:0:
64,192,148597,1,0,0:0:0:0:
320,192,148708,1,0,0:0:0:0:
448,192,148931,128,0,149153:0:0:0:0:
64,192,148931,1,0,0:0:0:0:
320,192,149153,1,0,0:0:0:0:
64,192,149375,128,0,149597:0:0:0:0:
192,192,149375,1,0,0:0:0:0:
448,192,149597,1,0,0:0:0:0:
64,192,149819,128,0,150042:0:0:0:0:
320,192,150042,1,0,0:0:0:0:
64,192,150264,128,0,150486:0:0:0:0:
192,192,150264,1,0,0:0:0:0:
448,192,150486,1,0,0:0:0:0:
64,192,150708,128,0,150931:0:0:0:0:
192,192,150708,1,0,0:0:0:0:
320,192,150931,1,0,0:0:0:0:
448,192,151042,1,0,0:0:0:0:
64,192,151153,1,0,0:0:0:0:
320,192,151153,128,0,151375:0:0:0:0:
192,192,151375,1,0,0:0:0:0:
320,192,151597,128,0,151819:0:0:0:0:
192,192,151819,1,0,0:0:0:0:
320,192,152042,128,0,152264:0:0:0:0:
64,192,152042,1,0,0:0:0:0:
192,192,152264,1,0,0:0:0:0:
320,192,152486,128,0,152708:0:0:0:0:
448,192,152486,1,0,0:0:0:0:
64,192,152708,1,0,0:0:0:0:
192,192,152931,128,0,153153:0:0:0:0:
448,192,152931,1,0,0:0:0:0:
320,192,153153,1,0,0:0:0:0:
192,192,153375,128,0,153597:0:0:0:0:
320,192,153597,1,0,0:0:0:0:
192,192,153819,128,0,154042:0:0:0:0:
448,192,153819,1,0,0:0:0:0:
320,192,154042,1,0,0:0:0:0:
192,192,154264,128,0,154486:0:0:0:0:
64,192,154264,1,0,0:0:0:0:
448,192,154486,1,0,0:0:0:0:
320,192,154708,128,0,154931:0:0:0:0:
64,192,154708,1,0,0:0:0:0:
192,192,154931,1,0,0:0:0:0:
320,192,155153,128,0,155375:0:0:0:0:
448,192,155153,1,0,0:0:0:0:
64,192,155375,1,0,0:0:0:0:
320,192,155597,128,0,155819:0:0:0:0:
192,192,155597,1,0,0:0:0:0:
448,192,155819,1,0,0:0:0:0:
320,192,156042,128,0,156264:0:0:0:0:
192,192,156042,1,0,0:0:0:0:
64,192,156264,1,0,0:0:0:0:
192,192,156486,128,0,156708:0:0:0:0:
448,192,156486,1,0,0:0:0:0:
320,192,156708,1,0,0:0:0:0:
192,192,156931,128,0,157153:0:0:0:0:
64,192,156931,1,0,0:0:0:0:
448,192,157153,1,0,0:0:0:0:
192,192,157375,128,0,157597:0:0:0:0:
320,192,157375,1,0,0:0:0:0:
64,192,157597,1,0,0:0:0:0:
192,192,157819,128,0,158042:0:0:0:0:
448,192,157819,1,0,0:0:0:0:
64,192,157968,1,0,0:0:0:0:
320,192,158042,1,0,0:0:0:0:
64,192,158264,1,0,0:0:0:0:
192,192,158264,1,0,0:0:0:0:
448,192,158264,1,0,0:0:0:0:
320,192,158486,1,0,0:0:0:0:
64,192,158708,1,0,0:0:0:0:
192,192,158708,1,0,0:0:0:0:
448,192,158931,1,0,0:0:0:0:
320,192,159153,1,0,0:0:0:0:
64,192,159153,1,0,0:0:0:0:
192,192,159375,1,0,0:0:0:0:
64,192,159597,1,0,0:0:0:0:
448,192,159597,1,0,0:0:0:0:
320,192,159708,1,0,0:0:0:0:
192,192,159819,1,0,0:0:0:0:
64,192,159931,1,0,0:0:0:0:
320,192,160042,1,0,0:0:0:0:
448,192,160042,1,0,0:0:0:0:
64,192,160264,1,0,0:0:0:0:
192,192,160486,1,0,0:0:0:0:
448,192,160486,1,0,0:0:0:0:
320,192,160708,1,0,0:0:0:0:
448,192,160931,1,0,0:0:0:0:
64,192,160931,1,0,0:0:0:0:
192,192,161042,1,0,0:0:0:0:
320,192,161153,1,0,0:0:0:0:
448,192,161264,1,0,0:0:0:0:
64,192,161375,1,0,0:0:0:0:
192,192,161375,1,0,0:0:0:0:
320,192,161486,1,0,0:0:0:0:
448,192,161597,1,0,0:0:0:0:
64,192,161708,1,0,0:0:0:0:
192,192,161819,1,0,0:0:0:0:
448,192,161819,1,0,0:0:0:0:
320,192,162042,1,0,0:0:0:0:
192,192,162153,1,0,0:0:0:0:
64,192,162264,1,0,0:0:0:0:
448,192,162264,1,0,0:0:0:0:
320,192,162486,1,0,0:0:0:0:
448,192,162708,1,0,0:0:0:0:
192,192,162708,1,0,0:0:0:0:
64,192,162819,1,0,0:0:0:0:
192,192,162931,1,0,0:0:0:0:
64,192,163153,1,0,0:0:0:0:
448,192,163153,1,0,0:0:0:0:
320,192,163375,1,0,0:0:0:0:
448,192,163597,1,0,0:0:0:0:
64,192,163597,1,0,0:0:0:0:
320,192,163653,1,0,0:0:0:0:
192,192,163708,1,0,0:0:0:0:
64,192,163764,1,0,0:0:0:0:
448,192,163819,1,0,0:0:0:0:
320,192,163931,1,0,0:0:0:0:
192,192,164042,1,0,0:0:0:0:
64,192,164042,1,0,0:0:0:0:
448,192,164153,1,0,0:0:0:0:
320,192,164264,1,0,0:0:0:0:
192,192,164375,1,0,0:0:0:0:
64,192,164486,1,0,0:0:0:0:
448,192,164486,1,0,0:0:0:0:
320,192,164708,1,0,0:0:0:0:
192,192,164819,1,0,0:0:0:0:
448,192,164931,1,0,0:0:0:0:
64,192,164931,1,0,0:0:0:0:
192,192,164986,1,0,0:0:0:0:
320,192,165042,1,0,0:0:0:0:
448,192,165153,1,0,0:0:0:0:
320,192,165208,1,0,0:0:0:0:
192,192,165264,1,0,0:0:0:0:
64,192,165375,1,0,0:0:0:0:
448,192,165375,1,0,0:0:0:0:
320,192,165375,1,0,0:0:0:0:
64,192,165819,1,0,0:0:0:0:
320,192,165819,1,0,0:0:0:0:
448,192,165968,1,0,0:0:0:0:
64,192,166116,1,0,0:0:0:0:
192,192,166116,1,0,0:0:0:0:
320,192,166116,1,0,0:0:0:0:
448,192,166708,1,0,0:0:0:0:
192,192,166708,1,0,0:0:0:0:
64,192,166857,1,0,0:0:0:0:
192,192,167005,1,0,0:0:0:0:
448,192,167005,1,0,0:0:0:0:
320,192,167005,1,0,0:0:0:0:
64,192,167597,1,0,0:0:0:0:
192,192,167597,1,0,0:0:0:0:
320,192,167745,1,0,0:0:0:0:
64,192,167894,1,0,0:0:0:0:
192,192,167894,1,0,0:0:0:0:
448,192,167894,1,0,0:0:0:0:
320,192,168264,1,0,0:0:0:0:
448,192,168264,1,0,0:0:0:0:
64,192,168486,1,0,0:0:0:0:
192,192,168486,1,0,0:0:0:0:
320,192,168708,1,0,0:0:0:0:
448,192,168708,1,0,0:0:0:0:
64,192,168931,1,0,0:0:0:0:
192,192,168931,1,0,0:0:0:0:
448,192,169153,1,0,0:0:0:0:
64,192,169153,1,0,0:0:0:0:
448,192,169375,1,0,0:0:0:0:
320,192,169375,1,0,0:0:0:0:
192,192,169597,1,0,0:0:0:0:
448,192,169597,1,0,0:0:0:0:
192,192,169819,1,0,0:0:0:0:
64,192,169819,1,0,0:0:0:0:
320,192,170042,1,0,0:0:0:0:
448,192,170042,1,0,0:0:0:0:
64,192,170264,1,0,0:0:0:0:
448,192,170264,1,0,0:0:0:0:
192,192,170375,1,0,0:0:0:0:
320,192,170375,1,0,0:0:0:0:
64,192,170486,1,0,0:0:0:0:
448,192,170486,1,0,0:0:0:0:
320,192,170597,1,0,0:0:0:0:
192,192,170597,1,0,0:0:0:0:
448,192,170708,1,0,0:0:0:0:
320,192,170708,1,0,0:0:0:0:
64,192,170819,1,0,0:0:0:0:
192,192,170819,1,0,0:0:0:0:
448,192,170931,1,0,0:0:0:0:
320,192,170931,1,0,0:0:0:0:
64,192,171042,1,0,0:0:0:0:
192,192,171042,1,0,0:0:0:0:
320,192,171153,1,0,0:0:0:0:
448,192,171153,1,0,0:0:0:0:
64,192,171264,1,0,0:0:0:0:
192,192,171264,1,0,0:0:0:0:
320,192,171375,1,0,0:0:0:0:
448,192,171375,1,0,0:0:0:0:
64,192,171486,1,0,0:0:0:0:
192,192,171486,1,0,0:0:0:0:
320,192,171597,1,0,0:0:0:0:
448,192,171597,1,0,0:0:0:0:
64,192,171708,1,0,0:0:0:0:
192,192,171708,1,0,0:0:0:0:
320,192,171819,1,0,0:0:0:0:
448,192,171819,1,0,0:0:0:0:
64,192,171931,1,0,0:0:0:0:
192,192,171931,1,0,0:0:0:0:
320,192,172042,1,0,0:0:0:0:
448,192,172042,1,0,0:0:0:0:
192,192,172042,1,0,0:0:0:0:
64,192,172042,1,0,0:0:0:0:
64,192,172486,1,0,0:0:0:0:
192,192,172486,1,0,0:0:0:0:
448,192,172486,1,0,0:0:0:0:
320,192,172708,1,0,0:0:0:0:
192,192,172931,1,0,0:0:0:0:
64,192,172931,1,0,0:0:0:0:
448,192,173153,1,0,0:0:0:0:
64,192,173375,1,0,0:0:0:0:
320,192,173375,1,0,0:0:0:0:
192,192,173597,1,0,0:0:0:0:
64,192,173819,1,0,0:0:0:0:
448,192,173819,1,0,0:0:0:0:
192,192,174042,1,0,0:0:0:0:
320,192,174264,1,0,0:0:0:0:
448,192,174264,1,0,0:0:0:0:
64,192,174486,1,0,0:0:0:0:
192,192,174708,1,0,0:0:0:0:
320,192,174708,1,0,0:0:0:0:
448,192,174931,1,0,0:0:0:0:
64,192,175153,1,0,0:0:0:0:
192,192,175153,1,0,0:0:0:0:
320,192,175375,1,0,0:0:0:0:
448,192,175375,1,0,0:0:0:0:
64,192,175597,1,0,0:0:0:0:
448,192,175597,1,0,0:0:0:0:
192,192,175819,1,0,0:0:0:0:
448,192,176042,1,0,0:0:0:0:
64,192,176042,1,0,0:0:0:0:
320,192,176264,1,0,0:0:0:0:
192,192,176486,1,0,0:0:0:0:
64,192,176486,1,0,0:0:0:0:
320,192,176708,1,0,0:0:0:0:
448,192,176931,1,0,0:0:0:0:
64,192,176931,1,0,0:0:0:0:
192,192,177153,1,0,0:0:0:0:
320,192,177375,1,0,0:0:0:0:
448,192,177375,1,0,0:0:0:0:
192,192,177597,1,0,0:0:0:0:
64,192,177819,1,0,0:0:0:0:
448,192,177819,1,0,0:0:0:0:
320,192,178042,1,0,0:0:0:0:
64,192,178264,1,0,0:0:0:0:
192,192,178264,1,0,0:0:0:0:
448,192,178486,1,0,0:0:0:0:
64,192,178708,1,0,0:0:0:0:
448,192,178708,1,0,0:0:0:0:
192,192,178931,1,0,0:0:0:0:
320,192,178931,1,0,0:0:0:0:
448,192,179153,1,0,0:0:0:0:
64,192,179153,1,0,0:0:0:0:
192,192,179375,1,0,0:0:0:0:
448,192,179597,1,0,0:0:0:0:
64,192,179597,1,0,0:0:0:0:
320,192,179764,1,0,0:0:0:0:
192,192,179819,1,0,0:0:0:0:
448,192,179986,1,0,0:0:0:0:
320,192,180042,1,0,0:0:0:0:
64,192,180042,1,0,0:0:0:0:
192,192,180264,1,0,0:0:0:0:
320,192,180431,1,0,0:0:0:0:
64,192,180486,1,0,0:0:0:0:
192,192,180486,1,0,0:0:0:0:
448,192,180653,1,0,0:0:0:0:
320,192,180708,1,0,0:0:0:0:
64,192,180931,1,0,0:0:0:0:
448,192,180931,1,0,0:0:0:0:
192,192,181153,1,0,0:0:0:0:
320,192,181319,1,0,0:0:0:0:
448,192,181375,1,0,0:0:0:0:
64,192,181375,1,0,0:0:0:0:
192,192,181542,1,0,0:0:0:0:
320,192,181597,1,0,0:0:0:0:
64,192,181819,1,0,0:0:0:0:
192,192,181819,1,0,0:0:0:0:
320,192,182042,1,0,0:0:0:0:
192,192,182208,1,0,0:0:0:0:
448,192,182264,1,0,0:0:0:0:
320,192,182264,1,0,0:0:0:0:
64,192,182431,1,0,0:0:0:0:
192,192,182486,1,0,0:0:0:0:
64,192,182708,1,0,0:0:0:0:
448,192,182708,1,0,0:0:0:0:
320,192,182931,1,0,0:0:0:0:
192,192,183097,1,0,0:0:0:0:
64,192,183153,1,0,0:0:0:0:
448,192,183153,1,0,0:0:0:0:
320,192,183319,1,0,0:0:0:0:
448,192,183375,1,0,0:0:0:0:
64,192,183597,1,0,0:0:0:0:
192,192,183597,1,0,0:0:0:0:
320,192,183819,1,0,0:0:0:0:
64,192,183986,1,0,0:0:0:0:
192,192,184042,1,0,0:0:0:0:
448,192,184042,1,0,0:0:0:0:
320,192,184208,1,0,0:0:0:0:
448,192,184264,1,0,0:0:0:0:
64,192,184486,1,0,0:0:0:0:
320,192,184486,1,0,0:0:0:0:
448,192,184708,1,0,0:0:0:0:
320,192,184875,1,0,0:0:0:0:
64,192,184931,1,0,0:0:0:0:
448,192,184931,1,0,0:0:0:0:
192,192,185097,1,0,0:0:0:0:
64,192,185153,1,0,0:0:0:0:
320,192,185375,1,0,0:0:0:0:
448,192,185375,1,0,0:0:0:0:
192,192,185597,1,0,0:0:0:0:
448,192,185764,1,0,0:0:0:0:
320,192,185819,1,0,0:0:0:0:
64,192,185819,1,0,0:0:0:0:
192,192,185986,1,0,0:0:0:0:
64,192,186042,1,0,0:0:0:0:
192,192,186264,1,0,0:0:0:0:
448,192,186264,1,0,0:0:0:0:
320,192,186486,1,0,0:0:0:0:
192,192,186653,1,0,0:0:0:0:
64,192,186708,1,0,0:0:0:0:
448,192,186708,1,0,0:0:0:0:
320,192,186931,1,0,0:0:0:0:
64,192,187153,1,0,0:0:0:0:
448,192,187153,1,0,0:0:0:0:
192,192,187153,1,0,0:0:0:0:
320,192,187375,1,0,0:0:0:0:
64,192,187597,1,0,0:0:0:0:
448,192,187597,1,0,0:0:0:0:
192,192,187819,1,0,0:0:0:0:
64,192,188042,1,0,0:0:0:0:
448,192,188042,1,0,0:0:0:0:
320,192,188042,1,0,0:0:0:0:
192,192,188264,1,0,0:0:0:0:
320,192,188486,1,0,0:0:0:0:
448,192,188486,1,0,0:0:0:0:
64,192,188708,1,0,0:0:0:0:
64,192,188931,1,0,0:0:0:0:
192,192,188931,1,0,0:0:0:0:
320,192,188931,1,0,0:0:0:0:
448,192,189153,1,0,0:0:0:0:
64,192,189375,1,0,0:0:0:0:
192,192,189375,1,0,0:0:0:0:
448,192,189597,1,0,0:0:0:0:
192,192,189819,1,0,0:0:0:0:
320,192,189819,1,0,0:0:0:0:
448,192,189819,1,0,0:0:0:0:
64,192,190042,1,0,0:0:0:0:
64,192,190264,1,0,0:0:0:0:
192,192,190264,1,0,0:0:0:0:
448,192,190264,1,0,0:0:0:0:
320,192,190375,1,0,0:0:0:0:
192,192,190486,1,0,0:0:0:0:
64,192,190597,1,0,0:0:0:0:
448,192,190708,1,0,0:0:0:0:
320,192,190708,1,0,0:0:0:0:
192,192,190819,1,0,0:0:0:0:
64,192,190931,1,0,0:0:0:0:
448,192,191042,1,0,0:0:0:0:
320,192,191153,1,0,0:0:0:0:
64,192,191153,1,0,0:0:0:0:
192,192,191264,1,0,0:0:0:0:
320,192,191375,1,0,0:0:0:0:
448,192,191486,1,0,0:0:0:0:
64,192,191597,1,0,0:0:0:0:
192,192,191597,1,0,0:0:0:0:
320,192,191653,1,0,0:0:0:0:
448,192,191708,1,0,0:0:0:0:
64,192,191764,1,0,0:0:0:0:
192,192,191819,1,0,0:0:0:0:
320,192,191875,1,0,0:0:0:0:
448,192,191931,1,0,0:0:0:0:
64,192,191986,1,0,0:0:0:0:
192,192,192042,1,0,0:0:0:0:
448,192,192042,1,0,0:0:0:0:
320,192,192153,1,0,0:0:0:0:
192,192,192264,1,0,0:0:0:0:
64,192,192375,1,0,0:0:0:0:
448,192,192486,1,0,0:0:0:0:
320,192,192486,1,0,0:0:0:0:
192,192,192597,1,0,0:0:0:0:
64,192,192708,1,0,0:0:0:0:
448,192,192819,1,0,0:0:0:0:
320,192,192931,1,0,0:0:0:0:
64,192,192931,1,0,0:0:0:0:
192,192,193042,1,0,0:0:0:0:
320,192,193153,1,0,0:0:0:0:
448,192,193264,1,0,0:0:0:0:
64,192,193375,1,0,0:0:0:0:
192,192,193375,1,0,0:0:0:0:
320,192,193486,1,0,0:0:0:0:
448,192,193597,1,0,0:0:0:0:
64,192,193597,1,0,0:0:0:0:
192,192,193708,1,0,0:0:0:0:
64,192,193819,1,0,0:0:0:0:
448,192,193819,1,0,0:0:0:0:
320,192,194042,1,0,0:0:0:0:
64,192,194264,1,0,0:0:0:0:
192,192,194264,1,0,0:0:0:0:
448,192,194264,1,0,0:0:0:0:
320,192,194486,1,0,0:0:0:0:
64,192,194708,1,0,0:0:0:0:
448,192,194708,1,0,0:0:0:0:
192,192,194931,1,0,0:0:0:0:
64,192,195153,1,0,0:0:0:0:
320,192,195153,1,0,0:0:0:0:
448,192,195153,1,0,0:0:0:0:
192,192,195375,1,0,0:0:0:0:
320,192,195597,1,0,0:0:0:0:
448,192,195597,1,0,0:0:0:0:
64,192,195819,1,0,0:0:0:0:
64,192,196042,1,0,0:0:0:0:
192,192,196042,1,0,0:0:0:0:
320,192,196042,1,0,0:0:0:0:
448,192,196264,1,0,0:0:0:0:
64,192,196486,1,0,0:0:0:0:
192,192,196486,1,0,0:0:0:0:
448,192,196708,1,0,0:0:0:0:
448,192,196931,1,0,0:0:0:0:
320,192,196931,1,0,0:0:0:0:
192,192,196931,1,0,0:0:0:0:
64,192,197153,1,0,0:0:0:0:
64,192,197375,1,0,0:0:0:0:
192,192,197375,1,0,0:0:0:0:
448,192,197375,1,0,0:0:0:0:
320,192,197597,1,0,0:0:0:0:
64,192,197819,1,0,0:0:0:0:
192,192,197819,1,0,0:0:0:0:
448,192,198042,1,0,0:0:0:0:
64,192,198264,1,0,0:0:0:0:
320,192,198264,1,0,0:0:0:0:
192,192,198486,1,0,0:0:0:0:
320,192,198708,1,0,0:0:0:0:
448,192,198708,1,0,0:0:0:0:
192,192,198931,1,0,0:0:0:0:
64,192,199153,1,0,0:0:0:0:
448,192,199153,1,0,0:0:0:0:
192,192,199375,1,0,0:0:0:0:
64,192,199375,1,0,0:0:0:0:
320,192,199597,1,0,0:0:0:0:
448,192,199597,128,0,200931:0:0:0:0:
64,192,200042,128,0,200264:0:0:0:0:
192,192,200264,128,0,200486:0:0:0:0:
320,192,200486,128,0,200708:0:0:0:0:
64,192,200708,128,0,200931:0:0:0:0:
192,192,200931,128,0,202708:0:0:0:0:
